osu file format v14

[General]
AudioFilename: audio.mp3
AudioLeadIn: 0
PreviewTime: 28921
Countdown: 0
SampleSet: Soft
StackLeniency: 0.7
Mode: 0
LetterboxInBreaks: 0
WidescreenStoryboard: 0

[Editor]
Bookmarks: 198,3848,7498,11148,14798,18437,21746,25281,28921,32571,36221,39871,43521,47171,50822,54472,57209,59947,63597,65419,69611,73279
DistanceSpacing: 1.2
BeatDivisor: 4
GridSize: 32
TimelineZoom: 1.7

[Metadata]
Title:Flowering Game Night
TitleUnicode:Flowering Game Night
Artist:BLANKFIELD
ArtistUnicode:BLANKFIELD
Creator:eiri-
Version:Normal
Source:東方花映塚 ~ Phantasmagoria of Flower View.
Tags:Ayyri Featured Artist FA 東方Project ZUN Team Shanghai Alice Touhou Izayoi Sakuya 十六夜 咲夜 PoFV TH09 TH 9 Flower Reflecting Mound Kaeizuka permutation suicide Instrumental Video Game Metal Comiket 79 C79 warinside
BeatmapID:2470713
BeatmapSetID:1185325

[Difficulty]
HPDrainRate:4
CircleSize:2.5
OverallDifficulty:6
ApproachRate:6
SliderMultiplier:0.8
SliderTickRate:1

[Events]
//Background and Video events
0,0,"Sakuya 685.jpg",0,0
//Break Periods
//Storyboard Layer 0 (Background)
//Storyboard Layer 1 (Fail)
//Storyboard Layer 2 (Pass)
//Storyboard Layer 3 (Foreground)
//Storyboard Layer 4 (Overlay)
//Storyboard Sound Samples

[TimingPoints]
198,228.136882129278,4,2,1,80,1,0
14798,220.588235294118,4,2,1,70,1,0
24393,222.222222222222,4,2,1,70,1,0
24504,222.222222222222,4,2,1,70,1,0
25392,220.588235294118,4,2,1,70,1,0
28921,228.136882129278,4,2,1,75,1,0
54472,-100,4,2,1,80,0,0
65194,225.563909774436,4,2,1,80,1,0
65419,262.008733624454,4,2,1,30,1,0

[Colours]
Combo1 : 117,196,238
Combo2 : 248,112,112
Combo3 : 243,190,92
Combo4 : 118,235,112

[HitObjects]
32,320,198,5,6,1:2:0:0:
115,271,426,1,10,0:0:0:0:
175,345,654,2,0,L|263:331,1,80,10|10,0:0|0:0,0:0:0:0:
346,358,1110,2,0,P|386:341|395:226,1,160,6|0,1:2|1:0,0:0:0:0:
339,164,1794,1,14,0:0:0:0:
413,102,2023,2,0,P|418:45|411:13,1,80,6|10,1:2|0:0,0:0:0:0:
319,39,2479,2,0,P|280:26|192:24,1,120,10|0,0:0|1:0,0:0:0:0:
159,45,2935,5,14,0:0:0:0:
184,137,3163,1,6,1:2:0:0:
209,229,3391,1,6,1:2:0:0:
234,321,3620,1,14,0:0:0:0:
143,351,3848,6,0,L|52:332,1,80,6|10,1:2|0:0,0:0:0:0:
5,259,4304,2,0,L|96:240,1,80,10|10,0:0|0:0,0:0:0:0:
162,189,4760,1,10,0:0:0:0:
104,111,4988,1,10,0:0:0:0:
148,25,5217,2,0,L|235:36,1,80,2|14,1:2|0:0,0:0:0:0:
299,99,5673,6,0,B|418:80|418:80|385:294,1,320,6|6,1:2|1:2,0:0:0:0:
367,370,6813,1,8,0:0:0:0:
274,350,7042,1,6,1:2:0:0:
294,257,7270,1,10,0:0:0:0:
202,287,7498,6,0,L|112:270,1,80,6|2,1:2|1:2,0:0:0:0:
60,199,7954,1,2,1:2:0:0:
136,140,8182,1,2,1:2:0:0:
223,179,8410,2,0,L|313:162,1,80,2|2,1:2|1:2,0:0:0:0:
347,179,8753,2,0,P|409:143|410:93,1,120,14|6,0:0|1:2,0:0:0:0:
370,14,9323,5,6,1:2:0:0:
284,56,9551,1,2,1:2:0:0:
197,13,9779,2,0,L|107:30,1,80,2|2,1:2|1:2,0:0:0:0:
25,54,10236,2,0,L|43:146,1,80,2|2,1:2|1:2,0:0:0:0:
72,167,10578,2,0,L|46:303,1,120,14|6,0:0|1:2,0:0:0:0:
105,363,11148,6,0,P|185:359|269:332,1,160,6|2,1:2|1:2,0:0:0:0:
346,292,11832,1,2,1:2:0:0:
277,224,12061,2,0,L|287:126,1,80,2|2,1:2|1:2,0:0:0:0:
262,102,12403,2,0,L|394:84,1,120,14|14,0:0|1:2,0:0:0:0:
448,17,12973,5,6,1:2:0:0:
498,98,13201,1,10,0:0:0:0:
433,168,13429,2,0,L|426:259,1,80,10|10,0:0|0:0,0:0:0:0:
419,343,13886,2,0,B|383:289|383:289|283:307,1,160,14|14,0:0|0:0,0:0:0:0:
196,328,14570,1,14,0:0:0:0:
141,247,14798,6,0,L|151:195,1,40,2|2,1:2|1:2,0:0:0:0:
136,160,15018,1,14,0:0:0:0:
136,160,17886,6,0,L|264:174,1,120,2|2,1:2|1:2,0:0:0:0:
347,145,18437,1,14,0:0:0:0:
352,149,20753,1,2,1:2:0:0:
352,149,20864,6,0,B|227:127,1,120,10|10,0:0|0:0,0:0:0:0:
139,113,21415,2,0,L|156:198,1,80,10|10,0:0|0:0,0:0:0:0:
146,238,21746,5,6,1:2:0:0:
284,198,22077,1,6,1:2:0:0:
284,198,24393,6,0,P|353:178|413:176,1,120,2|10,1:2|0:0,0:0:0:0:
495,188,24948,2,0,L|480:275,1,80,2|8,1:2|0:0,0:0:0:0:
494,313,25281,5,6,1:2:0:0:
353,282,25612,1,6,1:2:0:0:
182,369,26053,5,10,0:0:0:0:
224,184,26494,5,10,0:0:0:0:
34,218,26936,6,0,L|42:172,1,40,10|2,0:0|1:2,0:0:0:0:
102,105,27267,2,0,L|94:59,1,40,2|10,1:2|0:0,0:0:0:0:
87,18,27487,2,0,L|181:5,1,80,10|0,0:0|1:0,0:0:0:0:
256,40,27928,2,0,L|245:131,1,80,6|2,1:2|1:2,0:0:0:0:
258,165,28259,1,14,0:0:0:0:
347,129,28480,1,2,1:2:0:0:
390,214,28700,1,10,0:0:0:0:
479,178,28921,6,0,L|495:44,2,120,6|2|2,1:2|1:2|1:2,0:0:0:0:
490,273,29833,1,14,0:0:0:0:
360,210,30175,1,2,1:2:0:0:
304,342,30517,1,10,0:0:0:0:
208,331,30746,6,0,L|83:349,2,120,6|2|2,1:2|1:2|1:2,0:0:0:0:
240,240,31658,2,0,P|234:206|195:169,1,80,14|2,0:0|0:0,0:0:0:0:
160,153,32000,1,2,1:2:0:0:
160,153,32114,2,0,P|166:119|205:82,1,80,2|10,0:0|0:0,0:0:0:0:
272,28,32571,6,0,L|397:46,2,120,6|2|2,1:2|1:2|1:2,0:0:0:0:
176,14,33483,1,14,0:0:0:0:
188,157,33825,1,2,1:2:0:0:
50,200,34168,1,10,0:0:0:0:
75,292,34396,6,0,L|88:159,2,120,6|2|2,1:2|1:2|1:2,0:0:0:0:
135,366,35308,1,14,0:0:0:0:
236,263,35651,1,2,1:2:0:0:
363,329,35993,1,10,0:0:0:0:
407,244,36221,6,0,L|389:118,2,120,6|2|2,1:2|1:2|1:2,0:0:0:0:
487,296,37133,1,14,0:0:0:0:
359,364,37476,1,2,1:2:0:0:
236,288,37818,1,10,0:0:0:0:
156,341,38046,6,0,L|30:353,2,120,6|2|2,1:2|1:2|1:2,0:0:0:0:
224,272,38959,2,0,P|238:231|225:190,1,80,14|2,0:0|0:0,0:0:0:0:
203,155,39301,1,2,1:2:0:0:
203,155,39415,2,0,P|189:114|202:73,1,80,2|10,0:0|0:0,0:0:0:0:
266,12,39871,6,0,L|403:26,2,120,6|2|2,1:2|1:2|1:2,0:0:0:0:
173,37,40784,1,14,0:0:0:0:
283,130,41126,1,2,1:2:0:0:
207,252,41468,1,10,0:0:0:0:
143,180,41696,6,0,L|6:194,2,120,6|2|2,1:2|1:2|1:2,0:0:0:0:
230,138,42609,1,14,0:0:0:0:
304,261,42951,1,14,0:0:0:0:
446,238,43293,1,14,0:0:0:0:
433,142,43521,6,0,L|450:45,2,80,6|2|10,1:2|1:2|0:0,0:0:0:0:
148,95,44662,2,0,L|131:-2,1,80,2|2,1:2|1:2,0:0:0:0:
107,302,45574,1,2,1:2:0:0:
390,353,46259,6,0,L|478:340,1,80,14|0,0:0|0:0,0:0:0:0:
456,246,46715,2,0,L|368:259,1,80,14|0,0:0|0:0,0:0:0:0:
302,196,47171,6,0,L|313:110,2,80,6|2|10,1:2|1:2|0:0,0:0:0:0:
40,317,48312,2,0,L|29:231,1,80,2|2,1:2|1:2,0:0:0:0:
284,372,49225,1,2,1:2:0:0:
391,106,49909,6,0,L|305:117,1,80,14|0,0:0|0:0,0:0:0:0:
246,186,50365,2,0,L|160:175,1,80,14|0,0:0|0:0,0:0:0:0:
82,222,50822,5,2,0:1:0:0:
82,222,54016,5,2,0:1:0:0:
270,327,54472,6,0,L|442:309,1,160,6|2,1:2|1:2,0:0:0:0:
494,240,55156,1,14,0:0:0:0:
455,151,55384,2,0,P|407:170|328:100,1,160,6|14,1:2|0:0,0:0:0:0:
343,13,56069,1,14,0:0:0:0:
249,33,56297,2,0,P|203:23|156:21,1,80,10|2,0:0|1:2,0:0:0:0:
86,67,56753,1,14,0:0:0:0:
148,140,56981,1,2,1:2:0:0:
68,193,57209,6,0,L|50:362,1,160,6|2,1:2|1:2,0:0:0:0:
142,322,57894,1,14,0:0:0:0:
224,371,58122,2,0,L|305:356,1,80,6|2,1:2|1:2,0:0:0:0:
354,275,58578,1,2,1:2:0:0:
446,300,58806,1,2,1:2:0:0:
486,211,59035,2,0,L|470:124,1,80,2|2,1:2|1:2,0:0:0:0:
502,41,59491,1,14,0:0:0:0:
312,72,59947,6,0,P|235:51|144:45,1,160,6|2,1:2|1:2,0:0:0:0:
62,69,60632,1,14,0:0:0:0:
104,155,60860,2,0,L|62:323,1,160,6|14,1:2|0:0,0:0:0:0:
139,372,61544,2,0,L|235:360,2,80,14|10|10,0:0|0:0|0:0,0:0:0:0:
45,350,62228,1,2,1:2:0:0:
115,283,62457,1,14,0:0:0:0:
289,362,62913,1,14,0:0:0:0:
374,318,63141,2,0,L|471:331,1,80,2|14,1:2|0:0,0:0:0:0:
505,248,63597,6,0,P|496:168|467:88,1,160,6|14,1:2|0:0,0:0:0:0:
408,18,64282,2,0,L|323:31,1,80,8|14,0:0|0:0,0:0:0:0:
244,75,64738,2,0,L|159:62,1,80,14|14,0:0|0:0,0:0:0:0:
86,117,65194,1,14,0:0:0:0:
256,192,65419,12,0,73279,0:0:0:0:
