osu file format v14

[General]
AudioFilename: audio.mp3
AudioLeadIn: 0
PreviewTime: 28921
Countdown: 0
SampleSet: Soft
StackLeniency: 0.4
Mode: 0
LetterboxInBreaks: 0
WidescreenStoryboard: 0

[Editor]
Bookmarks: 198,3848,7498,11148,14798,18437,21746,25281,28921,32571,36221,39871,43521,47171,50822,54472,57209,59947,63597,65419,69611,73279
DistanceSpacing: 2
BeatDivisor: 4
GridSize: 32
TimelineZoom: 3.499999

[Metadata]
Title:Flowering Game Night
TitleUnicode:Flowering Game Night
Artist:BLANKFIELD
ArtistUnicode:BLANKFIELD
Creator:eiri-
Version:Lunatic
Source:東方花映塚 ~ Phantasmagoria of Flower View.
Tags:Ayyri Featured Artist FA 東方Project ZUN Team Shanghai Alice Touhou Izayoi Sakuya 十六夜 咲夜 PoFV TH09 TH 9 Flower Reflecting Mound Kaeizuka permutation suicide Instrumental Video Game Metal Comiket 79 C79 warinside
BeatmapID:2470712
BeatmapSetID:1185325

[Difficulty]
HPDrainRate:5
CircleSize:3.5
OverallDifficulty:8
ApproachRate:9.3
SliderMultiplier:1.2
SliderTickRate:1

[Events]
//Background and Video events
0,0,"Sakuya 685.jpg",0,0
//Break Periods
//Storyboard Layer 0 (Background)
//Storyboard Layer 1 (Fail)
//Storyboard Layer 2 (Pass)
//Storyboard Layer 3 (Foreground)
//Storyboard Layer 4 (Overlay)
//Storyboard Sound Samples

[TimingPoints]
198,228.136882129278,4,2,1,80,1,0
14798,220.588235294118,4,2,1,70,1,0
24393,222.222222222222,4,2,1,70,1,0
24504,222.222222222222,4,2,1,70,1,0
25392,220.588235294118,4,2,1,70,1,0
28921,228.136882129278,4,2,1,75,1,0
54472,-100,4,2,1,80,0,0
65194,225.563909774436,4,2,1,80,1,0
65419,262.008733624454,4,2,1,30,1,0

[Colours]
Combo1 : 117,196,238
Combo2 : 248,112,112
Combo3 : 243,190,92
Combo4 : 118,235,112

[HitObjects]
160,352,198,5,6,1:2:0:0:
129,230,312,1,2,1:2:0:0:
138,371,426,2,0,P|151:282|165:225,1,120,10|10,0:0|0:0,0:0:0:0:
198,126,768,1,0,1:0:0:0:
198,126,882,2,0,P|161:99|107:90,1,90,10|0,0:0|0:0,0:0:0:0:
86,125,1110,6,0,L|91:170,2,30,6|0|0,1:2|1:0|1:0,0:0:0:0:
10,38,1338,2,0,L|-7:83,3,30,10|10|10|10,0:0|0:0|0:0|0:0,0:0:0:0:
9,101,1566,1,0,1:0:0:0:
129,34,1680,1,0,1:0:0:0:
281,108,1794,2,0,L|266:9,1,90,14|0,0:0|0:0,0:0:0:0:
276,27,2023,6,0,L|330:32,3,30,6|2|2|2,1:2|1:2|1:2|1:2,0:0:0:0:
338,18,2251,2,0,L|408:12,1,60,10|0,0:0|1:0,0:0:0:0:
279,145,2479,1,10,0:0:0:0:
279,145,2593,2,0,L|225:140,2,30,10|10|2,0:0|0:0|1:2,0:0:0:0:
369,195,2821,1,0,1:0:0:0:
485,113,2935,6,0,L|492:56,2,30,14|10|2,0:0|0:0|1:2,0:0:0:0:
408,177,3163,2,0,L|415:234,2,30,6|2|2,1:2|1:2|1:2,0:0:0:0:
353,61,3391,2,0,L|360:4,2,30,6|2|2,1:2|1:2|1:2,0:0:0:0:
263,179,3620,2,0,L|256:236,2,30,14|0|0,0:0|0:0|0:0,0:0:0:0:
113,99,3848,5,6,1:2:0:0:
113,99,3962,1,8,0:0:0:0:
113,99,4076,2,0,L|121:173,1,60,10|8,0:0|0:0,0:0:0:0:
143,320,4304,1,10,0:0:0:0:
178,248,4418,1,10,0:0:0:0:
38,261,4532,1,10,0:0:0:0:
16,184,4646,1,8,0:0:0:0:
176,155,4760,6,0,B|212:123|212:123|190:28,1,120,10|10,0:0|0:0,0:0:0:0:
121,95,5102,1,8,0:0:0:0:
290,109,5217,2,0,L|297:54,3,30,2|2|2|2,1:2|1:2|1:2|1:2,0:0:0:0:
287,36,5445,1,14,0:0:0:0:
287,36,5673,5,6,1:2:0:0:
418,67,5787,2,0,L|463:57,5,30,10|10|10|10|10|10,0:0|0:0|0:0|0:0|0:0|0:0,0:0:0:0:
445,106,6129,2,0,L|438:155,3,30,10|10|10|10,0:0|0:0|0:0|0:0,0:0:0:0:
488,203,6357,2,0,L|495:252,3,30,10|10|10|10,0:0|0:0|0:0|0:0,0:0:0:0:
445,300,6585,5,6,1:2:0:0:
382,197,6699,1,8,0:0:0:0:
382,197,6813,1,8,0:0:0:0:
285,241,6928,1,8,0:0:0:0:
307,114,7042,2,0,L|290:37,1,60,6|10,1:2|0:0,0:0:0:0:
223,13,7270,2,0,L|176:5,2,30,10|10|10,0:0|0:0|0:0,0:0:0:0:
403,59,7498,6,0,L|412:-22,1,60,6|8,1:2|0:0,0:0:0:0:
334,121,7726,2,0,L|343:202,1,60,2|10,1:2|0:0,0:0:0:0:
355,324,7954,1,2,1:2:0:0:
433,281,8068,1,8,0:0:0:0:
275,267,8182,1,2,1:2:0:0:
217,192,8296,1,8,0:0:0:0:
188,353,8410,6,0,L|275:338,1,60,2|8,1:2|0:0,0:0:0:0:
88,251,8639,1,2,1:2:0:0:
88,251,8753,2,0,P|105:278|113:323,1,60,14|0,0:0|0:0,0:0:0:0:
129,121,8981,1,8,0:0:0:0:
129,121,9095,2,0,P|109:146|69:169,1,60,6|10,1:2|0:0,0:0:0:0:
23,42,9323,6,0,L|139:27,1,90,6|0,1:2|0:0,0:0:0:0:
114,45,9551,2,0,L|126:117,1,60,2|10,1:2|0:0,0:0:0:0:
143,231,9779,1,2,1:2:0:0:
243,179,9893,1,8,0:0:0:0:
236,320,10007,1,2,1:2:0:0:
241,206,10121,1,10,0:0:0:0:
236,354,10236,6,0,P|273:328|294:319,1,60,2|8,1:2|0:0,0:0:0:0:
445,351,10464,1,2,1:2:0:0:
361,370,10578,2,0,L|377:234,1,120,14|8,0:0|0:0,0:0:0:0:
429,162,10920,2,0,L|419:77,1,60,6|8,1:2|0:0,0:0:0:0:
305,7,11148,6,0,B|350:22|350:22|330:119,1,120,6|2,1:2|1:2,0:0:0:0:
314,201,11490,1,8,0:0:0:0:
314,201,11604,2,0,L|229:181,1,60,2|8,1:2|0:0,0:0:0:0:
143,297,11832,1,2,1:2:0:0:
234,274,11946,1,10,0:0:0:0:
93,222,12061,6,0,L|102:305,1,60,2|8,1:2|0:0,0:0:0:0:
19,153,12289,1,2,1:2:0:0:
19,153,12403,2,0,L|10:236,1,60,14|0,0:0|0:0,0:0:0:0:
162,113,12631,1,8,0:0:0:0:
162,113,12745,2,0,L|171:196,1,60,6|10,1:2|0:0,0:0:0:0:
70,42,12973,5,6,1:2:0:0:
51,116,13087,1,10,0:0:0:0:
176,5,13201,5,10,0:0:0:0:
194,81,13315,1,10,0:0:0:0:
322,38,13429,5,10,0:0:0:0:
302,121,13543,1,10,0:0:0:0:
435,94,13658,5,10,0:0:0:0:
457,185,13772,1,10,0:0:0:0:
324,212,13886,6,0,L|199:195,1,120,14|14,0:0|0:0,0:0:0:0:
128,320,14342,6,0,L|3:337,1,120,14|14,0:0|0:0,0:0:0:0:
256,352,14798,5,2,1:2:0:0:
256,352,14908,1,2,1:2:0:0:
217,207,15018,1,14,0:0:0:0:
217,207,17886,6,0,L|344:190,1,120,2|2,1:2|1:2,0:0:0:0:
450,109,18217,2,0,L|439:54,3,30,2|2|2|2,1:2|1:2|1:2|1:2,0:0:0:0:
454,29,18437,1,14,0:0:0:0:
454,29,20753,1,2,1:2:0:0:
440,123,20864,6,0,B|456:84|456:84|356:98,1,120,10|0,0:0|1:0,0:0:0:0:
280,109,21195,2,0,L|296:177,1,60,10|10,0:0|0:0,0:0:0:0:
247,288,21415,1,10,0:0:0:0:
302,203,21525,1,0,1:0:0:0:
138,246,21636,1,10,0:0:0:0:
256,320,21746,5,6,1:2:0:0:
256,32,22077,1,6,1:2:0:0:
256,32,24283,1,10,0:0:0:0:
301,98,24393,6,0,P|262:84|180:73,1,120,2|10,1:2|0:0,0:0:0:0:
279,175,24726,2,0,P|304:145|342:126,1,60,10|2,0:0|1:2,0:0:0:0:
345,280,24948,1,2,1:2:0:0:
345,280,25059,1,2,1:2:0:0:
283,217,25170,1,8,0:0:0:0:
512,192,25281,5,6,1:2:0:0:
0,192,25612,1,6,1:2:0:0:
0,192,26053,5,10,0:0:0:0:
320,128,26494,5,10,0:0:0:0:
0,192,26936,5,10,0:0:0:0:
54,283,27046,6,0,L|27:153,1,120,2|2,1:2|1:2,0:0:0:0:
56,79,27377,1,10,0:0:0:0:
56,79,27487,1,10,0:0:0:0:
56,79,27597,1,10,0:0:0:0:
127,44,27708,1,0,1:0:0:0:
166,193,27818,1,10,0:0:0:0:
166,193,27928,6,0,L|175:52,1,120,6|2,1:2|1:2,0:0:0:0:
270,128,28259,2,0,L|401:93,1,120,14|2,0:0|1:2,0:0:0:0:
385,97,28590,1,2,1:2:0:0:
342,269,28700,1,10,0:0:0:0:
342,269,28811,1,10,0:0:0:0:
364,184,28921,6,0,L|379:324,1,120,6|0,1:2|0:0,0:0:0:0:
462,339,29263,2,0,L|447:199,1,120,2|0,1:2|0:0,0:0:0:0:
286,234,29605,2,0,L|295:321,1,60,2|0,1:2|0:0,0:0:0:0:
298,353,29833,5,14,0:0:0:0:
271,279,29947,1,2,0:0:0:0:
180,279,30061,5,2,0:0:0:0:
201,219,30175,1,2,1:2:0:0:
117,218,30289,5,2,0:0:0:0:
100,170,30403,1,2,0:0:0:0:
22,167,30517,5,10,0:0:0:0:
35,128,30631,1,2,0:0:0:0:
181,133,30746,6,0,P|252:88|249:40,1,120,6|0,1:2|0:0,0:0:0:0:
187,15,31088,2,0,P|264:9|316:-4,1,120,2|0,1:2|0:0,0:0:0:0:
383,103,31430,2,0,P|355:77|320:72,1,60,2|0,1:2|0:0,0:0:0:0:
367,241,31658,5,14,0:0:0:0:
383,103,31886,1,2,0:0:0:0:
416,373,32114,5,2,0:0:0:0:
400,235,32342,1,10,0:0:0:0:
158,354,32571,6,0,L|303:332,1,120,6|0,1:2|0:0,0:0:0:0:
203,251,32913,2,0,L|84:269,1,120,2|0,1:2|0:0,0:0:0:0:
128,167,33255,2,0,L|211:154,1,60,2|0,1:2|0:0,0:0:0:0:
246,148,33483,5,14,0:0:0:0:
236,360,33711,1,2,0:0:0:0:
261,271,33940,2,0,L|250:217,1,30,2|0,0:1|0:0,0:0:0:0:
265,193,34054,2,0,L|254:139,1,30,2|0,0:1|0:0,0:0:0:0:
269,115,34168,1,10,0:0:0:0:
147,139,34282,1,2,0:0:0:0:
124,23,34396,6,0,P|123:104|107:163,1,120,6|0,1:2|0:0,0:0:0:0:
59,228,34738,2,0,P|70:181|14:139,1,120,2|0,1:2|0:0,0:0:0:0:
55,309,35080,2,0,P|90:303|123:277,1,60,2|0,1:2|0:0,0:0:0:0:
22,159,35308,5,14,0:0:0:0:
0,374,35536,1,2,0:0:0:0:
79,261,35765,5,2,0:0:0:0:
101,46,35993,1,10,0:0:0:0:
243,107,36221,6,0,L|99:90,1,120,6|0,1:2|0:0,0:0:0:0:
261,226,36563,2,0,L|376:153,1,120,2|0,1:2|0:0,0:0:0:0:
400,317,36905,2,0,L|317:329,1,60,2|0,1:2|0:0,0:0:0:0:
303,360,37133,5,14,0:0:0:0:
258,284,37247,1,2,0:0:0:0:
174,273,37362,5,2,0:0:0:0:
208,215,37476,1,2,1:2:0:0:
118,199,37590,5,2,0:0:0:0:
92,154,37704,1,2,0:0:0:0:
12,132,37818,5,10,0:0:0:0:
31,97,37932,1,2,0:0:0:0:
63,287,38046,6,0,P|74:231|100:175,1,120,6|0,1:2|0:0,0:0:0:0:
201,199,38388,2,0,P|248:167|306:145,1,120,2|0,1:2|0:0,0:0:0:0:
360,234,38730,2,0,P|416:245|442:255,1,60,2|0,1:2|0:0,0:0:0:0:
512,287,38959,5,14,0:0:0:0:
488,80,39187,1,2,0:0:0:0:
298,167,39415,5,2,0:0:0:0:
322,374,39643,1,10,0:0:0:0:
367,274,39871,6,0,L|226:311,1,120,6|0,1:2|0:0,0:0:0:0:
159,230,40213,2,0,L|300:267,1,120,2|0,1:2|0:0,0:0:0:0:
298,167,40555,2,0,L|213:189,1,60,2|0,1:2|0:0,0:0:0:0:
181,197,40784,5,14,0:0:0:0:
224,0,41012,1,2,0:0:0:0:
240,115,41240,5,2,0:0:0:0:
157,84,41354,1,2,0:0:0:0:
94,130,41468,1,10,0:0:0:0:
43,108,41582,1,2,0:0:0:0:
45,287,41696,6,0,P|21:218|-6:165,1,120,6|0,1:2|0:0,0:0:0:0:
173,217,42038,2,0,P|153:274|127:328,1,120,2|0,1:2|0:0,0:0:0:0:
92,170,42381,2,0,P|73:113|65:91,1,60,2|0,1:2|0:0,0:0:0:0:
21,16,42609,5,14,0:0:0:0:
480,0,42951,1,14,0:0:0:0:
449,374,43293,1,14,0:0:0:0:
449,374,43521,6,0,L|441:309,1,60,6|2,1:2|1:2,0:0:0:0:
392,236,43749,2,0,L|400:171,1,60,2|2,1:2|1:2,0:0:0:0:
449,98,43978,1,10,0:0:0:0:
449,98,44662,6,0,L|378:80,1,60,2|2,1:2|1:2,0:0:0:0:
256,128,44890,1,2,1:2:0:0:
256,128,45004,1,2,1:2:0:0:
256,128,45574,1,2,1:2:0:0:
256,128,45688,1,2,1:2:0:0:
256,128,46259,6,0,B|286:101|267:64|267:64|224:116|154:106,1,180,14|0,0:0|0:0,0:0:0:0:
96,73,46715,2,0,P|149:80|257:6,1,180,14|0,0:0|0:0,0:0:0:0:
251,15,47171,5,6,1:2:0:0:
277,177,47286,1,2,1:2:0:0:
267,70,47400,2,0,L|258:153,1,60,2|2,1:2|1:2,0:0:0:0:
237,335,47628,5,10,0:0:0:0:
237,335,48312,2,0,L|313:325,1,60,2|2,1:2|1:2,0:0:0:0:
404,350,48540,1,2,1:2:0:0:
404,350,48654,1,2,1:2:0:0:
404,350,49225,1,2,1:2:0:0:
404,350,49339,1,2,1:2:0:0:
404,350,49909,6,0,B|389:232|389:232|372:313,1,180,14|0,0:0|0:0,0:0:0:0:
485,281,50365,2,0,B|461:96,1,180,14|0,0:0|0:0,0:0:0:0:
449,6,50822,5,2,0:1:0:0:
449,6,54016,5,2,0:1:0:0:
449,6,54472,6,0,L|364:24,1,80,6|2,1:2|1:2,0:0:0:0:
313,82,54700,1,2,1:2:0:0:
313,82,54776,1,2,1:2:0:0:
313,82,54852,1,2,1:2:0:0:
313,82,54928,2,0,L|228:64,1,80,2|0,1:2|0:0,0:0:0:0:
128,44,55156,1,14,0:0:0:0:
128,44,55384,6,0,L|144:135,1,80,6|2,1:2|1:2,0:0:0:0:
78,178,55613,2,0,L|-6:162,1,80,2|2,1:2|1:2,0:0:0:0:
71,296,55841,2,0,P|97:220|140:206,1,120,14|14,0:0|0:0,0:0:0:0:
251,327,56297,6,0,L|245:272,2,40,10|10|10,0:0|0:0|0:0,0:0:0:0:
288,300,56525,1,2,1:2:0:0:
288,300,56753,2,0,L|372:284,1,80,14|0,0:0|0:0,0:0:0:0:
423,217,56981,6,0,L|367:206,3,30,2|0|0|0,1:2|1:0|1:0|1:0,0:0:0:0:
354,174,57209,6,0,L|367:83,1,80,6|2,1:2|1:2,0:0:0:0:
385,13,57438,1,2,1:2:0:0:
385,13,57514,1,2,1:2:0:0:
385,13,57590,1,2,1:2:0:0:
385,13,57666,2,0,L|286:1,1,80,2|0,1:2|0:0,0:0:0:0:
192,29,57894,1,14,0:0:0:0:
192,29,58122,6,0,L|205:120,1,80,6|2,1:2|1:2,0:0:0:0:
177,226,58350,2,0,L|263:201,1,80,2|2,1:2|1:2,0:0:0:0:
99,183,58578,2,0,P|128:248|128:316,1,120,2|2,1:2|1:2,0:0:0:0:
352,352,59035,6,0,L|441:339,1,80,2|2,1:2|1:2,0:0:0:0:
431,340,59263,1,2,1:2:0:0:
94,278,59491,1,14,0:0:0:0:
478,218,59719,6,0,L|483:177,3,30,2|0|0|0,1:2|1:0|1:0|1:0,0:0:0:0:
457,166,59947,6,0,L|467:255,1,80,6|2,1:2|1:2,0:0:0:0:
402,362,60175,1,2,1:2:0:0:
402,362,60251,1,2,1:2:0:0:
402,362,60327,1,2,1:2:0:0:
402,362,60403,2,0,L|412:273,1,80,2|0,1:2|0:0,0:0:0:0:
425,182,60632,1,14,0:0:0:0:
425,182,60860,6,0,L|330:167,1,80,6|2,1:2|1:2,0:0:0:0:
243,266,61088,2,0,L|338:251,1,80,2|2,1:2|1:2,0:0:0:0:
205,191,61316,2,0,P|205:249|137:264,1,120,14|14,0:0|0:0,0:0:0:0:
5,145,61772,6,0,L|12:86,2,40,10|10|10,0:0|0:0|0:0,0:0:0:0:
25,186,62000,1,10,0:0:0:0:
25,186,62228,2,0,L|115:174,1,80,2|2,1:2|1:2,0:0:0:0:
213,165,62457,1,14,0:0:0:0:
152,371,62685,5,0,1:0:0:0:
108,61,62913,1,14,0:0:0:0:
150,325,63141,5,2,1:2:0:0:
153,336,63255,5,2,1:2:0:0:
156,347,63369,6,0,L|248:350,1,80,14|0,0:0|0:0,0:0:0:0:
336,353,63597,6,0,L|323:252,1,80,6|2,1:2|1:2,0:0:0:0:
322,173,63825,1,2,1:2:0:0:
322,173,63901,1,2,1:2:0:0:
322,173,63978,1,2,1:2:0:0:
322,173,64054,2,0,L|434:193,1,80,14|0,0:0|0:0,0:0:0:0:
248,243,64282,1,8,0:0:0:0:
248,243,64510,6,0,L|240:181,2,40,14|2|2,0:0|1:2|1:2,0:0:0:0:
194,326,64738,2,0,L|202:388,2,40,14|2|2,0:0|1:2|1:2,0:0:0:0:
120,244,64966,2,0,L|112:182,2,40,14|2|2,0:0|1:2|1:2,0:0:0:0:
32,352,65194,5,14,0:0:0:0:
256,192,65419,12,0,73279,0:0:0:0:
