osu file format v14

[General]
AudioFilename: audio.mp3
AudioLeadIn: 0
PreviewTime: 28921
Countdown: 0
SampleSet: Soft
StackLeniency: 0.5
Mode: 0
LetterboxInBreaks: 0
WidescreenStoryboard: 0

[Editor]
Bookmarks: 198,3848,7498,11148,14798,18437,21746,25281,28921,32571,36221,39871,43521,47171,50822,54472,57209,59947,63597,65419,69611,73279
DistanceSpacing: 2
BeatDivisor: 4
GridSize: 32
TimelineZoom: 2.3

[Metadata]
Title:Flowering Game Night
TitleUnicode:Flowering Game Night
Artist:BLANKFIELD
ArtistUnicode:BLANKFIELD
Creator:eiri-
Version:Hard
Source:東方花映塚 ~ Phantasmagoria of Flower View.
Tags:Ayyri Featured Artist FA 東方Project ZUN Team Shanghai Alice Touhou Izayoi Sakuya 十六夜 咲夜 PoFV TH09 TH 9 Flower Reflecting Mound Kaeizuka permutation suicide Instrumental Video Game Metal Comiket 79 C79 warinside
BeatmapID:2470711
BeatmapSetID:1185325

[Difficulty]
HPDrainRate:4.5
CircleSize:3
OverallDifficulty:7
ApproachRate:8
SliderMultiplier:1
SliderTickRate:1

[Events]
//Background and Video events
0,0,"Sakuya 685.jpg",0,0
//Break Periods
//Storyboard Layer 0 (Background)
//Storyboard Layer 1 (Fail)
//Storyboard Layer 2 (Pass)
//Storyboard Layer 3 (Foreground)
//Storyboard Layer 4 (Overlay)
//Storyboard Sound Samples

[TimingPoints]
198,228.136882129278,4,2,1,80,1,0
14798,220.588235294118,4,2,1,70,1,0
24393,222.222222222222,4,2,1,70,1,0
24504,222.222222222222,4,2,1,70,1,0
25392,220.588235294118,4,2,1,70,1,0
28921,228.136882129278,4,2,1,75,1,0
54472,-100,4,2,1,80,0,0
65194,225.563909774436,4,2,1,80,1,0
65419,262.008733624454,4,2,1,30,1,0

[Colours]
Combo1 : 117,196,238
Combo2 : 248,112,112
Combo3 : 243,190,92
Combo4 : 118,235,112

[HitObjects]
64,64,198,5,6,1:2:0:0:
157,28,312,1,2,1:2:0:0:
227,98,426,2,0,L|218:166,1,50,10|0,0:0|1:0,0:0:0:0:
202,245,654,2,0,L|163:234,3,25,10|10|0|0,0:0|0:0|1:0|1:0,0:0:0:0:
133,261,882,2,0,L|94:272,3,25,10|10|10|10,0:0|0:0|0:0|0:0,0:0:0:0:
64,245,1110,6,0,L|50:351,2,100,6|10|0,1:2|0:0|1:0,0:0:0:0:
27,150,1680,1,0,1:0:0:0:
110,95,1794,1,14,0:0:0:0:
275,208,2023,6,0,L|396:197,2,100,6|10|10,1:2|0:0|0:0,0:0:0:0:
196,145,2593,1,10,0:0:0:0:
293,109,2707,1,0,1:0:0:0:
293,109,2821,1,0,1:0:0:0:
293,109,2935,6,0,L|277:7,1,100,14|6,0:0|1:2,0:0:0:0:
474,44,3391,2,0,L|458:146,1,100,6|14,1:2|0:0,0:0:0:0:
413,338,3848,6,0,P|378:294|321:285,1,100,6|10,1:2|0:0,0:0:0:0:
246,325,4190,1,8,0:0:0:0:
172,256,4304,2,0,L|108:246,2,50,10|10|10,0:0|0:0|0:0,0:0:0:0:
263,214,4646,1,8,0:0:0:0:
195,140,4760,6,0,L|209:22,1,100,10|10,0:0|0:0,0:0:0:0:
14,99,5217,2,0,L|22:165,1,50,2|2,1:2|1:2,0:0:0:0:
36,247,5445,1,14,0:0:0:0:
237,221,5673,5,6,1:2:0:0:
237,221,5787,2,0,L|299:209,1,50,10|10,0:0|0:0,0:0:0:0:
230,128,6015,2,0,L|168:140,1,50,10|10,0:0|0:0,0:0:0:0:
111,66,6243,2,0,L|116:19,3,25,10|10|10|10,0:0|0:0|0:0|0:0,0:0:0:0:
152,9,6471,1,10,0:0:0:0:
254,28,6585,5,6,1:2:0:0:
254,28,6699,2,0,L|367:19,1,100,8|8,0:0|0:0,0:0:0:0:
411,109,7042,1,6,1:2:0:0:
411,109,7156,2,0,L|416:156,5,25,10|10|10|10|10|10,0:0|0:0|0:0|0:0|0:0|0:0,0:0:0:0:
404,182,7498,5,6,1:2:0:0:
358,271,7612,1,8,0:0:0:0:
272,219,7726,2,0,P|231:209|205:216,1,50,2|10,1:2|0:0,0:0:0:0:
171,294,7954,2,0,P|130:304|104:297,1,50,2|8,1:2|0:0,0:0:0:0:
31,261,8182,2,0,L|40:207,1,50,2|8,1:2|0:0,0:0:0:0:
8,116,8410,6,0,L|122:96,1,100,2|2,1:2|1:2,0:0:0:0:
190,42,8753,2,0,L|304:62,1,100,14|8,0:0|0:0,0:0:0:0:
384,81,9094,1,6,1:2:0:0:
287,257,9323,6,0,L|269:140,2,100,6|2|2,1:2|1:2|1:2,0:0:0:0:
304,355,9893,1,8,0:0:0:0:
411,348,10007,1,2,1:2:0:0:
411,348,10121,1,10,0:0:0:0:
411,348,10236,6,0,P|438:311|429:249,1,100,2|2,1:2|1:2,0:0:0:0:
367,184,10578,2,0,P|326:211|277:207,1,100,14|8,0:0|0:0,0:0:0:0:
204,139,10920,1,6,1:2:0:0:
111,316,11148,6,0,L|228:302,1,100,6|2,1:2|1:2,0:0:0:0:
302,342,11490,1,8,0:0:0:0:
374,273,11604,2,0,L|364:209,2,50,2|8|2,1:2|0:0|1:2,0:0:0:0:
470,299,11946,1,10,0:0:0:0:
450,200,12061,6,0,L|434:93,1,100,2|2,1:2|1:2,0:0:0:0:
340,69,12403,2,0,L|356:176,1,100,14|8,0:0|0:0,0:0:0:0:
283,237,12745,1,6,1:2:0:0:
95,167,12973,5,6,1:2:0:0:
95,167,13087,2,0,L|167:155,1,50,10|10,0:0|0:0,0:0:0:0:
208,81,13315,2,0,L|280:93,1,50,10|10,0:0|0:0,0:0:0:0:
349,129,13544,2,0,L|421:117,2,50,10|10|10,0:0|0:0|0:0,0:0:0:0:
279,201,13886,5,14,0:0:0:0:
470,259,14114,1,14,0:0:0:0:
300,364,14342,2,0,L|189:345,1,100,14|14,0:0|0:0,0:0:0:0:
103,325,14684,1,2,1:2:0:0:
166,243,14798,6,0,L|154:173,1,50,2|2,1:2|1:2,0:0:0:0:
138,95,15018,1,14,0:0:0:0:
138,95,17886,6,0,L|246:106,1,100,2|2,1:2|1:2,0:0:0:0:
335,82,18216,2,0,L|342:147,1,50,2|2,1:2|1:2,0:0:0:0:
352,231,18437,1,14,0:0:0:0:
352,231,20753,1,2,1:2:0:0:
263,183,20864,6,0,P|186:199|156:207,1,100,10|0,0:0|1:0,0:0:0:0:
73,243,21195,2,0,P|48:209|45:182,1,50,10|10,0:0|0:0,0:0:0:0:
100,117,21415,2,0,P|125:83|128:56,2,50,10|0|10,0:0|1:0|0:0,0:0:0:0:
3,89,21746,5,6,1:2:0:0:
301,57,22077,1,6,1:2:0:0:
301,57,24283,5,10,0:0:0:0:
333,152,24393,2,0,L|321:271,1,100,2|10,1:2|0:0,0:0:0:0:
306,349,24726,2,0,L|256:341,1,50,10|2,0:0|1:2,0:0:0:0:
174,284,24948,2,0,L|124:291,2,50,2|2|8,1:2|1:2|0:0,0:0:0:0:
241,209,25281,5,6,1:2:0:0:
11,14,25612,1,6,1:2:0:0:
405,78,26053,5,10,0:0:0:0:
14,165,26494,5,10,0:0:0:0:
404,255,26936,5,10,0:0:0:0:
308,281,27046,6,0,L|322:169,1,100,2|2,1:2|1:2,0:0:0:0:
388,108,27377,2,0,L|455:95,2,50,10|10|10,0:0|0:0|0:0,0:0:0:0:
304,52,27708,1,0,1:0:0:0:
237,126,27818,1,10,0:0:0:0:
237,126,27928,6,0,P|188:99|89:78,1,150,6|14,1:2|0:0,0:0:0:0:
140,284,28479,1,2,1:2:0:0:
140,284,28589,1,2,1:2:0:0:
140,284,28700,2,0,L|152:349,1,50,10|10,0:0|0:0,0:0:0:0:
67,362,28921,6,0,B|17:333|17:333|37:242,2,150,6|2|2,1:2|1:2|1:2,0:0:0:0:
262,318,29833,2,0,L|252:257,1,50,14|2,0:0|0:0,0:0:0:0:
206,180,30061,2,0,L|216:119,1,50,2|2,0:0|1:2,0:0:0:0:
228,31,30289,2,0,L|289:41,1,50,2|2,0:0|0:0,0:0:0:0:
366,87,30517,2,0,L|427:77,1,50,10|2,0:0|0:0,0:0:0:0:
485,6,30746,6,0,B|508:104|508:104|459:157,2,150,6|2|2,1:2|1:2|1:2,0:0:0:0:
392,182,31658,1,14,0:0:0:0:
96,128,32000,1,2,1:2:0:0:
384,32,32343,1,10,0:0:0:0:
387,231,32571,6,0,P|369:193|257:186,2,150,6|2|2,1:2|1:2|1:2,0:0:0:0:
187,214,33483,1,14,0:0:0:0:
484,174,33825,1,2,1:2:0:0:
222,25,34168,1,10,0:0:0:0:
73,158,34396,6,0,P|71:102|52:-3,2,150,6|2|2,1:2|1:2|1:2,0:0:0:0:
53,356,35308,1,14,0:0:0:0:
278,157,35651,1,2,1:2:0:0:
492,366,35993,1,10,0:0:0:0:
492,166,36221,6,0,B|455:127|455:127|448:244,2,150,6|2|2,1:2|1:2|1:2,0:0:0:0:
401,344,37133,2,0,L|335:333,1,50,14|2,0:0|0:0,0:0:0:0:
254,363,37362,2,0,L|188:374,1,50,2|2,0:0|1:2,0:0:0:0:
113,329,37590,2,0,L|124:263,1,50,2|2,0:0|0:0,0:0:0:0:
94,182,37819,2,0,L|83:116,1,50,10|0,0:0|0:0,0:0:0:0:
64,35,38046,6,0,P|108:78|208:64,2,150,6|2|2,1:2|1:2|1:2,0:0:0:0:
263,13,38959,1,14,0:0:0:0:
243,312,39301,1,2,1:2:0:0:
263,13,39643,1,10,0:0:0:0:
368,182,39871,6,0,B|336:141|310:140|310:140|295:185|240:186,2,150,6|2|2,1:2|1:2|1:2,0:0:0:0:
455,362,40784,1,14,0:0:0:0:
496,65,41126,1,2,1:2:0:0:
199,111,41468,1,10,0:0:0:0:
395,147,41696,6,0,P|358:123|246:91,2,150,6|2|2,1:2|1:2|1:2,0:0:0:0:
392,347,42609,2,0,L|286:361,1,100,14|0,0:0|0:0,0:0:0:0:
218,293,42951,2,0,L|112:279,1,100,14|0,0:0|0:0,0:0:0:0:
29,325,43293,1,14,0:0:0:0:
145,162,43521,6,0,L|132:90,3,50,6|2|2|2,1:2|1:2|1:2|1:2,0:0:0:0:
120,13,43978,1,10,0:0:0:0:
120,13,44662,2,0,L|186:23,1,50,2|2,1:2|1:2,0:0:0:0:
240,90,44890,2,0,L|306:80,1,50,2|2,1:2|1:2,0:0:0:0:
289,83,45574,2,0,L|278:155,1,50,2|2,1:2|1:2,0:0:0:0:
281,132,46259,6,0,L|440:110,1,150,14|0,0:0|0:0,0:0:0:0:
402,207,46715,2,0,L|243:229,1,150,14|0,0:0|0:0,0:0:0:0:
153,236,47171,6,0,L|161:168,3,50,6|2|2|2,1:2|1:2|1:2|1:2,0:0:0:0:
124,91,47628,1,10,0:0:0:0:
124,91,48312,2,0,L|59:103,1,50,2|2,1:2|1:2,0:0:0:0:
52,197,48540,2,0,L|-13:209,1,50,2|2,1:2|1:2,0:0:0:0:
3,206,49225,2,0,L|15:272,1,50,2|2,1:2|1:2,0:0:0:0:
12,255,49909,6,0,L|181:274,1,150,14|0,0:0|0:0,0:0:0:0:
242,326,50365,2,0,L|411:307,1,150,14|0,0:0|0:0,0:0:0:0:
491,299,50822,5,2,0:1:0:0:
491,299,54016,5,2,0:1:0:0:
491,299,54472,6,0,L|505:221,1,66.6666666666667,6|2,1:2|1:2,0:0:0:0:
478,176,54700,2,0,L|464:98,1,66.6666666666667,2|2,1:2|1:2,0:0:0:0:
493,34,54928,1,2,1:2:0:0:
298,78,55156,1,14,0:0:0:0:
88,41,55384,6,0,L|163:28,1,66.6666666666667,6|2,1:2|1:2,0:0:0:0:
205,68,55613,2,0,P|194:108|147:127,1,66.6666666666667,2|2,1:2|1:2,0:0:0:0:
93,129,55841,2,0,L|114:247,1,100,14|14,0:0|0:0,0:0:0:0:
293,308,56297,6,0,L|304:245,2,33.3333333333333,10|10|10,0:0|0:0|0:0,0:0:0:0:
243,344,56525,1,2,1:2:0:0:
189,151,56753,2,0,L|305:164,1,100,14|2,0:0|1:2,0:0:0:0:
461,62,57209,6,0,L|475:140,1,66.6666666666667,6|2,1:2|1:2,0:0:0:0:
506,180,57438,2,0,L|492:258,1,66.6666666666667,2|2,1:2|1:2,0:0:0:0:
475,324,57666,1,2,1:2:0:0:
275,316,57894,1,14,0:0:0:0:
245,118,58122,6,0,L|231:40,1,66.6666666666667,6|2,1:2|1:2,0:0:0:0:
186,10,58350,2,0,L|92:-3,1,66.6666666666667,2|2,1:2|1:2,0:0:0:0:
57,54,58578,2,0,P|57:97|101:139,1,100,2|2,1:2|1:2,0:0:0:0:
295,140,59035,6,0,L|281:218,1,66.6666666666667,2|2,1:2|1:2,0:0:0:0:
269,268,59263,1,2,1:2:0:0:
464,226,59491,1,14,0:0:0:0:
412,46,59719,5,2,1:2:0:0:
412,46,59833,5,0,1:0:0:0:
412,46,59947,6,0,L|341:29,1,66.6666666666667,6|2,1:2|1:2,0:0:0:0:
291,61,60175,2,0,P|294:98|332:130,1,66.6666666666667,2|2,1:2|1:2,0:0:0:0:
394,128,60403,1,2,1:2:0:0:
336,320,60632,1,14,0:0:0:0:
143,266,60860,6,0,L|69:283,1,66.6666666666667,6|2,1:2|1:2,0:0:0:0:
23,256,61088,2,0,P|8:224|19:184,1,66.6666666666667,2|2,1:2|1:2,0:0:0:0:
53,123,61316,2,0,L|176:138,1,100,14|14,0:0|0:0,0:0:0:0:
344,80,61772,6,0,L|336:17,2,33.3333333333333,10|10|10,0:0|0:0|0:0,0:0:0:0:
326,137,62000,1,10,0:0:0:0:
464,280,62228,2,0,L|455:353,1,66.6666666666667,2|2,1:2|1:2,0:0:0:0:
399,372,62457,2,0,L|326:354,1,66.6666666666667,14|0,0:0|0:0,0:0:0:0:
253,367,62685,5,0,1:0:0:0:
344,128,62913,2,0,L|234:117,1,100,14|2,0:0|1:2,0:0:0:0:
45,101,63369,1,14,0:0:0:0:
80,297,63597,6,0,L|157:289,1,66.6666666666667,6|2,1:2|1:2,0:0:0:0:
193,257,63825,2,0,L|270:265,1,66.6666666666667,2|2,1:2|1:2,0:0:0:0:
339,276,64054,1,14,0:0:0:0:
466,122,64282,1,8,0:0:0:0:
272,72,64510,6,0,L|222:78,2,33.3333333333333,14|2|2,0:0|1:2|1:2,0:0:0:0:
256,133,64738,2,0,L|217:159,2,33.3333333333333,14|2|2,0:0|1:2|1:2,0:0:0:0:
277,186,64966,2,0,L|268:228,2,33.3333333333333,14|2|2,0:0|1:2|1:2,0:0:0:0:
331,170,65194,5,14,0:0:0:0:
256,192,65419,12,0,73279,0:0:0:0:
