osu file format v14

[General]
AudioFilename: audio.mp3
AudioLeadIn: 0
PreviewTime: 28921
Countdown: 0
SampleSet: Soft
StackLeniency: 0.4
Mode: 0
LetterboxInBreaks: 0
WidescreenStoryboard: 0

[Editor]
Bookmarks: 198,3848,7498,11148,14798,18437,21746,25281,28921,32571,36221,39871,43521,47171,50822,54472,57209,59947,63597,65419,69611,73279
DistanceSpacing: 2
BeatDivisor: 4
GridSize: 32
TimelineZoom: 4.099998

[Metadata]
Title:Flowering Game Night
TitleUnicode:Flowering Game Night
Artist:BLANKFIELD
ArtistUnicode:BLANKFIELD
Creator:eiri-
Version:Extra
Source:東方花映塚 ~ Phantasmagoria of Flower View.
Tags:Ayyri Featured Artist FA 東方Project ZUN Team Shanghai Alice Touhou Izayoi Sakuya 十六夜 咲夜 PoFV TH09 TH 9 Flower Reflecting Mound Kaeizuka permutation suicide Instrumental Video Game Metal Comiket 79 C79 warinside
BeatmapID:2471418
BeatmapSetID:1185325

[Difficulty]
HPDrainRate:4.7
CircleSize:3.7
OverallDifficulty:9
ApproachRate:9.5
SliderMultiplier:1.4
SliderTickRate:1

[Events]
//Background and Video events
0,0,"Sakuya 685.jpg",0,0
//Break Periods
//Storyboard Layer 0 (Background)
//Storyboard Layer 1 (Fail)
//Storyboard Layer 2 (Pass)
//Storyboard Layer 3 (Foreground)
//Storyboard Layer 4 (Overlay)
//Storyboard Sound Samples

[TimingPoints]
198,228.136882129278,4,2,1,80,1,0
14798,220.588235294118,4,2,1,70,1,0
24393,222.222222222222,4,2,1,70,1,0
24504,222.222222222222,4,2,1,70,1,0
25392,220.588235294118,4,2,1,70,1,0
28921,228.136882129278,4,2,1,75,1,0
54472,-100,4,2,1,80,0,0
65194,225.563909774436,4,2,1,80,1,0
65419,262.008733624454,4,2,1,30,1,0

[Colours]
Combo1 : 117,196,238
Combo2 : 248,112,112
Combo3 : 243,190,92
Combo4 : 118,235,112

[HitObjects]
438,343,198,6,0,L|426:254,1,70,6|2,1:2|1:2,0:0:0:0:
450,176,369,1,2,1:2:0:0:
450,176,426,2,0,L|368:155,1,70,10|0,0:0|1:0,0:0:0:0:
255,135,654,2,0,L|262:181,2,35,10|10|0,0:0|0:0|1:0,0:0:0:0:
237,25,882,1,10,0:0:0:0:
269,22,939,1,10,0:0:0:0:
302,19,996,1,10,0:0:0:0:
335,16,1053,1,10,0:0:0:0:
368,12,1110,6,0,L|362:100,1,70,6|0,1:2|1:0,0:0:0:0:
350,266,1338,1,10,0:0:0:0:
336,226,1395,1,10,0:0:0:0:
377,212,1452,1,10,0:0:0:0:
390,252,1509,1,10,0:0:0:0:
363,238,1566,2,0,L|387:310,1,70,0|0,1:0|1:0,0:0:0:0:
284,361,1737,1,0,1:0:0:0:
284,361,1794,2,0,B|220:330|220:330|184:354,1,105,14|0,0:0|0:0,0:0:0:0:
151,354,2023,6,0,L|109:359,2,35,6|2|2,1:2|1:2|1:2,0:0:0:0:
78,256,2251,2,0,L|6:248,1,70,10|0,0:0|1:0,0:0:0:0:
181,154,2479,1,10,0:0:0:0:
178,187,2536,1,10,0:0:0:0:
175,220,2593,1,10,0:0:0:0:
172,253,2650,1,10,0:0:0:0:
168,286,2707,2,0,L|210:282,2,35,0|0|0,1:0|1:0|1:0,0:0:0:0:
49,181,2935,6,0,L|60:123,2,35,14|10|2,0:0|0:0|1:2,0:0:0:0:
195,111,3163,2,0,L|183:53,2,35,6|2|2,1:2|1:2|1:2,0:0:0:0:
341,181,3391,2,0,L|352:123,2,35,6|2|2,1:2|1:2|1:2,0:0:0:0:
487,111,3619,2,0,L|476:53,2,35,14|0|0,0:0|0:0|0:0,0:0:0:0:
438,343,3848,5,6,1:2:0:0:
408,240,3962,1,8,0:0:0:0:
262,304,4076,5,10,0:0:0:0:
293,202,4190,1,8,0:0:0:0:
421,160,4304,5,10,0:0:0:0:
397,77,4418,1,10,0:0:0:0:
263,207,4532,5,10,0:0:0:0:
287,125,4646,1,8,0:0:0:0:
401,277,4760,5,10,0:0:0:0:
377,194,4874,1,8,0:0:0:0:
201,255,4988,5,10,0:0:0:0:
409,223,5102,1,8,0:0:0:0:
409,223,5159,1,8,0:0:0:0:
409,223,5217,2,0,L|463:234,3,35,2|2|2|2,1:2|1:2|1:2|1:2,0:0:0:0:
415,258,5445,2,0,L|300:280,1,105,14|0,0:0|0:0,0:0:0:0:
185,303,5673,5,6,1:2:0:0:
55,174,5787,1,10,0:0:0:0:
55,174,5844,1,10,0:0:0:0:
55,174,5901,2,0,L|46:119,3,35,10|10|10|10,0:0|0:0|0:0|0:0,0:0:0:0:
80,102,6129,1,10,0:0:0:0:
118,110,6186,1,10,0:0:0:0:
155,116,6243,1,10,0:0:0:0:
193,121,6300,1,10,0:0:0:0:
230,127,6357,1,10,0:0:0:0:
223,164,6414,1,10,0:0:0:0:
217,202,6471,1,10,0:0:0:0:
212,240,6528,1,10,0:0:0:0:
205,277,6585,5,6,1:2:0:0:
369,264,6699,1,8,0:0:0:0:
369,264,6813,1,8,0:0:0:0:
288,326,6928,1,8,0:0:0:0:
330,173,7042,2,0,L|421:156,1,70,6|10,1:2|0:0,0:0:0:0:
493,147,7213,1,10,0:0:0:0:
493,147,7270,2,0,L|485:99,3,35,10|10|10|10,0:0|0:0|0:0|0:0,0:0:0:0:
472,145,7498,6,0,L|488:238,1,70,6|8,1:2|0:0,0:0:0:0:
362,226,7726,2,0,L|352:170,2,35,2|2|10,1:2|1:2|0:0,0:0:0:0:
438,343,7954,1,2,1:2:0:0:
475,237,8068,1,8,0:0:0:0:
262,246,8182,2,0,L|166:230,1,70,2|8,1:2|0:0,0:0:0:0:
28,344,8410,6,0,L|124:329,1,70,2|8,1:2|0:0,0:0:0:0:
293,294,8639,1,2,1:2:0:0:
293,294,8753,2,0,L|155:273,1,140,14|8,0:0|0:0,0:0:0:0:
163,127,9095,2,0,L|226:117,2,35,6|2|10,1:2|1:2|0:0,0:0:0:0:
13,154,9323,6,0,L|29:62,1,70,6|8,1:2|0:0,0:0:0:0:
39,235,9551,2,0,L|50:291,2,35,2|2|10,1:2|1:2|0:0,0:0:0:0:
159,153,9779,2,0,L|143:245,1,70,2|8,1:2|0:0,0:0:0:0:
228,320,10007,2,0,L|238:376,2,35,2|2|10,1:2|1:2|0:0,0:0:0:0:
407,283,10236,6,0,L|496:297,1,70,2|8,1:2|0:0,0:0:0:0:
316,161,10464,1,2,1:2:0:0:
316,161,10521,1,2,1:2:0:0:
316,161,10578,2,0,L|474:137,1,140,14|8,0:0|0:0,0:0:0:0:
274,61,10920,2,0,L|185:47,1,70,6|8,1:2|0:0,0:0:0:0:
13,140,11148,6,0,L|101:126,1,70,6|8,1:2|0:0,0:0:0:0:
97,288,11376,2,0,L|9:303,1,70,2|8,1:2|0:0,0:0:0:0:
164,192,11604,1,2,1:2:0:0:
195,343,11718,1,8,0:0:0:0:
298,273,11832,2,0,L|259:263,2,35,2|2|10,1:2|1:2|0:0,0:0:0:0:
416,366,12061,6,0,L|493:345,1,70,2|8,1:2|0:0,0:0:0:0:
479,210,12289,1,2,1:2:0:0:
479,210,12403,2,0,L|336:192,1,140,14|8,0:0|0:0,0:0:0:0:
386,62,12745,2,0,L|444:47,2,35,6|2|10,1:2|1:2|0:0,0:0:0:0:
225,111,12973,5,6,1:2:0:0:
241,32,13087,1,10,0:0:0:0:
327,210,13201,5,10,0:0:0:0:
311,131,13315,1,10,0:0:0:0:
162,269,13429,5,10,0:0:0:0:
178,191,13543,1,10,0:0:0:0:
396,347,13658,5,10,0:0:0:0:
380,268,13772,1,10,0:0:0:0:
62,359,13886,5,14,0:0:0:0:
449,24,14114,5,14,0:0:0:0:
62,24,14342,5,14,0:0:0:0:
449,359,14570,5,14,0:0:0:0:
288,320,14684,1,2,1:2:0:0:
256,192,14798,5,2,1:2:0:0:
256,192,14908,1,2,1:2:0:0:
256,40,15018,1,14,0:0:0:0:
256,40,17886,6,0,L|408:53,1,140,2|2,1:2|1:2,0:0:0:0:
252,130,18216,1,2,1:2:0:0:
252,130,18271,1,2,1:2:0:0:
252,130,18327,2,0,L|258:190,1,35,2|2,1:2|1:2,0:0:0:0:
269,283,18437,1,14,0:0:0:0:
269,283,20753,1,2,1:2:0:0:
438,313,20864,6,0,L|443:254,1,35,10|10,0:0|0:0,0:0:0:0:
479,177,20974,2,0,L|474:118,3,35,2|0|0|0,1:2|1:0|1:0|1:0,0:0:0:0:
467,46,21195,2,0,L|383:29,1,70,10|10,0:0|0:0,0:0:0:0:
325,91,21360,1,10,0:0:0:0:
325,91,21415,2,0,L|409:74,1,70,10|0,0:0|1:0,0:0:0:0:
256,32,21636,1,10,0:0:0:0:
204,271,21746,5,6,1:2:0:0:
164,8,22077,1,6,1:2:0:0:
164,9,24283,1,10,0:0:0:0:
186,107,24393,6,0,P|160:52|78:48,1,140,2|10,1:2|0:0,0:0:0:0:
47,171,24726,2,0,P|84:161|144:154,1,70,10|2,0:0|1:2,0:0:0:0:
250,163,24948,1,2,1:2:0:0:
250,163,25059,1,2,1:2:0:0:
188,239,25170,1,8,0:0:0:0:
164,9,25281,5,6,1:2:0:0:
134,313,25612,1,6,1:2:0:0:
134,313,26053,5,10,0:0:0:0:
134,313,26494,5,10,0:0:0:0:
134,313,26936,5,10,0:0:0:0:
187,252,27046,6,0,L|165:107,1,140,2|2,1:2|1:2,0:0:0:0:
156,25,27377,1,10,0:0:0:0:
288,61,27487,1,10,0:0:0:0:
288,61,27597,1,10,0:0:0:0:
270,151,27708,1,0,1:0:0:0:
254,28,27818,1,10,0:0:0:0:
451,18,27928,6,0,P|468:107|468:143,1,105,6|0,1:2|0:0,0:0:0:0:
455,202,28149,1,2,1:2:0:0:
245,124,28259,2,0,P|315:107|395:98,1,140,14|2,0:0|1:2,0:0:0:0:
382,98,28590,1,2,1:2:0:0:
316,269,28700,1,10,0:0:0:0:
316,269,28811,1,10,0:0:0:0:
143,195,28921,6,0,P|159:120|161:53,1,140,6|0,1:2|0:0,0:0:0:0:
30,8,29263,2,0,P|74:57|114:127,1,140,2|0,1:2|0:0,0:0:0:0:
247,153,29605,2,0,P|263:123|277:78,1,70,2|0,1:2|0:0,0:0:0:0:
236,15,29833,5,14,0:0:0:0:
250,53,29947,1,2,0:0:0:0:
362,101,30061,5,2,0:0:0:0:
344,149,30175,1,2,1:2:0:0:
222,195,30289,5,2,0:0:0:0:
243,253,30403,1,2,0:0:0:0:
356,292,30517,5,10,0:0:0:0:
330,364,30631,1,2,0:0:0:0:
317,194,30746,6,0,P|368:251|434:238,1,140,6|0,1:2|0:0,0:0:0:0:
423,91,31088,2,0,P|371:148|306:135,1,140,2|0,1:2|0:0,0:0:0:0:
328,23,31430,2,0,L|322:104,1,70,2|0,1:2|0:0,0:0:0:0:
304,237,31658,5,14,0:0:0:0:
288,52,31886,1,2,0:0:0:0:
195,372,32114,5,2,0:0:0:0:
282,87,32342,1,10,0:0:0:0:
475,169,32571,6,0,P|424:121|352:124,1,140,6|0,1:2|0:0,0:0:0:0:
201,249,32913,2,0,P|252:202|324:205,1,140,2|0,1:2|0:0,0:0:0:0:
311,359,33255,2,0,P|261:312|245:308,1,70,2|0,1:2|0:0,0:0:0:0:
89,309,33483,5,14,0:0:0:0:
279,272,33711,1,2,0:0:0:0:
22,234,33940,2,0,L|27:189,1,35,2|0,0:1|0:0,0:0:0:0:
62,131,34054,2,0,L|57:85,1,35,2|0,0:1|0:0,0:0:0:0:
50,13,34168,1,10,0:0:0:0:
171,55,34282,1,2,0:0:0:0:
356,24,34396,6,0,P|302:37|275:120,1,140,6|0,1:2|0:0,0:0:0:0:
381,233,34738,2,0,P|361:168|297:146,1,140,2|0,1:2|0:0,0:0:0:0:
185,262,35080,2,0,P|247:248|280:244,1,70,2|0,1:2|0:0,0:0:0:0:
448,320,35308,5,14,0:0:0:0:
416,96,35536,1,2,0:0:0:0:
239,368,35765,5,2,0:0:0:0:
499,145,35993,1,10,0:0:0:0:
206,144,36221,6,0,P|272:107|263:26,1,140,6|0,1:2|0:0,0:0:0:0:
113,137,36563,2,0,P|92:209|156:260,1,140,2|0,1:2|0:0,0:0:0:0:
166,72,36905,2,0,P|157:32|110:1,1,70,2|0,1:2|0:0,0:0:0:0:
119,172,37133,5,14,0:0:0:0:
129,138,37247,1,2,0:0:0:0:
210,221,37362,5,2,0:0:0:0:
197,178,37476,1,2,1:2:0:0:
115,308,37590,5,2,0:0:0:0:
131,254,37704,1,2,0:0:0:0:
295,371,37818,5,10,0:0:0:0:
272,296,37932,1,2,0:0:0:0:
36,366,38046,6,0,P|105:347|188:338,1,140,6|0,1:2|0:0,0:0:0:0:
389,375,38388,2,0,P|319:366|252:347,1,140,2|0,1:2|0:0,0:0:0:0:
445,308,38730,2,0,L|435:227,1,70,2|0,1:2|0:0,0:0:0:0:
422,115,38959,5,14,0:0:0:0:
383,364,39187,1,2,0:0:0:0:
512,174,39415,5,2,0:0:0:0:
160,224,39643,1,10,0:0:0:0:
320,64,39871,6,0,P|318:108|305:229,1,140,6|0,1:2|0:0,0:0:0:0:
235,139,40213,2,0,P|227:69|224:0,1,140,2|0,1:2|0:0,0:0:0:0:
52,69,40555,2,0,P|86:76|119:88,1,70,2|0,1:2|0:0,0:0:0:0:
235,139,40784,5,14,0:0:0:0:
0,193,41012,1,2,0:0:0:0:
160,224,41240,5,2,0:0:0:0:
195,209,41354,1,2,0:0:0:0:
243,237,41468,1,10,0:0:0:0:
321,224,41582,1,2,0:0:0:0:
269,371,41696,6,0,P|278:295|296:208,1,140,6|0,1:2|0:0,0:0:0:0:
327,145,42038,2,0,P|318:69|300:-18,1,140,2|0,1:2|0:0,0:0:0:0:
425,86,42381,2,0,P|470:94|505:91,1,70,2|0,1:2|0:0,0:0:0:0:
205,18,42609,6,0,B|156:33|156:33|177:142,1,140,14|0,0:0|0:0,0:0:0:0:
202,297,42951,2,0,B|251:282|251:282|230:173,1,140,14|0,0:0|0:0,0:0:0:0:
48,305,43293,2,0,L|42:384,1,70,14|0,0:0|0:0,0:0:0:0:
0,130,43521,6,0,L|88:112,1,70,6|2,1:2|1:2,0:0:0:0:
199,238,43749,1,2,1:2:0:0:
199,238,43863,1,2,1:2:0:0:
110,215,43978,1,10,0:0:0:0:
110,215,44662,5,2,1:2:0:0:
130,139,44776,1,2,1:2:0:0:
245,134,44890,1,2,1:2:0:0:
220,39,45004,1,2,1:2:0:0:
220,39,45575,5,2,1:2:0:0:
190,197,45689,1,2,1:2:0:0:
190,197,46259,6,0,B|226:164|275:175|275:175|245:264|301:298,1,210,14|0,0:0|0:0,0:0:0:0:
469,267,46715,2,0,B|393:287|343:227|343:227|382:243|433:231,1,210,14|0,0:0|0:0,0:0:0:0:
356,359,47171,5,6,1:2:0:0:
398,193,47286,1,2,1:2:0:0:
223,221,47400,1,2,1:2:0:0:
206,136,47515,1,2,1:2:0:0:
509,96,47628,5,10,0:0:0:0:
509,96,48312,5,2,1:2:0:0:
489,230,48426,1,2,1:2:0:0:
373,240,48540,1,2,1:2:0:0:
393,374,48654,1,2,1:2:0:0:
393,374,49225,5,2,1:2:0:0:
425,172,49339,1,2,1:2:0:0:
425,172,49909,6,0,B|472:157|479:111|479:111|405:155|332:109,1,210,14|0,0:0|0:0,0:0:0:0:
246,80,50365,2,0,P|305:104|400:3,1,210,14|0,0:0|0:0,0:0:0:0:
351,202,50822,5,2,0:1:0:0:
351,202,54016,5,2,0:1:0:0:
351,202,54472,6,0,L|359:135,1,46.6666666666667,6|2,1:2|1:2,0:0:0:0:
375,41,54624,1,2,1:2:0:0:
375,41,54700,2,0,L|274:54,1,93.3333333333333,2|2,1:2|1:2,0:0:0:0:
211,111,54928,2,0,L|110:98,1,93.3333333333333,2|0,1:2|0:0,0:0:0:0:
0,83,55156,1,14,0:0:0:0:
0,83,55384,6,0,L|7:144,1,46.6666666666667,6|2,1:2|1:2,0:0:0:0:
23,243,55536,1,2,1:2:0:0:
23,243,55613,2,0,L|15:296,2,46.6666666666667,2|2|2,1:2|1:2|1:2,0:0:0:0:
164,171,55841,2,0,L|291:153,1,93.3333333333333,14|0,0:0|0:0,0:0:0:0:
403,153,56069,1,14,0:0:0:0:
403,153,56145,1,10,0:0:0:0:
403,153,56221,1,10,0:0:0:0:
403,153,56297,6,0,L|392:219,2,46.6666666666667,10|10|10,0:0|0:0|0:0,0:0:0:0:
428,31,56525,1,2,1:2:0:0:
428,31,56753,2,0,L|314:15,1,93.3333333333333,14|0,0:0|0:0,0:0:0:0:
224,60,56981,6,0,L|231:116,3,35,2|0|0|0,1:2|1:0|1:0|1:0,0:0:0:0:
240,185,57209,6,0,L|181:177,1,46.6666666666667,6|2,1:2|1:2,0:0:0:0:
67,168,57362,1,2,1:2:0:0:
67,168,57438,2,0,L|79:238,2,46.6666666666667,2|2|2,1:2|1:2|1:2,0:0:0:0:
15,92,57666,2,0,L|33:-8,1,93.3333333333333,2|0,1:2|0:0,0:0:0:0:
188,78,57894,1,14,0:0:0:0:
188,78,58122,6,0,L|200:148,1,46.6666666666667,6|2,1:2|1:2,0:0:0:0:
233,268,58274,1,2,1:2:0:0:
233,268,58350,2,0,P|292:250|344:251,1,93.3333333333333,2|2,1:2|1:2,0:0:0:0:
400,339,58578,2,0,P|359:298|305:287,1,93.3333333333333,2|2,1:2|1:2,0:0:0:0:
389,375,58806,2,0,P|427:337|496:339,1,93.3333333333333,2|0,1:2|0:0,0:0:0:0:
269,375,59035,6,0,L|283:269,1,93.3333333333333,2|2,1:2|1:2,0:0:0:0:
281,282,59263,1,2,1:2:0:0:
32,352,59491,1,14,0:0:0:0:
32,352,59719,6,0,L|23:291,3,35,2|0|0|0,1:2|1:0|1:0|1:0,0:0:0:0:
46,375,59947,6,0,L|56:298,1,46.6666666666667,6|2,1:2|1:2,0:0:0:0:
64,187,60099,1,2,1:2:0:0:
64,187,60175,2,0,L|-10:206,2,46.6666666666667,2|2|2,1:2|1:2|1:2,0:0:0:0:
191,206,60403,2,0,L|285:182,1,93.3333333333333,2|0,1:2|0:0,0:0:0:0:
448,224,60632,1,14,0:0:0:0:
448,224,60860,6,0,L|432:138,1,46.6666666666667,6|2,1:2|1:2,0:0:0:0:
419,61,61012,1,2,1:2:0:0:
419,61,61088,2,0,L|313:51,1,93.3333333333333,2|2,1:2|1:2,0:0:0:0:
249,141,61316,2,0,P|292:105|275:66,1,93.3333333333333,14|0,0:0|0:0,0:0:0:0:
211,323,61544,1,14,0:0:0:0:
211,323,61620,1,10,0:0:0:0:
211,323,61696,1,10,0:0:0:0:
211,323,61772,6,0,L|148:332,2,46.6666666666667,10|10|10,0:0|0:0|0:0,0:0:0:0:
303,358,62000,1,10,0:0:0:0:
303,358,62228,2,0,L|313:277,2,46.6666666666667,2|2|2,1:2|1:2|1:2,0:0:0:0:
147,375,62456,1,14,0:0:0:0:
480,320,62685,5,0,1:0:0:0:
32,224,62913,1,14,0:0:0:0:
380,145,63141,5,2,1:2:0:0:
372,156,63255,5,2,1:2:0:0:
380,167,63369,6,0,P|357:116|327:148,1,93.3333333333333,14|0,0:0|0:0,0:0:0:0:
362,141,63597,6,0,L|370:69,2,46.6666666666667,6|2|2,1:2|1:2|1:2,0:0:0:0:
302,225,63825,2,0,L|310:297,2,46.6666666666667,2|2|2,1:2|1:2|1:2,0:0:0:0:
285,67,64054,2,0,P|263:27|195:31,1,93.3333333333333,14|0,0:0|0:0,0:0:0:0:
45,148,64282,1,8,0:0:0:0:
45,148,64358,1,8,0:0:0:0:
45,148,64434,1,8,0:0:0:0:
45,148,64510,6,0,L|-15:160,2,46.6666666666667,14|2|2,0:0|1:2|1:2,0:0:0:0:
119,256,64738,2,0,L|59:244,2,46.6666666666667,14|2|2,0:0|1:2|1:2,0:0:0:0:
266,173,64966,1,14,0:0:0:0:
245,177,65042,1,2,1:2:0:0:
224,181,65118,1,2,1:2:0:0:
198,223,65194,5,14,0:0:0:0:
256,192,65419,12,0,73279,0:0:0:0:
