osu file format v14

[General]
AudioFilename: audio.mp3
AudioLeadIn: 0
PreviewTime: 28921
Countdown: 0
SampleSet: Soft
StackLeniency: 0.7
Mode: 0
LetterboxInBreaks: 0
WidescreenStoryboard: 0

[Editor]
Bookmarks: 198,3848,7498,11148,14798,18437,21746,25281,28921,32571,36221,39871,43521,47171,50822,54472,57209,59947,63597,65419,69611,73279
DistanceSpacing: 1.2
BeatDivisor: 4
GridSize: 32
TimelineZoom: 1.9

[Metadata]
Title:Flowering Game Night
TitleUnicode:Flowering Game Night
Artist:BLANKFIELD
ArtistUnicode:BLANKFIELD
Creator:eiri-
Version:Beginner
Source:東方花映塚 ~ Phantasmagoria of Flower View.
Tags:Ayyri Featured Artist FA 東方Project ZUN Team Shanghai Alice Touhou Izayoi Sakuya 十六夜 咲夜 PoFV TH09 TH 9 Flower Reflecting Mound Kaeizuka permutation suicide Instrumental Video Game Metal Comiket 79 C79 warinside
BeatmapID:2471869
BeatmapSetID:1185325

[Difficulty]
HPDrainRate:3
CircleSize:2
OverallDifficulty:3
ApproachRate:3
SliderMultiplier:0.4
SliderTickRate:0.5

[Events]
//Background and Video events
0,0,"Sakuya 685.jpg",0,0
//Break Periods
//Storyboard Layer 0 (Background)
//Storyboard Layer 1 (Fail)
//Storyboard Layer 2 (Pass)
//Storyboard Layer 3 (Foreground)
//Storyboard Layer 4 (Overlay)
//Storyboard Sound Samples

[TimingPoints]
198,228.136882129278,4,2,1,80,1,0
14798,220.588235294118,4,2,1,70,1,0
24393,222.222222222222,4,2,1,70,1,0
24504,222.222222222222,4,2,1,70,1,0
25392,220.588235294118,4,2,1,70,1,0
28921,228.136882129278,4,2,1,75,1,0
54472,-100,4,2,1,80,0,0
65194,225.563909774436,4,2,1,80,1,0
65419,262.008733624454,4,2,1,30,1,0

[Colours]
Combo1 : 117,196,238
Combo2 : 248,112,112
Combo3 : 243,190,92
Combo4 : 118,235,112

[HitObjects]
402,314,198,5,6,1:2:0:0:
349,129,1110,1,6,1:2:0:0:
174,210,2023,2,0,L|90:199,1,80.0000011920928,6|10,1:2|0:0,0:0:0:0:
0,180,2935,1,14,0:0:0:0:
155,67,3848,6,0,L|239:78,1,80.0000011920928,6|10,1:2|0:0,0:0:0:0:
320,119,4760,2,0,L|404:108,1,80.0000011920928,10|2,0:0|1:2,0:0:0:0:
494,96,5673,2,0,L|473:261,1,160.000002384186,6|6,1:2|1:2,0:0:0:0:
286,297,7498,5,6,1:2:0:0:
255,107,8410,1,2,1:2:0:0:
68,151,9323,2,0,L|56:238,1,80.0000011920928,6|2,1:2|1:2,0:0:0:0:
36,324,10236,1,2,1:2:0:0:
222,369,11148,5,6,1:2:0:0:
192,179,12061,1,2,1:2:0:0:
382,203,12973,2,0,L|393:117,1,80.0000011920928,6|10,1:2|0:0,0:0:0:0:
407,28,13886,1,14,0:0:0:0:
210,48,14798,6,0,L|216:93,1,40,2|14,1:2|0:0,0:0:0:0:
215,87,18437,5,14,0:0:0:0:
215,87,21746,6,0,L|278:78,1,60.0000008940696,6|6,1:2|1:2,0:0:0:0:
274,78,24393,6,0,L|269:144,1,60.0000008940696,2|10,1:2|0:0,0:0:0:0:
261,257,25281,1,6,1:2:0:0:
427,278,26053,5,10,0:0:0:0:
479,197,26494,1,10,0:0:0:0:
427,116,26936,2,0,L|418:30,1,80.0000011920928,10|10,0:0|0:0,0:0:0:0:
301,9,27928,1,6,1:2:0:0:
109,94,28921,6,0,L|45:88,2,60.0000008940696,6|2|2,1:2|1:2|1:2,0:0:0:0:
318,210,30746,2,0,L|382:204,2,60.0000008940696,6|2|2,1:2|1:2|1:2,0:0:0:0:
282,242,31658,1,14,0:0:0:0:
111,153,32571,6,0,L|47:147,2,60.0000008940696,6|2|2,1:2|1:2|1:2,0:0:0:0:
320,269,34396,2,0,L|384:263,2,60.0000008940696,6|2|2,1:2|1:2|1:2,0:0:0:0:
284,301,35308,1,14,0:0:0:0:
113,212,36221,6,0,L|121:279,2,60.0000008940696,6|2|2,1:2|1:2|1:2,0:0:0:0:
339,131,38046,2,0,L|331:198,2,60.0000008940696,6|2|2,1:2|1:2|1:2,0:0:0:0:
323,85,38959,1,14,0:0:0:0:
143,154,39871,6,0,L|151:221,2,60.0000008940696,6|2|2,1:2|1:2|1:2,0:0:0:0:
369,73,41696,2,0,L|361:140,2,60.0000008940696,6|2|2,1:2|1:2|1:2,0:0:0:0:
353,27,42609,1,14,0:0:0:0:
159,27,43521,6,0,L|169:114,1,80.0000011920928,6|10,1:2|0:0,0:0:0:0:
187,249,44662,1,2,1:2:0:0:
375,214,45574,1,2,1:2:0:0:
351,71,46259,6,0,L|359:23,2,40.0000005960464,14|0|14,0:0|0:0|0:0,0:0:0:0:
278,134,47171,6,0,L|193:144,1,80.0000011920928,6|10,1:2|0:0,0:0:0:0:
55,162,48312,1,2,1:2:0:0:
83,351,49225,1,2,1:2:0:0:
225,328,49909,6,0,L|231:281,2,40.0000005960464,14|0|14,0:0|0:0|0:0,0:0:0:0:
312,368,50822,5,2,0:1:0:0:
312,368,54016,5,2,0:1:0:0:
372,293,54472,6,0,L|456:282,1,80.0000011920928,6|2,1:2|1:2,0:0:0:0:
437,187,55384,2,0,L|353:198,1,80.0000011920928,6|14,1:2|0:0,0:0:0:0:
310,206,56069,1,14,0:0:0:0:
206,106,56753,1,14,0:0:0:0:
139,175,57209,6,0,L|55:186,1,80.0000011920928,6|2,1:2|1:2,0:0:0:0:
37,278,58122,2,0,L|121:267,1,80.0000011920928,6|2,1:2|1:2,0:0:0:0:
204,305,59035,1,2,1:2:0:0:
395,288,59947,6,0,L|384:204,1,80.0000011920928,6|2,1:2|1:2,0:0:0:0:
299,163,60860,2,0,L|310:79,1,80.0000011920928,6|14,1:2|0:0,0:0:0:0:
317,36,61544,1,14,0:0:0:0:
126,57,62457,1,14,0:0:0:0:
150,149,62913,1,14,0:0:0:0:
141,292,63597,6,0,L|57:281,1,80.0000011920928,6|14,1:2|0:0,0:0:0:0:
14,274,64282,2,0,L|10:111,1,160.000002384186,8|14,0:0|0:0,0:0:0:0:
256,192,65419,12,0,73279,0:0:0:0:
