osu file format v14

[General]
AudioFilename: audio.mp3
AudioLeadIn: 0
PreviewTime: 28921
Countdown: 0
SampleSet: Drum
StackLeniency: 0.7
Mode: 2
LetterboxInBreaks: 0
WidescreenStoryboard: 1

[Editor]
DistanceSpacing: 1
BeatDivisor: 2
GridSize: 4
TimelineZoom: 2.3

[Metadata]
Title:Flowering Game Night
TitleUnicode:Flowering Game Night
Artist:BLANKFIELD
ArtistUnicode:BLANKFIELD
Creator:Kukkai
Version:Rain
Source:東方花映塚 ~ Phantasmagoria of Flower View.
Tags:mpg mapper's guild rock chiptune Featured Artist FA 東方Project ZUN Team Shanghai Alice Touhou Izayoi Sakuya 十六夜 咲夜 PoFV TH09 TH 9 Flower Reflecting Mound Kaeizuka permutation suicide Instrumental Video Game Metal Comiket 79 C79 warinside
BeatmapID:4461905
BeatmapSetID:1669850

[Difficulty]
HPDrainRate:5
CircleSize:4
OverallDifficulty:9
ApproachRate:9
SliderMultiplier:1.3
SliderTickRate:1

[Events]
//Background and Video events
0,0,"aaaaaaaaaaaa.jpg",0,0
//Break Periods
2,15203,17271
2,18622,20138
2,22262,23668
//Storyboard Layer 0 (Background)
//Storyboard Layer 1 (Fail)
//Storyboard Layer 2 (Pass)
//Storyboard Layer 3 (Foreground)
//Storyboard Layer 4 (Overlay)
//Storyboard Sound Samples

[TimingPoints]
183,228.136882129278,4,3,1,70,1,0
7483,-90.9090909090909,4,3,1,70,0,1
14783,220.588235294118,4,3,1,70,1,0
14783,-100,4,3,1,70,0,0
14784,-100,4,3,1,70,0,0
24378,222.222222222222,4,3,1,70,1,0
24378,-100,4,3,1,70,0,0
24489,222.222222222222,4,3,1,70,1,0
24489,-100,4,3,1,70,0,0
25377,220.588235294118,4,3,1,70,1,0
25377,-100,4,3,1,70,0,0
28906,228.136882129278,4,3,1,70,1,0
28906,-100,4,3,1,70,0,0
28907,-100,4,3,1,70,0,0
44191,-100,4,2,1,70,0,0
44419,-100,4,3,1,70,0,0
45103,-100,4,2,1,70,0,0
45559,-100,4,3,1,70,0,0
45788,-100,4,2,1,70,0,0
46244,-100,4,3,1,70,0,0
47841,-100,4,2,1,70,0,0
48297,-100,4,3,1,70,0,0
48753,-100,4,2,1,70,0,0
49210,-100,4,3,1,70,0,0
49438,-100,4,2,1,70,0,0
49894,-100,4,3,1,70,0,0
50807,-100,4,2,1,40,0,0
54458,-90.9090909090909,4,3,1,70,0,0
65179,225.563909774436,4,3,1,70,1,0
65179,-100,4,3,1,70,0,0
65404,262.008733624454,4,3,1,40,1,0
65404,-100,4,3,1,40,0,0

[Colours]
Combo1 : 136,170,210
Combo2 : 95,86,143
Combo3 : 207,69,104

[HitObjects]
304,304,183,6,0,L|356:304,2,32.5,4|0|0,1:3|1:3|1:3,0:0:0:0:
180,308,411,2,0,L|180:236,1,65,8|0,0:3|0:3,0:0:0:0:
356,168,639,1,8,0:3:0:0:
388,168,696,1,8,0:3:0:0:
420,168,753,1,0,1:3:0:0:
288,108,867,1,8,0:3:0:0:
256,108,924,1,8,0:3:0:0:
224,108,981,1,8,0:3:0:0:
396,344,1095,6,0,P|436:312|380:260,1,130,4|8,1:3|0:3,0:0:0:0:
300,260,1437,1,8,0:3:0:0:
204,264,1551,2,0,L|204:192,1,65,0|0,1:3|1:3,0:0:0:0:
396,204,1779,2,0,L|476:204,1,65,8|0,0:3|0:3,0:0:0:0:
284,176,2008,6,0,L|284:96,1,65,4|0,1:3|1:3,0:0:0:0:
380,108,2236,2,0,L|380:32,1,65,8|0,0:3|0:3,0:0:0:0:
204,264,2464,1,8,0:3:0:0:
171,264,2521,1,8,0:3:0:0:
204,264,2578,1,8,0:3:0:0:
336,152,2692,1,0,1:3:0:0:
368,152,2749,1,0,1:3:0:0:
336,152,2806,1,0,1:3:0:0:
144,364,2920,6,0,L|144:276,1,65,0|0,1:3|1:3,0:0:0:0:
184,300,3091,1,0,0:0:0:0:
224,300,3148,2,0,L|224:224,1,65,0|0,1:3|1:3,0:0:0:0:
84,228,3376,2,0,L|84:152,1,65,0|0,1:3|1:3,0:0:0:0:
280,168,3605,2,0,L|364:168,1,65,8|0,0:3|0:3,0:0:0:0:
144,180,3833,6,0,L|144:92,1,65,12|8,0:3|0:3,0:0:0:0:
208,116,4061,2,0,L|292:116,1,65,8|8,0:3|0:3,0:0:0:0:
92,364,4289,2,0,L|20:364,1,65,8|8,0:3|0:3,0:0:0:0:
27,364,4517,2,0,L|108:364,1,65,8|8,0:3|0:3,0:0:0:0:
272,368,4745,6,0,L|272:272,1,65,8|8,0:3|0:3,0:0:0:0:
208,304,4973,1,8,0:3:0:0:
384,252,5087,1,0,1:3:0:0:
413,239,5144,1,0,1:3:0:0:
424,210,5201,1,0,1:3:0:0:
411,181,5258,1,0,1:3:0:0:
381,171,5315,1,0,1:3:0:0:
204,176,5430,2,0,L|132:176,1,65,8|0,0:3|0:3,0:0:0:0:
324,120,5658,6,0,L|324:40,1,65,4|8,1:3|0:3,0:0:0:0:
292,56,5829,1,8,0:3:0:0:
260,56,5886,1,8,0:3:0:0:
228,56,5943,1,8,0:3:0:0:
260,56,6000,1,8,0:3:0:0:
436,368,6114,5,8,0:3:0:0:
467,360,6171,1,8,0:3:0:0:
489,337,6228,1,8,0:3:0:0:
496,305,6285,1,8,0:3:0:0:
485,275,6342,1,8,0:3:0:0:
459,256,6399,1,8,0:3:0:0:
428,252,6456,1,8,0:3:0:0:
232,256,6570,6,0,L|148:256,1,65,0|8,1:3|3:3,0:0:0:0:
268,208,6798,2,0,L|268:136,1,65,8|8,0:3|0:3,0:0:0:0:
84,144,7027,2,0,L|84:64,1,65,0|8,0:3|0:3,0:0:0:0:
272,72,7255,1,8,0:3:0:0:
304,72,7312,1,8,0:3:0:0:
337,72,7369,1,8,0:3:0:0:
160,364,7483,6,0,L|160:288,1,71.5000021820069,4|8,1:3|0:3,0:0:0:0:
232,292,7711,2,0,L|312:292,1,71.5000021820069,0|8,1:3|0:3,0:0:0:0:
112,232,7939,2,0,L|24:232,2,71.5000021820069,0|8|0,1:3|0:3|1:3,0:0:0:0:
184,232,8281,1,8,0:3:0:0:
360,228,8395,6,0,L|360:140,1,71.5000021820069,0|8,1:3|0:3,0:0:0:0:
288,156,8624,2,0,L|192:156,1,71.5000021820069,0|8,1:3|0:3,0:0:0:0:
408,116,8852,2,0,L|408:24,1,71.5000021820069,0|8,1:3|0:3,0:0:0:0:
336,44,9080,1,0,1:3:0:0:
408,44,9194,1,8,0:3:0:0:
208,372,9308,6,0,L|136:372,1,71.5000021820069,4|8,1:3|0:3,0:0:0:0:
208,372,9536,2,0,L|308:372,1,71.5000021820069,0|8,1:3|0:3,0:0:0:0:
88,308,9764,2,0,L|88:216,1,71.5000021820069,0|8,1:3|0:3,0:0:0:0:
160,236,9992,2,0,L|84:236,1,71.5000021820069,0|8,1:3|0:3,0:0:0:0:
280,164,10221,6,0,L|372:164,1,71.5000021820069,0|8,1:3|0:3,0:0:0:0:
280,164,10449,2,0,L|200:164,1,71.5000021820069,0|8,1:3|0:3,0:0:0:0:
396,108,10677,2,0,L|484:108,1,71.5000021820069,0|8,1:3|0:3,0:0:0:0:
280,108,10905,2,0,L|208:108,1,71.5000021820069,0|8,1:3|0:3,0:0:0:0:
396,328,11133,6,0,L|472:328,1,71.5000021820069,4|8,1:3|0:3,0:0:0:0:
467,328,11361,2,0,L|384:328,1,71.5000021820069,0|8,1:3|0:3,0:0:0:0:
208,332,11589,2,0,L|208:244,1,71.5000021820069,0|8,1:3|0:3,0:0:0:0:
280,260,11817,2,0,L|280:180,1,71.5000021820069,0|8,1:3|0:3,0:0:0:0:
100,180,12046,6,0,L|192:180,1,71.5000021820069,0|8,1:3|0:3,0:0:0:0:
244,184,12274,2,0,L|244:96,1,71.5000021820069,0|8,1:3|0:3,0:0:0:0:
52,136,12502,2,0,L|52:48,1,71.5000021820069,0|8,1:3|0:3,0:0:0:0:
124,64,12730,2,0,L|48:64,1,71.5000021820069,0|8,1:3|0:3,0:0:0:0:
244,344,12958,6,0,L|244:256,1,71.5000021820069,12|8,1:3|0:3,0:0:0:0:
136,264,13186,2,0,L|136:180,1,71.5000021820069,8|8,0:3|0:3,0:0:0:0:
328,192,13414,2,0,L|408:192,1,71.5000021820069,8|8,0:3|0:3,0:0:0:0:
208,128,13643,2,0,L|128:128,1,71.5000021820069,8|8,0:3|0:3,0:0:0:0:
336,368,13871,6,0,L|336:288,1,71.5000021820069,8|0,0:3|0:3,0:0:0:0:
236,292,14099,2,0,L|236:216,1,71.5000021820069,8|0,0:3|0:3,0:0:0:0:
424,212,14327,2,0,L|504:212,1,71.5000021820069,8|0,0:3|0:3,0:0:0:0:
304,148,14555,2,0,L|216:148,1,71.5000021820069,8|0,0:3|0:3,0:0:0:0:
420,104,14783,6,0,L|420:184,1,65,0|0,1:3|1:3,0:0:0:0:
236,208,15003,1,12,0:3:0:0:
364,244,17871,6,0,L|160:244,1,195,0|0,0:3|1:3,0:0:0:0:
204,252,18257,5,0,1:3:0:0:
236,252,18312,1,0,1:3:0:0:
408,256,18422,1,4,0:3:0:0:
336,244,20738,5,0,1:3:0:0:
212,240,20849,1,8,0:3:0:0:
183,225,20904,1,0,0:3:0:0:
171,196,20959,1,0,0:3:0:0:
183,166,21014,1,0,0:3:0:0:
211,151,21069,1,0,0:3:0:0:
336,148,21180,5,8,0:3:0:0:
363,132,21235,1,0,0:3:0:0:
373,102,21290,1,0,0:3:0:0:
360,73,21345,1,0,0:3:0:0:
331,60,21400,1,8,0:3:0:0:
208,64,21510,6,0,L|208:148,1,65,0|8,1:3|0:3,0:0:0:0:
384,288,21731,2,0,L|228:288,1,130,4|0,0:3|0:3,0:0:0:0:
440,224,22062,1,4,0:3:0:0:
164,264,24268,5,8,0:3:0:0:
288,268,24378,2,0,L|360:268,2,65,0|0|0,0:3|0:3|0:3,0:0:0:0:
164,264,24711,2,0,L|84:264,2,65,8|0|0,0:3|0:3|0:3,0:0:0:0:
288,268,25044,2,0,L|288:184,1,65,0|8,0:3|0:3,0:0:0:0:
108,132,25266,6,0,L|268:132,1,130,4|8,0:3|0:3,0:0:0:0:
56,76,25597,1,4,0:3:0:0:
272,156,26038,1,8,0:3:0:0:
56,76,26479,1,8,0:3:0:0:
272,156,26921,1,8,0:3:0:0:
148,156,27031,2,0,L|148:308,1,130,0|0,1:3|1:3,0:0:0:0:
272,284,27362,2,0,L|368:284,2,65,8|0|8,0:3|1:3|0:3,0:0:0:0:
148,284,27693,6,0,L|148:192,1,65,0|8,0:3|0:3,0:0:0:0:
324,208,27913,2,0,P|360:172|304:116,1,130,4|0,1:3|1:3,0:0:0:0:
196,120,28244,2,0,L|352:120,1,130,8|0,0:3|0:3,0:0:0:0:
392,120,28575,1,0,1:3:0:0:
212,304,28685,2,0,L|132:304,1,65,8|0,0:3|0:3,0:0:0:0:
328,304,28906,6,0,P|368:272|312:224,1,130,2|0,0:3|0:3,0:0:0:0:
204,228,29248,2,0,P|168:204|220:144,1,130,2|0,0:3|0:3,0:0:0:0:
328,132,29590,2,0,L|328:44,1,65,2|0,0:3|0:3,0:0:0:0:
144,360,29818,6,0,L|144:284,1,65,10|2,0:3|0:3,0:0:0:0:
268,296,30046,2,0,L|268:200,1,65,2|2,0:3|0:3,0:0:0:0:
144,220,30274,2,0,L|144:136,1,65,2|2,0:3|0:3,0:0:0:0:
268,152,30502,2,0,L|268:64,1,65,2|2,0:3|0:3,0:0:0:0:
80,336,30731,6,0,L|216:336,1,130,6|0,0:3|0:3,0:0:0:0:
332,336,31073,2,0,P|372:304|316:256,1,130,2|0,0:3|0:3,0:0:0:0:
208,256,31415,2,0,L|136:256,1,65,2|0,0:3|0:3,0:0:0:0:
328,249,31643,6,0,L|328:169,1,65,10|0,0:3|0:3,0:0:0:0:
204,172,31871,2,0,L|128:172,1,65,0|0,0:3|0:3,0:0:0:0:
264,180,32099,2,0,L|352:176,1,65,2|0,0:3|0:3,0:0:0:0:
204,116,32328,2,0,L|132:116,1,65,2|0,0:3|0:3,0:0:0:0:
316,356,32556,6,0,L|464:356,1,130,6|0,0:3|0:3,0:0:0:0:
324,352,32898,2,0,P|284:312|328:264,1,130,2|0,0:3|0:3,0:0:0:0:
448,264,33240,2,0,L|448:176,1,65,2|0,0:3|0:3,0:0:0:0:
256,192,33468,5,8,0:3:0:0:
392,192,33696,2,0,L|392:104,1,65,2|0,0:3|0:3,0:0:0:0:
268,128,33925,1,2,0:3:0:0:
242,108,33982,1,2,0:3:0:0:
233,78,34039,1,2,0:3:0:0:
243,47,34096,1,2,0:3:0:0:
270,29,34153,1,2,0:3:0:0:
336,28,34267,1,2,0:3:0:0:
136,360,34381,6,0,P|104:328|156:268,1,130,6|0,0:3|0:3,0:0:0:0:
268,264,34723,2,0,L|120:264,1,130,2|0,0:3|0:3,0:0:0:0:
268,264,35065,2,0,L|268:172,1,65,2|0,0:3|0:3,0:0:0:0:
92,196,35293,6,0,L|20:196,1,65,10|0,0:3|0:0,0:0:0:0:
92,196,35521,2,0,L|172:196,1,65,2|0,0:3|0:3,0:0:0:0:
280,200,35750,2,0,L|280:116,1,65,2|0,0:3|0:0,0:0:0:0:
155,128,35978,2,0,L|155:60,1,65,2|0,0:3|0:3,0:0:0:0:
336,340,36206,6,0,P|372:308|320:252,1,130,6|0,0:3|0:3,0:0:0:0:
208,256,36548,2,0,L|364:256,1,130,2|0,0:3|0:3,0:0:0:0:
216,256,36890,2,0,L|144:256,1,65,2|0,0:3|0:3,0:0:0:0:
352,204,37118,6,0,L|352:120,1,65,10|2,0:3|0:3,0:0:0:0:
228,144,37347,2,0,L|228:208,1,65,2|2,0:3|0:3,0:0:0:0:
352,208,37575,2,0,L|352:116,1,65,2|2,0:3|0:3,0:0:0:0:
228,140,37803,2,0,L|228:224,1,65,2|2,0:3|0:3,0:0:0:0:
420,336,38031,6,0,L|276:336,1,130,6|0,0:3|0:3,0:0:0:0:
168,336,38373,2,0,P|136:300|180:236,1,130,2|0,0:3|0:3,0:0:0:0:
296,232,38715,2,0,L|368:232,1,65,2|0,0:3|0:3,0:0:0:0:
160,200,38944,6,0,L|160:132,1,65,10|0,0:3|0:3,0:0:0:0:
284,128,39172,2,0,L|284:48,1,65,2|0,0:3|0:3,0:0:0:0:
160,64,39400,2,0,L|248:64,1,65,2|0,0:3|0:3,0:0:0:0:
348,64,39628,2,0,L|272:64,1,65,2|0,0:3|0:3,0:0:0:0:
104,360,39856,6,0,P|68:344|120:292,1,130,6|0,0:3|0:3,0:0:0:0:
228,284,40198,2,0,L|368:284,1,130,2|0,0:3|0:3,0:0:0:0:
236,288,40540,2,0,L|164:288,1,65,2|0,0:3|0:3,0:0:0:0:
352,208,40769,5,10,0:3:0:0:
220,216,40997,2,0,L|220:144,1,65,2|0,0:3|0:3,0:0:0:0:
352,144,41225,2,0,L|436:144,1,65,2|2,0:3|0:3,0:0:0:0:
352,144,41453,2,0,L|280:144,1,65,2|0,0:3|0:3,0:0:0:0:
468,368,41681,6,0,P|492:328|448:256,1,130,6|0,0:3|0:3,0:0:0:0:
332,264,42023,2,0,L|196:264,1,130,2|0,0:3|0:3,0:0:0:0:
328,260,42366,2,0,L|408:260,1,65,2|0,0:3|0:3,0:0:0:0:
192,216,42594,6,0,P|160:200|200:140,1,130,10|0,0:3|0:3,0:0:0:0:
380,140,42936,2,0,P|416:112|360:52,1,130,10|0,0:3|0:3,0:0:0:0:
199,139,43278,2,0,L|123:139,1,65,10|0,0:3|0:3,0:0:0:0:
312,264,43506,6,0,L|384:264,1,65,8|8,0:3|0:3,0:0:0:0:
440,260,43734,1,8,0:3:0:0:
377,264,43848,1,8,0:3:0:0:
200,360,43963,2,0,L|200:272,1,65,2|2,0:2|0:2,0:0:0:0:
304,296,44191,1,2,0:2:0:0:
200,295,44305,1,2,0:2:0:0:
304,296,44419,6,0,P|328:264|288:180,1,130,2|8,0:2|0:3,0:0:0:0:
232,184,44761,1,8,0:3:0:0:
128,184,44875,2,0,L|88:184,2,32.5,2|2|2,0:2|0:2|0:2,0:0:0:0:
232,184,45103,1,2,0:2:0:0:
84,252,45331,6,0,L|40:252,1,32.5,2|2,0:2|0:2,0:0:0:0:
84,252,45445,2,0,L|128:252,1,32.5,2|2,0:2|0:2,0:0:0:0:
168,252,45559,2,0,L|168:168,1,65,8|8,0:3|0:3,0:0:0:0:
64,184,45788,1,2,0:2:0:0:
64,124,45902,1,2,0:2:0:0:
184,124,46016,1,2,0:2:0:0:
116,124,46130,1,2,0:2:0:0:
300,360,46244,6,0,P|360:336|288:264,1,195,4|0,0:3|0:2,0:0:0:0:
120,260,46700,2,0,P|64:232|136:156,1,195,4|0,0:3|0:2,0:0:0:0:
344,156,47156,5,8,0:3:0:0:
412,156,47271,1,8,0:3:0:0:
412,156,47385,1,8,0:3:0:0:
344,156,47499,1,8,0:3:0:0:
128,356,47613,2,0,L|128:280,1,65,0|0,0:2|0:2,0:0:0:0:
196,292,47841,2,0,L|120:288,2,65,2|2|2,0:2|0:2|0:2,0:0:0:0:
28,176,48297,6,0,L|104:176,1,65,8|8,0:3|0:3,0:0:0:0:
160,176,48525,2,0,L|208:176,2,32.5,2|2|2,0:2|0:2|0:2,0:0:0:0:
88,176,48753,2,0,L|88:100,1,65,2|2,0:2|0:2,0:0:0:0:
212,112,48982,6,0,L|136:112,1,65,2|2,0:2|0:2,0:0:0:0:
272,116,49210,2,0,L|272:40,1,65,8|8,0:3|0:3,0:0:0:0:
96,52,49438,2,0,L|96:148,1,65,2|2,0:2|0:2,0:0:0:0:
272,116,49666,2,0,L|340:116,1,65,2|2,0:2|0:2,0:0:0:0:
140,364,49894,6,0,P|96:352|160:260,1,195,4|0,0:3|0:2,0:0:0:0:
340,256,50350,2,0,P|404:232|324:176,1,195,4|0,0:3|0:2,0:0:0:0:
144,172,50807,5,0,0:0:0:0:
84,132,54001,5,2,0:2:0:0:
348,132,54457,6,0,L|400:132,2,43.3333333333333,4|0|0,1:3|0:3|0:3,0:0:0:0:
272,132,54685,2,0,L|208:132,2,47.6666681213379,0|0|0,1:3|0:3|0:3,0:0:0:0:
440,136,54913,1,0,1:3:0:0:
288,304,55141,2,0,L|188:304,1,71.5000021820069,8|0,0:3|0:0,0:0:0:0:
400,256,55369,6,0,L|472:256,2,47.6666681213379,4|0|0,1:3|0:3|0:3,0:0:0:0:
324,260,55598,1,0,1:3:0:0:
276,260,55674,1,0,0:3:0:0:
276,208,55750,1,0,0:3:0:0:
444,112,55826,2,0,P|456:60|420:12,1,95.3333362426759,8|0,1:3|0:3,0:0:0:0:
228,288,56054,6,0,L|176:288,2,47.6666681213379,8|8|8,0:3|0:3|0:3,0:0:0:0:
372,300,56282,2,0,L|428:300,2,47.6666681213379,8|8|8,0:3|0:3|0:3,0:0:0:0:
204,252,56510,1,0,1:3:0:0:
356,212,56738,6,0,P|392:172|336:100,1,143.000004364014,8|0,0:3|1:3,0:0:0:0:
304,100,57042,1,0,0:0:0:0:
256,100,57118,1,0,0:0:0:0:
96,232,57194,6,0,L|40:232,2,47.6666681213379,4|0|0,1:3|0:3|0:3,0:0:0:0:
172,232,57423,1,0,1:3:0:0:
219,232,57499,1,0,0:3:0:0:
267,232,57575,1,0,0:3:0:0:
120,160,57651,1,0,1:3:0:0:
264,112,57879,2,0,L|264:196,1,71.5000021820069,8|0,0:3|0:0,0:0:0:0:
64,296,58107,6,0,L|16:296,2,47.6666681213379,4|0|0,1:3|0:3|0:3,0:0:0:0:
140,300,58335,1,0,1:3:0:0:
187,300,58411,1,0,0:3:0:0:
235,300,58487,1,0,0:3:0:0:
312,296,58563,6,0,L|372:296,2,47.6666681213379,0|0|0,1:3|0:3|0:3,0:0:0:0:
236,300,58791,2,0,L|180:300,2,47.6666681213379,0|0|0,1:3|0:3|0:3,0:0:0:0:
312,296,59020,6,0,L|312:216,1,47.6666681213379,0|0,1:3|0:3,0:0:0:0:
264,248,59172,1,0,0:3:0:0:
112,252,59248,1,0,1:3:0:0:
256,176,59476,2,0,P|284:140|232:48,1,143.000004364014,8|0,0:3|1:3,0:0:0:0:
216,56,59761,1,0,1:3:0:0:
180,56,59818,1,0,1:3:0:0:
216,56,59875,1,0,1:3:0:0:
360,252,59932,5,4,1:3:0:0:
407,252,60008,1,0,0:3:0:0:
455,252,60084,1,0,0:3:0:0:
380,196,60160,1,0,1:3:0:0:
332,196,60236,1,0,0:3:0:0:
284,196,60312,1,0,0:3:0:0:
440,140,60388,5,0,1:3:0:0:
292,324,60617,2,0,L|216:324,1,71.5000021820069,8|0,0:3|0:0,0:0:0:0:
400,232,60845,6,0,L|400:164,1,47.6666681213379,4|0,1:3|0:3,0:0:0:0:
352,188,60997,1,0,0:3:0:0:
280,128,61073,1,0,1:3:0:0:
327,128,61149,1,0,0:3:0:0:
375,128,61225,1,0,0:3:0:0:
216,296,61301,6,0,P|196:248|240:200,1,95.3333362426759,8|0,0:3|0:3,0:0:0:0:
376,212,61529,2,0,L|432:212,2,47.6666681213379,8|8|8,0:3|0:3|0:3,0:0:0:0:
220,168,61757,6,0,L|168:168,2,47.6666681213379,8|8|8,0:3|0:3|0:3,0:0:0:0:
376,156,61985,1,0,1:3:0:0:
232,348,62213,6,0,L|232:288,2,47.6666681213379,0|0|0,0:3|0:3|0:3,0:0:0:0:
392,348,62442,1,8,0:3:0:0:
252,248,62670,5,2,0:3:0:0:
392,244,62898,2,0,P|420:200|372:124,1,143.000004364014,8|0,0:3|1:3,0:0:0:0:
308,128,63240,1,0,1:3:0:0:
128,120,63354,1,4,0:3:0:0:
92,120,63411,1,0,0:3:0:0:
56,120,63468,1,0,0:3:0:0:
92,120,63525,1,0,0:3:0:0:
240,304,63582,6,0,L|288:304,2,47.6666681213379,4|0|0,0:3|0:3|0:3,0:0:0:0:
168,248,63810,2,0,L|120:248,2,47.6666681213379,0|0|0,1:3|0:3|0:3,0:0:0:0:
340,248,64039,5,8,1:3:0:0:
192,160,64267,2,0,L|124:160,2,47.6666681213379,8|8|8,0:3|0:3|0:3,0:0:0:0:
336,160,64495,6,0,L|392:160,2,47.6666681213379,8|8|8,0:3|0:3|0:3,0:0:0:0:
192,104,64723,1,8,0:3:0:0:
239,104,64799,1,8,0:3:0:0:
287,104,64875,1,8,0:3:0:0:
132,60,64951,6,0,L|60:60,2,47.6666681213379,8|8|8,0:3|0:3|0:3,0:0:0:0:
280,60,65179,2,0,L|336:60,2,43.3333333333333,0|0|0,1:3|0:3|0:3,0:0:0:0:
96,368,65404,5,2,0:3:0:0:
256,192,65666,12,0,73657,0:0:0:0:
