osu file format v14

[General]
AudioFilename: audio.mp3
AudioLeadIn: 0
PreviewTime: 28921
Countdown: 0
SampleSet: Drum
StackLeniency: 0.7
Mode: 2
LetterboxInBreaks: 0
WidescreenStoryboard: 1

[Editor]
DistanceSpacing: 1
BeatDivisor: 4
GridSize: 4
TimelineZoom: 2.3

[Metadata]
Title:Flowering Game Night
TitleUnicode:Flowering Game Night
Artist:BLANKFIELD
ArtistUnicode:BLANKFIELD
Creator:Kukkai
Version:Overdose
Source:東方花映塚 ~ Phantasmagoria of Flower View.
Tags:mpg mapper's guild rock chiptune Featured Artist FA 東方Project ZUN Team Shanghai Alice Touhou Izayoi Sakuya 十六夜 咲夜 PoFV TH09 TH 9 Flower Reflecting Mound Kaeizuka permutation suicide Instrumental Video Game Metal Comiket 79 C79 warinside
BeatmapID:3411665
BeatmapSetID:1669850

[Difficulty]
HPDrainRate:6
CircleSize:4.2
OverallDifficulty:9.4
ApproachRate:9.4
SliderMultiplier:1.6
SliderTickRate:1

[Events]
//Background and Video events
0,0,"aaaaaaaaaaaa.jpg",0,0
//Break Periods
2,15203,17331
2,18622,20198
2,22262,23728
//Storyboard Layer 0 (Background)
//Storyboard Layer 1 (Fail)
//Storyboard Layer 2 (Pass)
//Storyboard Layer 3 (Foreground)
//Storyboard Layer 4 (Overlay)
//Storyboard Sound Samples

[TimingPoints]
183,228.136882129278,4,3,1,70,1,0
7483,-100,4,3,1,70,0,1
14783,220.588235294118,4,3,1,70,1,0
14783,-100,4,3,1,70,0,0
14784,-100,4,3,1,70,0,0
24378,222.222222222222,4,3,1,70,1,0
24378,-100,4,3,1,70,0,0
24489,222.222222222222,4,3,1,70,1,0
24489,-100,4,3,1,70,0,0
25377,220.588235294118,4,3,1,70,1,0
25377,-100,4,3,1,70,0,0
28906,228.136882129278,4,3,1,70,1,0
28906,-100,4,3,1,70,0,0
28907,-100,4,3,1,70,0,0
44191,-100,4,2,1,70,0,0
44419,-100,4,3,1,70,0,0
45103,-100,4,2,1,70,0,0
45559,-100,4,3,1,70,0,0
45788,-100,4,2,1,70,0,0
46244,-100,4,3,1,70,0,0
47841,-100,4,2,1,70,0,0
48297,-100,4,3,1,70,0,0
48753,-100,4,2,1,70,0,0
49210,-100,4,3,1,70,0,0
49438,-100,4,2,1,70,0,0
49894,-100,4,3,1,70,0,0
50807,-100,4,2,1,40,0,0
54458,-90.9090909090909,4,3,1,70,0,0
65179,225.563909774436,4,3,1,70,1,0
65179,-100,4,3,1,70,0,0
65404,262.008733624454,4,3,1,40,1,0
65404,-100,4,3,1,40,0,0

[Colours]
Combo1 : 136,170,210
Combo2 : 95,86,143
Combo3 : 207,69,104

[HitObjects]
176,272,183,5,4,1:3:0:0:
136,264,240,1,0,1:3:0:0:
136,216,297,1,0,1:3:0:0:
176,192,354,1,0,1:3:0:0:
312,192,411,2,0,L|408:192,1,80,8|0,0:3|0:3,0:0:0:0:
208,136,639,6,0,L|208:80,1,40,8|8,0:3|0:3,0:0:0:0:
256,96,753,2,0,L|256:44,1,40,0|0,1:3|1:3,0:0:0:0:
120,60,867,1,8,0:3:0:0:
80,60,924,1,8,0:3:0:0:
40,60,981,1,8,0:3:0:0:
80,60,1038,1,8,0:3:0:0:
224,276,1095,5,4,1:3:0:0:
264,276,1152,1,0,1:3:0:0:
304,276,1209,1,0,1:3:0:0:
304,236,1266,1,0,1:3:0:0:
168,200,1323,1,8,0:3:0:0:
128,200,1380,1,8,0:3:0:0:
128,160,1437,1,8,0:3:0:0:
168,160,1494,1,8,0:3:0:0:
308,144,1551,5,0,1:3:0:0:
308,144,1608,1,0,1:3:0:0:
260,144,1665,1,0,1:3:0:0:
260,144,1722,1,0,1:3:0:0:
396,96,1779,2,0,L|480:96,1,80,8|0,0:3|0:3,0:0:0:0:
284,280,2008,6,0,L|184:280,1,80,4|0,1:3|1:3,0:0:0:0:
244,280,2179,1,0,1:3:0:0:
392,280,2236,2,0,L|392:192,1,80,8|0,0:3|0:3,0:0:0:0:
208,176,2464,6,0,L|152:176,1,40,8|8,0:3|0:3,0:0:0:0:
300,124,2578,2,0,L|356:124,1,40,8|8,0:3|0:3,0:0:0:0:
192,120,2692,2,0,L|192:80,1,40,0|0,1:3|1:3,0:0:0:0:
244,72,2806,2,0,L|244:24,1,40,0|0,1:3|1:3,0:0:0:0:
88,208,2920,6,0,L|36:208,2,40,0|0|0,1:3|1:3|1:3,0:0:0:0:
200,208,3148,2,0,L|256:208,2,40,0|0|0,1:3|1:3|1:3,0:0:0:0:
88,208,3376,6,0,L|24:208,2,40,0|0|0,1:3|1:3|1:3,0:0:0:0:
296,148,3605,2,0,L|388:148,1,80,8|0,0:3|0:3,0:0:0:0:
156,96,3833,6,0,L|44:96,1,80,12|8,0:3|0:3,0:0:0:0:
292,308,4061,2,0,L|380:308,1,80,8|8,0:3|0:3,0:0:0:0:
180,240,4289,2,0,L|272:240,1,80,8|8,0:3|0:3,0:0:0:0:
76,204,4517,2,0,L|76:108,1,80,8|8,0:3|0:3,0:0:0:0:
280,128,4745,6,0,L|180:128,1,80,8|8,0:3|0:3,0:0:0:0:
388,80,4973,2,0,L|472:80,1,80,8|0,0:3|1:3,0:0:0:0:
428,80,5144,1,0,1:3:0:0:
272,280,5202,5,0,1:3:0:0:
232,280,5259,1,0,1:3:0:0:
272,280,5316,1,0,1:3:0:0:
312,280,5373,1,0,1:3:0:0:
168,228,5430,2,0,L|80:228,1,80,8|0,0:3|0:3,0:0:0:0:
272,184,5658,6,0,L|272:84,1,80,4|8,1:3|0:3,0:0:0:0:
232,104,5829,1,8,0:3:0:0:
104,112,5886,1,8,0:3:0:0:
64,112,5943,1,8,0:3:0:0:
64,72,6000,1,8,0:3:0:0:
104,72,6057,1,8,0:3:0:0:
236,348,6114,5,8,0:3:0:0:
240,308,6171,1,8,0:3:0:0:
200,308,6228,1,8,0:3:0:0:
200,268,6285,1,8,0:3:0:0:
336,232,6342,1,8,0:3:0:0:
376,232,6399,1,8,0:3:0:0:
416,232,6456,1,8,0:3:0:0:
376,232,6513,1,8,0:3:0:0:
224,168,6570,6,0,L|172:168,1,40,0|0,1:3|1:3,0:0:0:0:
324,116,6684,2,0,L|376:116,1,40,8|0,3:3|1:3,0:0:0:0:
228,112,6798,2,0,L|132:112,1,80,8|8,0:3|0:3,0:0:0:0:
336,356,7027,6,0,L|336:260,1,80,0|8,0:3|0:3,0:0:0:0:
296,276,7198,1,8,0:3:0:0:
152,224,7255,1,8,0:3:0:0:
112,224,7312,1,8,0:3:0:0:
72,224,7369,1,8,0:3:0:0:
112,224,7426,1,8,0:3:0:0:
280,180,7483,6,0,L|380:180,1,80,4|8,1:3|0:3,0:0:0:0:
184,144,7711,2,0,L|184:44,1,80,0|8,1:3|0:3,0:0:0:0:
364,64,7939,2,0,L|256:64,1,80,0|8,1:3|0:3,0:0:0:0:
472,60,8167,2,0,L|368:60,1,80,0|8,1:3|0:3,0:0:0:0:
200,364,8395,6,0,L|200:264,1,80,0|8,1:3|0:3,0:0:0:0:
376,288,8624,2,0,L|464:288,1,80,0|8,1:3|0:3,0:0:0:0:
264,216,8852,2,0,L|376:216,1,80,0|8,1:3|0:3,0:0:0:0:
152,180,9080,1,0,1:3:0:0:
112,180,9137,1,0,0:3:0:0:
72,180,9194,1,8,0:3:0:0:
264,132,9308,6,0,L|372:132,1,80,4|8,1:3|0:3,0:0:0:0:
140,316,9536,2,0,L|88:316,2,40,0|0|8,1:3|0:3|0:3,0:0:0:0:
320,232,9764,2,0,L|212:232,1,80,0|8,1:3|0:3,0:0:0:0:
420,164,9992,1,0,1:3:0:0:
460,164,10049,1,0,0:3:0:0:
500,164,10106,1,8,0:3:0:0:
256,352,10221,6,0,L|256:260,1,80,0|8,1:3|0:3,0:0:0:0:
432,232,10449,2,0,L|484:232,2,40,0|0|8,1:3|0:3|0:3,0:0:0:0:
244,176,10677,2,0,L|156:176,1,80,0|8,1:3|0:3,0:0:0:0:
368,112,10905,2,0,L|448:112,1,80,0|8,1:3|0:3,0:0:0:0:
212,312,11133,6,0,L|212:224,1,80,4|8,1:3|0:3,0:0:0:0:
416,184,11361,2,0,L|500:184,1,80,0|8,1:3|0:3,0:0:0:0:
288,120,11589,2,0,L|376:120,1,80,0|8,1:3|0:3,0:0:0:0:
168,76,11817,2,0,L|112:76,2,40,0|0|8,1:3|0:3|0:3,0:0:0:0:
384,284,12046,6,0,L|292:284,1,80,0|8,1:3|0:3,0:0:0:0:
104,284,12274,2,0,L|104:196,1,80,0|8,1:3|0:3,0:0:0:0:
292,192,12502,2,0,L|208:192,1,80,0|8,1:3|0:3,0:0:0:0:
400,120,12730,2,0,L|448:120,2,40,0|0|8,1:3|0:3|0:3,0:0:0:0:
156,324,12958,6,0,L|64:324,1,80,12|8,1:3|0:3,0:0:0:0:
304,256,13186,2,0,L|404:256,1,80,8|8,0:3|0:3,0:0:0:0:
192,180,13414,1,8,0:3:0:0:
384,256,13529,1,8,0:3:0:0:
192,120,13643,1,8,0:3:0:0:
384,200,13757,1,8,0:3:0:0:
160,180,13871,6,0,L|72:180,1,80,8|0,0:3|0:3,0:0:0:0:
120,180,14042,1,0,0:0:0:0:
260,136,14099,2,0,L|260:36,1,80,8|0,0:3|0:3,0:0:0:0:
220,56,14270,1,0,0:0:0:0:
80,288,14327,2,0,L|196:288,1,80,8|0,0:3|0:3,0:0:0:0:
368,288,14555,2,0,L|480:288,1,80,8|0,0:3|0:3,0:0:0:0:
232,224,14783,6,0,L|328:224,1,80,0|0,1:3|1:3,0:0:0:0:
108,164,15003,1,12,0:3:0:0:
180,312,17871,6,0,L|356:312,1,160,0|0,0:3|0:3,0:0:0:0:
216,232,18202,2,0,L|152:232,1,40,0|0,1:3|1:3,0:0:0:0:
176,232,18312,1,0,1:3:0:0:
216,232,18367,1,0,1:3:0:0:
356,232,18422,1,4,0:3:0:0:
192,304,20738,5,0,1:3:0:0:
372,304,20849,2,0,L|432:304,2,40,8|0|0,0:3|0:3|0:3,0:0:0:0:
308,304,21069,1,0,0:3:0:0:
116,252,21180,2,0,L|64:252,2,40,8|0|0,0:3|0:3|0:3,0:0:0:0:
312,176,21400,1,8,0:3:0:0:
232,176,21510,1,0,1:3:0:0:
152,176,21620,1,8,0:3:0:0:
360,176,21731,2,0,P|408:148|336:92,1,160,4|0,0:3|0:3,0:0:0:0:
152,88,22062,1,4,0:3:0:0:
324,264,24268,5,8,0:3:0:0:
144,228,24378,2,0,L|144:136,1,80,0|0,0:3|0:3,0:0:0:0:
224,148,24600,2,0,L|272:148,1,40,0|0,0:3|0:0,0:0:0:0:
116,80,24711,2,0,L|24:80,1,80,8|0,0:3|0:3,0:0:0:0:
240,336,24933,2,0,L|240:240,1,80,0|0,0:3|0:3,0:0:0:0:
160,256,25155,1,8,0:3:0:0:
360,256,25266,2,0,P|408:220|328:168,1,160,4|8,0:3|0:3,0:0:0:0:
160,176,25597,5,4,0:3:0:0:
404,76,26038,1,8,0:3:0:0:
160,108,26479,1,8,0:3:0:0:
392,56,26921,1,8,0:3:0:0:
204,364,27031,6,0,P|156:324|228:264,1,160,0|0,1:3|1:3,0:0:0:0:
384,260,27362,2,0,L|296:260,1,80,8|0,0:3|1:3,0:0:0:0:
484,196,27582,2,0,L|484:84,1,80,8|0,0:3|0:3,0:0:0:0:
308,116,27803,1,8,0:3:0:0:
128,56,27913,6,0,L|312:56,1,160,4|0,1:3|1:3,0:0:0:0:
96,360,28244,2,0,P|44:332|104:280,1,160,8|0,0:3|0:3,0:0:0:0:
180,276,28575,1,0,1:3:0:0:
380,284,28685,2,0,L|468:284,1,80,8|0,0:3|0:3,0:0:0:0:
264,200,28906,6,0,L|84:200,1,160,2|0,0:3|0:3,0:0:0:0:
288,200,29248,2,0,P|336:156|260:112,1,160,2|0,0:3|0:3,0:0:0:0:
96,112,29590,2,0,L|96:212,1,80,2|0,0:3|0:3,0:0:0:0:
324,296,29818,6,0,L|436:296,1,80,10|2,0:3|0:3,0:0:0:0:
284,232,30046,2,0,L|368:232,1,80,2|2,0:3|0:3,0:0:0:0:
168,208,30274,2,0,L|56:208,1,80,2|2,0:3|0:3,0:0:0:0:
208,144,30502,2,0,L|124:144,1,80,2|2,0:3|0:3,0:0:0:0:
336,360,30731,6,0,P|384:332|324:276,1,160,6|0,0:3|0:3,0:0:0:0:
144,284,31073,2,0,P|96:256|168:196,1,160,2|0,0:3|0:3,0:0:0:0:
328,192,31415,2,0,L|328:96,1,80,2|0,0:3|0:3,0:0:0:0:
128,340,31643,6,0,L|296:340,1,160,10|0,0:3|0:3,0:0:0:0:
372,340,31985,1,0,0:3:0:0:
196,336,32099,2,0,L|196:248,1,80,2|0,0:3|0:3,0:0:0:0:
372,280,32328,2,0,L|372:196,1,80,2|0,0:3|0:3,0:0:0:0:
164,200,32556,6,0,P|116:160|180:92,1,160,6|0,0:3|0:3,0:0:0:0:
344,88,32898,2,0,L|164:88,1,160,2|0,0:3|0:3,0:0:0:0:
368,88,33240,2,0,L|452:88,1,80,2|0,0:3|0:3,0:0:0:0:
260,336,33468,5,8,0:3:0:0:
416,336,33696,2,0,L|416:248,1,80,2|0,0:3|0:3,0:0:0:0:
296,252,33925,1,2,0:3:0:0:
258,240,33982,1,2,0:3:0:0:
242,205,34039,1,2,0:3:0:0:
258,170,34096,1,2,0:3:0:0:
296,158,34153,1,2,0:3:0:0:
404,160,34267,1,2,0:3:0:0:
180,352,34381,6,0,L|344:352,1,160,6|0,0:3|0:3,0:0:0:0:
156,352,34723,2,0,P|112:320|176:256,1,160,2|0,0:3|0:3,0:0:0:0:
344,256,35065,2,0,L|344:176,1,80,2|0,0:3|0:3,0:0:0:0:
140,196,35293,6,0,P|96:168|160:96,1,160,10|2,0:3|0:3,0:0:0:0:
220,92,35636,1,0,0:3:0:0:
404,92,35750,2,0,L|404:184,1,80,2|0,0:3|0:0,0:0:0:0:
220,188,35978,2,0,L|124:188,1,80,2|0,0:3|0:3,0:0:0:0:
344,280,36206,6,0,L|512:280,1,160,6|0,0:3|0:3,0:0:0:0:
304,216,36548,2,0,L|140:216,1,160,2|0,0:3|0:3,0:0:0:0:
348,156,36890,2,0,L|348:64,1,80,2|0,0:3|0:3,0:0:0:0:
136,308,37118,6,0,L|36:308,1,80,10|2,0:3|0:3,0:0:0:0:
176,240,37347,2,0,L|88:240,1,80,2|2,0:3|0:3,0:0:0:0:
304,184,37575,2,0,L|388:184,1,80,2|2,0:3|0:3,0:0:0:0:
264,124,37803,2,0,L|360:124,1,80,2|2,0:3|0:3,0:0:0:0:
120,368,38031,6,0,P|76:332|136:268,1,160,6|0,0:3|0:3,0:0:0:0:
332,208,38373,2,0,L|152:208,1,160,2|0,0:3|0:3,0:0:0:0:
380,152,38715,2,0,L|380:64,1,80,2|0,0:3|0:3,0:0:0:0:
172,368,38944,6,0,P|132:344|192:264,1,160,10|2,0:3|0:3,0:0:0:0:
256,260,39286,1,0,0:3:0:0:
440,256,39400,2,0,L|440:156,1,80,2|0,0:3|0:3,0:0:0:0:
256,180,39628,2,0,L|156:180,1,80,2|0,0:3|0:3,0:0:0:0:
368,344,39856,6,0,L|196:344,1,160,6|0,0:3|0:3,0:0:0:0:
408,296,40198,2,0,P|448:272|392:192,1,160,2|0,0:3|0:3,0:0:0:0:
200,200,40540,2,0,L|200:96,1,80,2|0,0:3|0:3,0:0:0:0:
400,104,40769,5,10,0:3:0:0:
236,348,40997,2,0,L|236:256,1,80,2|0,0:3|0:3,0:0:0:0:
424,260,41225,2,0,L|340:260,1,80,2|2,0:3|0:3,0:0:0:0:
464,264,41453,2,0,L|464:172,1,80,2|0,0:3|0:3,0:0:0:0:
240,180,41681,6,0,L|52:180,1,160,6|0,0:3|0:3,0:0:0:0:
264,180,42023,2,0,L|428:180,1,160,2|0,0:3|0:3,0:0:0:0:
240,184,42366,2,0,L|144:184,1,80,2|0,0:3|0:3,0:0:0:0:
360,368,42594,6,0,P|408:336|336:280,1,160,10|0,0:3|0:3,0:0:0:0:
152,232,42936,2,0,L|320:232,1,160,10|0,0:3|0:3,0:0:0:0:
92,192,43278,2,0,L|92:104,1,80,10|0,0:3|0:3,0:0:0:0:
292,112,43506,6,0,L|384:112,3,80,8|8|8|8,0:3|0:3|0:3|0:3,0:0:0:0:
180,336,43963,1,2,0:2:0:0:
340,284,44191,2,0,L|340:184,1,80,2|2,0:2|0:2,0:0:0:0:
220,200,44419,5,2,0:2:0:0:
468,140,44647,2,0,L|468:52,1,80,8|8,0:3|0:3,0:0:0:0:
348,60,44875,2,0,L|448:60,1,80,2|2,0:2|0:2,0:0:0:0:
232,360,45103,6,0,L|232:192,1,160,2|2,0:2|0:2,0:0:0:0:
280,200,45388,1,2,0:2:0:0:
328,200,45445,1,2,0:2:0:0:
280,200,45502,1,2,0:2:0:0:
128,200,45559,2,0,L|36:200,1,80,8|8,0:3|0:3,0:0:0:0:
244,148,45788,2,0,L|244:56,1,80,2|2,0:2|0:2,0:0:0:0:
148,68,46016,2,0,L|148:168,1,80,2|2,0:2|0:2,0:0:0:0:
376,372,46244,6,0,P|440:352|356:256,1,240,4|0,0:3|0:2,0:0:0:0:
160,248,46700,2,0,P|216:200|376:272,1,240,4|0,0:3|0:2,0:0:0:0:
164,144,47156,6,0,L|80:144,3,80,8|8|8|8,0:3|0:3|0:3|0:3,0:0:0:0:
296,84,47613,1,0,0:2:0:0:
136,340,47841,2,0,L|252:340,1,80,2|2,0:2|0:2,0:0:0:0:
312,340,48069,5,2,0:2:0:0:
24,252,48297,2,0,L|24:168,1,80,8|8,0:3|0:3,0:0:0:0:
144,176,48525,2,0,L|208:176,1,40,2|2,0:2|0:2,0:0:0:0:
144,176,48639,2,0,L|92:176,1,40,2|2,0:2|0:2,0:0:0:0:
252,124,48753,2,0,L|352:124,1,80,2|2,0:2|0:2,0:0:0:0:
212,100,48982,6,0,L|212:16,1,80,2|2,0:2|0:2,0:0:0:0:
392,288,49210,2,0,L|296:288,1,80,8|8,0:3|0:3,0:0:0:0:
488,224,49438,2,0,L|488:124,1,80,2|2,0:2|0:2,0:0:0:0:
316,136,49666,1,2,0:2:0:0:
412,136,49780,1,2,0:2:0:0:
192,368,49894,6,0,P|132:348|212:240,1,240,4|0,0:3|0:2,0:0:0:0:
368,224,50350,2,0,P|432:212|356:120,1,240,4|0,0:3|0:2,0:0:0:0:
152,316,50807,6,0,L|152:272,3,40,0|0|0|0,0:3|0:3|0:3|0:3,0:0:0:0:
232,264,51092,6,0,L|232:224,2,40,0|0|0,0:3|0:3|0:3,0:0:0:0:
152,264,51320,6,0,L|152:216,6,40,0|0|0|0|0|0|0,0:3|0:3|0:3|0:3|0:3|0:3|0:3,0:0:0:0:
232,264,51776,6,0,L|232:216,6,40,0|0|0|0|0|0|0,0:3|0:3|0:3|0:3|0:3|0:3|0:3,0:0:0:0:
32,268,52575,6,0,L|32:200,8,40,0|0|0|0|0|0|0|0|0,0:3|0:3|0:3|0:3|0:3|0:3|0:3|0:3|0:3,0:0:0:0:
120,224,53202,6,0,L|120:176,1,40,0|0,0:3|0:3,0:0:0:0:
32,188,53373,6,0,L|32:140,4,40,0|0|0|0|0,0:3|0:3|0:3|0:3|0:3,0:0:0:0:
496,200,54001,5,2,0:2:0:0:
160,276,54457,6,0,L|84:276,2,53.3333333333333,4|0|0,1:3|0:3|0:3,0:0:0:0:
312,224,54685,2,0,L|376:224,2,58.6666684570313,0|0|0,1:3|0:3|0:3,0:0:0:0:
160,216,54913,1,0,1:3:0:0:
344,164,55141,2,0,L|344:60,1,88.000002685547,8|0,0:3|0:0,0:0:0:0:
140,296,55369,6,0,L|68:296,2,58.6666684570313,4|0|0,1:3|0:3|0:3,0:0:0:0:
292,248,55598,2,0,L|368:248,2,58.6666684570313,0|0|0,1:3|0:3|0:3,0:0:0:0:
140,208,55826,6,0,L|284:208,1,117.333336914063,8|0,1:3|0:3,0:0:0:0:
108,140,56054,2,0,L|32:140,1,58.6666684570313,8|8,0:3|0:3,0:0:0:0:
208,144,56206,2,0,L|288:144,1,58.6666684570313,8|8,0:3|0:3,0:0:0:0:
428,88,56358,2,0,L|356:88,1,58.6666684570313,8|8,0:3|0:3,0:0:0:0:
208,84,56510,5,0,1:3:0:0:
380,308,56738,2,0,L|380:212,1,88.000002685547,8|0,0:3|0:0,0:0:0:0:
248,224,56966,2,0,L|196:224,1,44.0000013427735,0|0,1:3|1:3,0:0:0:0:
160,224,57080,2,0,L|224:224,1,44.0000013427735,0|0,1:3|1:3,0:0:0:0:
368,168,57194,5,4,1:3:0:0:
308,168,57271,2,0,L|232:168,1,58.6666684570313,0|0,0:3|0:3,0:0:0:0:
404,96,57423,2,0,L|484:96,2,58.6666684570313,0|0|0,1:3|0:3|0:3,0:0:0:0:
248,104,57651,1,0,1:3:0:0:
420,260,57879,2,0,L|420:160,1,88.000002685547,8|0,0:3|0:0,0:0:0:0:
216,352,58107,5,4,1:3:0:0:
274,352,58183,1,0,0:3:0:0:
333,352,58259,1,0,0:3:0:0:
176,264,58335,2,0,L|112:264,2,58.6666684570313,0|0|0,1:3|0:3|0:3,0:0:0:0:
340,196,58563,5,0,1:3:0:0:
281,196,58639,1,0,0:3:0:0:
222,196,58715,1,0,0:3:0:0:
388,144,58791,1,0,1:3:0:0:
388,84,58867,1,0,0:3:0:0:
328,84,58944,1,0,0:3:0:0:
172,88,59020,6,0,L|84:88,2,58.6666684570313,0|0|0,1:3|0:3|0:3,0:0:0:0:
328,28,59248,1,0,1:3:0:0:
152,368,59476,2,0,L|152:256,1,88.000002685547,8|0,0:3|0:0,0:0:0:0:
284,280,59704,2,0,L|344:280,1,44.0000013427735,0|0,1:3|1:3,0:0:0:0:
284,280,59818,2,0,L|224:280,1,44.0000013427735,0|0,1:3|1:3,0:0:0:0:
80,224,59932,6,0,L|12:224,2,58.6666684570313,4|0|0,1:3|0:3|0:3,0:0:0:0:
236,220,60160,2,0,L|236:156,1,58.6666684570313,0|0,1:3|0:3,0:0:0:0:
176,164,60312,1,0,0:3:0:0:
340,112,60388,1,0,1:3:0:0:
160,132,60617,2,0,L|160:40,1,88.000002685547,8|0,0:3|0:0,0:0:0:0:
368,280,60845,6,0,L|448:280,2,58.6666684570313,4|0|0,1:3|0:3|0:3,0:0:0:0:
208,224,61073,1,0,1:3:0:0:
266,224,61149,1,0,0:3:0:0:
325,224,61225,1,0,0:3:0:0:
172,172,61301,2,0,L|52:172,1,117.333336914063,8|0,0:3|0:3,0:0:0:0:
220,112,61529,6,0,L|292:112,1,58.6666684570313,8|8,0:3|0:3,0:0:0:0:
120,368,61681,2,0,L|120:296,1,58.6666684570313,8|8,0:3|0:3,0:0:0:0:
280,304,61833,2,0,L|280:232,1,58.6666684570313,8|8,0:3|0:3,0:0:0:0:
120,232,61985,1,0,1:3:0:0:
288,156,62213,2,0,L|360:156,2,58.6666684570313,0|0|0,0:3|0:3|0:3,0:0:0:0:
136,160,62442,1,8,0:3:0:0:
316,80,62670,5,2,0:3:0:0:
136,292,62898,2,0,P|76:260|152:204,1,176.000005371094,8|0,0:3|1:3,0:0:0:0:
220,196,63240,1,0,1:3:0:0:
44,128,63354,2,0,L|44:176,1,44.0000013427735,4|0,0:3|0:3,0:0:0:0:
88,172,63468,1,0,0:3:0:0:
132,172,63525,1,0,0:3:0:0:
253,292,63582,5,4,0:3:0:0:
194,292,63658,1,0,0:3:0:0:
135,292,63734,1,0,0:3:0:0:
288,232,63810,1,0,1:3:0:0:
348,232,63886,2,0,L|348:152,1,58.6666684570313,0|0,0:3|0:3,0:0:0:0:
168,176,64039,2,0,L|308:176,1,117.333336914063,8|0,1:3|0:3,0:0:0:0:
112,112,64267,6,0,L|36:112,1,58.6666684570313,8|8,0:3|0:3,0:0:0:0:
208,56,64419,2,0,L|288:56,1,58.6666684570313,8|8,0:3|0:3,0:0:0:0:
424,56,64571,2,0,L|356:56,1,58.6666684570313,8|8,0:3|0:3,0:0:0:0:
208,348,64723,2,0,L|124:348,1,58.6666684570313,8|8,0:3|0:3,0:0:0:0:
300,296,64875,6,0,L|300:208,1,58.6666684570313,8|8,0:3|0:3,0:0:0:0:
148,180,65027,2,0,L|240:180,1,58.6666684570313,8|8,0:3|0:3,0:0:0:0:
392,176,65179,2,0,L|468:176,2,53.3333333333333,0|0|0,1:3|0:3|0:3,0:0:0:0:
216,360,65404,5,2,0:3:0:0:
256,192,65666,12,0,73657,0:0:0:0:
