osu file format v14

[General]
AudioFilename: audio.mp3
AudioLeadIn: 0
PreviewTime: 28921
Countdown: 0
SampleSet: Soft
StackLeniency: 0.7
Mode: 2
LetterboxInBreaks: 0
WidescreenStoryboard: 0

[Editor]
DistanceSpacing: 1
BeatDivisor: 4
GridSize: 4
TimelineZoom: 3.099999

[Metadata]
Title:Flowering Game Night
TitleUnicode:Flowering Game Night
Artist:BLANKFIELD
ArtistUnicode:BLANKFIELD
Creator:Kukkai
Version:Extra Stage
Source:東方花映塚 ~ Phantasmagoria of Flower View.
Tags:mpg mapper's guild rock chiptune Featured Artist FA 東方Project ZUN Team Shanghai Alice Touhou Izayoi Sakuya 十六夜 咲夜 PoFV TH09 TH 9 Flower Reflecting Mound Kaeizuka permutation suicide Instrumental Video Game Metal Comiket 79 C79 warinside
BeatmapID:3410550
BeatmapSetID:1669850

[Difficulty]
HPDrainRate:6
CircleSize:4.5
OverallDifficulty:9.8
ApproachRate:9.8
SliderMultiplier:1.7
SliderTickRate:2

[Events]
//Background and Video events
0,0,"aaaaaaaaaaaa.jpg",0,0
//Break Periods
2,15203,17391
2,18622,20258
2,22262,23788
//Storyboard Layer 0 (Background)
//Storyboard Layer 1 (Fail)
//Storyboard Layer 2 (Pass)
//Storyboard Layer 3 (Foreground)
//Storyboard Layer 4 (Overlay)
//Storyboard Sound Samples

[TimingPoints]
183,228.136882129278,4,3,1,70,1,0
7483,-100,4,3,1,70,0,1
14783,220.588235294118,4,3,1,70,1,0
14783,-100,4,3,1,70,0,0
24378,222.222222222222,4,3,1,70,1,0
24378,-100,4,3,1,70,0,0
24489,222.222222222222,4,3,1,70,1,0
24489,-100,4,3,1,70,0,0
25377,220.588235294118,4,3,1,70,1,0
25377,-100,4,3,1,70,0,0
28906,228.136882129278,4,3,1,70,1,0
28906,-100,4,3,1,70,0,0
28907,-100,4,3,1,70,0,0
44191,-100,4,2,1,70,0,0
44419,-100,4,3,1,70,0,0
45103,-100,4,2,1,70,0,0
45559,-100,4,3,1,70,0,0
45788,-100,4,2,1,70,0,0
46244,-100,4,3,1,70,0,0
47841,-100,4,2,1,70,0,0
48297,-100,4,3,1,70,0,0
48753,-100,4,2,1,70,0,0
49210,-100,4,3,1,70,0,0
49438,-100,4,2,1,70,0,0
49894,-100,4,3,1,70,0,0
50807,-100,4,2,1,40,0,0
54458,-90.9090909090909,4,3,1,70,0,0
65179,225.563909774436,4,3,1,70,1,0
65179,-100,4,3,1,70,0,0
65404,262.008733624454,4,3,1,40,1,0
65404,-100,4,2,1,40,0,0

[Colours]
Combo1 : 136,170,210
Combo2 : 95,86,143
Combo3 : 207,69,104

[HitObjects]
280,236,183,5,4,1:3:0:0:
324,236,240,1,0,1:3:0:0:
372,236,297,1,0,1:3:0:0:
324,236,354,1,0,1:3:0:0:
182,192,411,1,8,0:3:0:0:
96,192,525,1,0,0:3:0:0:
264,192,639,5,8,0:3:0:0:
264,148,696,1,8,0:3:0:0:
212,148,753,1,0,1:3:0:0:
212,104,810,1,0,1:3:0:0:
348,56,867,2,8,L|392:56,1,42.5,8|8,0:3|0:3,0:3:0:0:
220,52,981,2,8,L|168:52,1,42.5,8|8,0:3|0:3,0:3:0:0:
328,328,1095,5,4,1:3:0:0:
372,328,1152,1,0,1:3:0:0:
372,284,1209,1,0,1:3:0:0:
328,284,1266,1,0,1:3:0:0:
176,296,1323,2,8,L|124:296,1,42.5,8|8,0:3|0:3,0:3:0:0:
304,240,1437,2,8,L|352:240,1,42.5,8|8,0:3|0:3,0:3:0:0:
188,216,1551,5,0,1:3:0:0:
188,164,1608,1,0,1:3:0:0:
236,164,1665,1,0,1:3:0:0:
284,164,1722,1,0,1:3:0:0:
128,176,1779,2,0,L|128:76,1,85,8|0,0:3|0:3,0:3:0:0:
352,320,2008,5,4,1:3:0:0:
448,320,2122,1,0,1:3:0:0:
404,320,2179,1,0,1:3:0:0:
264,320,2236,2,0,L|180:320,1,85,8|0,0:3|0:3,0:3:0:0:
380,252,2464,6,8,L|380:188,1,42.5,8|8,0:3|0:3,0:3:0:0:
224,200,2578,2,8,L|164:200,1,42.5,8|8,0:3|0:3,0:3:0:0:
328,148,2692,1,0,1:3:0:0:
328,88,2749,1,0,1:3:0:0:
280,88,2806,1,0,1:3:0:0:
232,88,2863,1,0,1:3:0:0:
396,116,2920,6,0,L|448:116,2,42.5,0|0|0,1:3|1:3|1:3,1:3:0:0:
285,276,3148,2,0,L|233:276,2,42.5,0|0|0,1:3|1:3|1:3,1:3:0:0:
396,116,3376,1,0,1:3:0:0:
438,116,3433,1,0,1:3:0:0:
481,116,3490,1,0,1:3:0:0:
256,204,3605,2,0,L|164:204,1,85,8|0,0:3|0:3,0:3:0:0:
360,204,3833,6,8,L|448:204,1,85,12|8,0:3|0:3,0:3:0:0:
216,140,4061,2,8,L|124:140,1,85,8|8,0:3|0:3,0:3:0:0:
312,144,4289,1,8,0:3:0:0:
131,140,4403,1,8,0:3:0:0:
312,144,4517,1,8,0:3:0:0:
208,88,4631,1,8,0:3:0:0:
412,88,4745,6,8,L|500:88,1,85,8|8,0:3|0:3,0:3:0:0:
296,340,4973,1,8,0:3:0:0:
392,232,5087,1,0,1:3:0:0:
348,232,5144,1,0,1:3:0:0:
216,312,5202,5,0,1:3:0:0:
216,268,5259,1,0,1:3:0:0:
268,268,5316,1,0,1:3:0:0:
268,216,5373,1,0,1:3:0:0:
128,136,5430,1,8,0:3:0:0:
232,109,5544,1,0,0:3:0:0:
48,352,5658,6,0,L|48:240,1,85,4|8,1:3|0:3,0:3:0:0:
92,268,5829,1,8,0:3:0:0:
236,268,5886,1,8,0:3:0:0:
280,268,5943,1,8,0:3:0:0:
236,268,6000,1,8,0:3:0:0:
192,268,6057,1,8,0:3:0:0:
332,188,6114,5,8,0:3:0:0:
376,188,6171,1,8,0:3:0:0:
224,180,6228,1,8,0:3:0:0:
180,180,6285,1,8,0:3:0:0:
332,44,6342,1,8,0:3:0:0:
332,96,6399,1,8,0:3:0:0:
192,92,6456,1,8,0:3:0:0:
148,92,6513,1,8,0:3:0:0:
308,348,6570,5,0,1:3:0:0:
352,348,6627,1,0,1:3:0:0:
192,316,6684,1,8,3:3:0:0:
236,316,6741,1,0,1:3:0:0:
396,312,6798,2,8,L|488:312,1,85,8|8,0:3|0:3,0:3:0:0:
272,256,7027,1,0,0:3:0:0:
356,256,7141,1,8,0:3:0:0:
356,212,7198,1,8,0:3:0:0:
180,276,7255,2,8,L|154:275,1,42.5,8|8,0:3|0:3,0:3:0:0:
304,168,7369,2,8,L|339:168,1,42.5,8|8,0:3|0:3,0:3:0:0:
109,99,7483,6,0,L|23:99,1,85,4|8,1:3|0:3,0:3:0:0:
240,224,7711,1,0,1:3:0:0:
287,224,7768,1,0,0:3:0:0:
240,224,7825,1,8,0:3:0:0:
55,192,7939,1,0,1:3:0:0:
238,192,8053,1,8,0:3:0:0:
51,231,8167,2,0,L|49:138,1,84.9999999999993,0|8,1:3|0:3,0:3:0:0:
254,234,8395,6,0,L|183:234,1,85,0|8,1:3|0:3,0:3:0:0:
367,234,8624,2,0,L|437:234,1,85,0|8,1:3|0:3,0:3:0:0:
261,192,8852,1,0,1:3:0:0:
455,192,8966,1,8,0:3:0:0:
258,207,9080,1,0,1:3:0:0:
308,208,9137,1,0,0:3:0:0:
360,208,9194,1,8,0:3:0:0:
148,118,9308,6,8,L|74:118,1,85,4|8,1:3|0:3,0:3:0:0:
280,130,9536,1,0,1:3:0:0:
327,130,9593,1,0,0:3:0:0:
372,130,9650,1,8,0:3:0:0:
175,192,9764,1,0,1:3:0:0:
375,192,9878,1,8,0:3:0:0:
175,192,9992,1,0,1:3:0:0:
224,192,10049,1,0,0:3:0:0:
375,192,10106,1,8,0:3:0:0:
150,0,10221,6,0,L|78:0,1,85,0|8,1:3|0:3,0:3:0:0:
256,296,10449,1,0,1:3:0:0:
298,296,10506,1,0,0:3:0:0:
341,296,10563,1,8,0:3:0:0:
152,296,10677,2,8,L|152:180,1,85,0|8,1:3|0:3,0:3:0:0:
336,168,10905,1,0,1:3:0:0:
240,144,11019,1,8,0:3:0:0:
440,172,11133,6,0,L|452:72,1,85,4|8,1:3|0:3,0:3:0:0:
236,92,11361,2,0,L|144:92,1,85,0|8,1:3|0:3,0:3:0:0:
344,40,11589,1,0,1:3:0:0:
151,92,11703,1,8,0:3:0:0:
344,40,11817,1,0,1:3:0:0:
388,40,11875,1,0,0:3:0:0:
344,40,11932,1,8,0:3:0:0:
148,344,12046,6,8,L|36:344,1,85,0|8,1:3|0:3,0:3:0:0:
260,292,12274,2,8,L|360:292,1,85,0|8,1:3|0:3,0:3:0:0:
156,224,12502,1,0,1:3:0:0:
345,292,12616,1,8,0:3:0:0:
156,224,12730,1,0,1:3:0:0:
208,224,12787,1,0,0:3:0:0:
260,224,12844,1,8,0:3:0:0:
48,208,12958,6,8,L|48:112,1,85,12|8,1:3|0:3,0:3:0:0:
240,120,13186,1,8,0:3:0:0:
140,120,13300,1,8,0:3:0:0:
328,56,13414,1,8,0:3:0:0:
140,120,13529,2,0,L|216:120,1,42.5,8|0,0:3|0:3,0:3:0:0:
352,56,13643,1,8,0:3:0:0:
182,120,13757,1,8,0:3:0:0:
376,224,13871,5,8,0:3:0:0:
476,224,13985,1,0,0:3:0:0:
288,164,14099,1,8,0:3:0:0:
388,164,14213,1,0,0:3:0:0:
192,296,14327,5,8,0:3:0:0:
92,296,14441,1,0,0:3:0:0:
280,232,14555,1,8,0:3:0:0:
180,232,14669,1,0,0:3:0:0:
408,184,14783,6,0,L|408:88,1,85,0|0,1:3|1:3,1:3:0:0:
200,100,15003,1,12,0:3:0:0:
272,260,17871,6,0,L|96:260,1,170,0|0,0:3|0:3,0:3:0:0:
204,260,18202,1,0,1:3:0:0:
204,208,18257,1,0,1:3:0:0:
152,208,18312,1,0,1:3:0:0:
152,156,18367,1,0,1:3:0:0:
320,160,18422,1,4,0:3:0:0:
392,344,20738,5,0,1:3:0:0:
216,260,20849,1,8,0:3:0:0:
172,260,20904,1,0,0:3:0:0:
172,216,20959,1,0,0:3:0:0:
216,216,21014,1,0,0:3:0:0:
344,216,21069,1,0,0:3:0:0:
344,172,21124,1,0,0:3:0:0:
216,120,21180,1,8,0:3:0:0:
172,120,21235,1,0,0:3:0:0:
216,120,21290,1,0,0:3:0:0:
260,120,21345,1,0,0:3:0:0:
144,72,21400,6,0,L|56:72,2,85,8|0|8,0:3|1:3|0:3,0:3:0:0:
344,320,21731,2,0,L|144:320,1,170,4|0,0:3|0:3,0:3:0:0:
404,252,22062,1,4,0:3:0:0:
348,328,24268,5,8,0:3:0:0:
176,328,24378,2,0,L|84:328,2,85,0|0|0,0:3|0:3|0:3,0:3:0:0:
352,228,24711,6,0,L|440:228,2,85,8|0|0,0:3|0:3|0:3,0:3:0:0:
308,228,24989,1,0,0:3:0:0:
264,228,25044,1,0,0:3:0:0:
452,156,25155,1,8,0:3:0:0:
224,192,25266,6,0,P|172:164|240:100,1,170,4|8,0:3|0:3,0:3:0:0:
452,100,25597,1,4,0:3:0:0:
212,104,26038,1,8,0:3:0:0:
452,100,26479,1,8,0:3:0:0:
212,104,26921,1,8,0:3:0:0:
392,364,27031,6,0,P|436:328|376:248,1,170,0|0,1:3|1:3,1:3:0:0:
196,240,27362,2,0,L|300:240,1,85,8|0,0:3|1:3,0:3:0:0:
80,240,27582,2,0,L|80:140,1,85,8|0,0:3|0:3,1:3:0:0:
272,168,27803,1,8,0:3:0:0:
48,344,27913,6,0,L|224:344,1,170,4|0,1:3|1:3,1:3:0:0:
408,272,28244,2,0,L|208:272,1,170,8|0,0:3|0:3,0:3:0:0:
144,272,28575,1,0,1:3:0:0:
336,228,28685,2,0,L|448:228,1,85,8|0,0:3|0:3,0:3:0:0:
200,208,28906,6,0,P|144:184|216:132,1,170,2|0,0:3|0:3,0:3:0:0:
376,120,29248,2,0,L|176:120,1,170,2|0,0:3|0:3,0:3:0:0:
384,64,29590,2,0,L|488:64,1,85,2|0,0:3|0:3,0:3:0:0:
168,264,29818,6,2,L|56:264,1,85,10|2,0:3|0:3,0:3:0:0:
264,200,30046,2,2,L|168:200,1,85,2|2,0:3|0:3,0:3:0:0:
376,152,30274,2,2,L|480:152,1,85,2|2,0:3|0:3,0:3:0:0:
280,76,30502,2,2,L|376:76,1,85,2|2,0:3|0:3,0:3:0:0:
128,360,30731,6,0,L|312:360,1,170,6|0,0:3|0:3,0:3:0:0:
100,304,31073,2,0,P|52:276|124:208,1,170,2|0,0:3|0:3,0:3:0:0:
312,192,31415,2,0,L|212:192,1,85,2|0,0:3|0:3,0:3:0:0:
448,192,31643,6,0,L|448:84,1,85,10|0,0:3|0:3,0:3:0:0:
320,52,31871,2,2,L|424:52,1,85,0|0,0:3|0:3,0:3:0:0:
196,312,32099,2,0,L|92:312,1,85,2|0,0:3|0:3,0:3:0:0:
312,252,32328,2,0,L|312:144,1,85,2|0,0:3|0:3,0:3:0:0:
96,168,32556,6,0,L|296:168,1,170,6|0,0:3|0:3,0:3:0:0:
56,120,32898,2,0,L|244:120,1,170,2|0,0:3|0:3,0:3:0:0:
24,64,33240,2,0,L|128:64,1,85,2|0,0:3|0:3,0:3:0:0:
320,356,33468,5,8,0:3:0:0:
160,360,33696,2,0,L|160:276,1,85,2|0,0:3|0:3,0:3:0:0:
292,280,33925,1,2,0:3:0:0:
332,268,33982,1,2,0:3:0:0:
348,231,34039,1,2,0:3:0:0:
329,194,34096,1,2,0:3:0:0:
289,186,34153,1,2,0:3:0:0:
184,192,34267,1,2,0:3:0:0:
376,136,34381,6,0,L|192:136,1,170,6|0,0:3|0:3,0:3:0:0:
420,72,34723,2,0,L|240:72,1,170,2|0,0:3|0:3,0:3:0:0:
464,24,35065,2,0,L|348:24,1,85,2|0,0:3|0:3,0:3:0:0:
168,360,35293,6,0,P|116:328|188:268,1,170,10|2,0:3|0:3,0:3:0:0:
256,268,35636,1,0,0:3:0:0:
464,184,35750,2,2,L|284:184,1,170,2|2,0:3|0:3,0:3:0:0:
380,184,36092,1,0,0:3:0:0:
176,184,36206,6,0,B|92:184|92:184|92:92,1,170,6|0,0:3|0:3,0:3:0:0:
292,104,36548,2,0,B|376:104|376:104|376:196,1,170,2|0,0:3|0:3,0:3:0:0:
180,88,36890,2,0,L|84:88,1,85,2|0,0:3|0:3,0:3:0:0:
352,320,37118,6,2,L|244:320,1,85,10|2,0:3|0:3,0:3:0:0:
464,244,37347,2,2,L|376:244,1,85,2|2,0:3|0:3,0:3:0:0:
140,208,37575,2,2,L|240:208,1,85,2|2,0:3|0:3,0:3:0:0:
28,124,37803,2,2,L|128:124,1,85,2|2,0:3|0:3,0:3:0:0:
308,164,38031,6,0,L|120:164,1,170,6|0,0:3|0:3,0:3:0:0:
332,104,38373,2,0,L|508:104,1,170,2|0,0:3|0:3,0:3:0:0:
288,32,38715,2,0,L|172:32,1,85,2|0,0:3|0:3,0:3:0:0:
400,272,38944,6,0,L|300:272,1,85,10|0,0:3|0:3,0:3:0:0:
192,268,39172,2,0,L|192:172,1,85,2|0,0:3|0:3,0:3:0:0:
392,176,39400,2,0,L|392:88,1,85,2|0,0:3|0:3,0:3:0:0:
188,88,39628,2,0,L|84:88,1,85,2|0,0:3|0:3,0:3:0:0:
312,284,39856,6,0,L|120:284,1,170,6|0,0:3|0:3,0:3:0:0:
356,224,40198,2,0,L|180:224,1,170,2|0,0:3|0:3,0:3:0:0:
376,172,40540,2,0,L|376:60,1,85,2|0,0:3|0:3,0:3:0:0:
148,120,40769,5,10,0:3:0:0:
308,352,40997,2,0,L|308:264,1,85,2|0,0:3|0:3,0:3:0:0:
176,264,41225,2,2,L|264:264,1,85,2|2,0:3|0:3,0:3:0:0:
64,200,41453,2,0,L|160:200,1,85,2|0,0:3|0:3,0:3:0:0:
348,200,41681,6,6,L|160:200,1,170,6|0,0:3|0:3,0:3:0:0:
384,204,42023,2,0,P|436:176|360:132,1,170,2|0,0:3|0:3,0:3:0:0:
184,124,42366,2,0,L|280:124,1,85,2|0,0:3|0:3,0:3:0:0:
36,332,42594,6,0,L|216:332,1,170,10|0,0:3|0:3,0:3:0:0:
440,256,42936,2,0,L|240:256,1,170,10|0,0:3|0:3,0:3:0:0:
36,260,43278,2,0,L|136:260,1,85,10|0,0:3|0:3,0:3:0:0:
336,232,43506,5,8,0:3:0:0:
428,232,43620,1,8,0:3:0:0:
224,156,43734,1,8,0:3:0:0:
316,156,43848,1,8,0:3:0:0:
116,104,43963,2,2,L|116:152,3,42.5,2|2|2|2,0:2|0:2|0:2|0:2,0:2:0:0:
320,276,44191,6,2,L|320:168,1,85,2|2,0:2|0:2,0:2:0:0:
196,192,44419,2,0,B|196:104|196:104|252:104,1,127.5,2|0,0:2|0:2,0:2:0:0:
496,116,44647,5,8,0:3:0:0:
404,116,44761,1,8,0:3:0:0:
224,120,44875,2,2,L|176:120,1,42.5,2|2,0:2|0:2,0:2:0:0:
332,120,44989,2,2,L|276:120,1,42.5,2|2,0:2|0:2,0:2:0:0:
136,360,45103,6,0,L|136:212,1,127.5,2|0,0:2|0:2,0:2:0:0:
184,236,45331,1,2,0:2:0:0:
204,236,45360,1,2,0:2:0:0:
232,236,45388,1,2,0:2:0:0:
212,236,45417,1,2,0:2:0:0:
184,236,45445,1,2,0:2:0:0:
164,236,45474,1,2,0:2:0:0:
136,232,45502,1,2,0:2:0:0:
312,152,45559,5,8,0:3:0:0:
216,152,45674,1,8,0:3:0:0:
444,268,45788,1,2,0:2:0:0:
352,268,45902,1,2,0:2:0:0:
160,212,46016,1,2,0:2:0:0:
352,212,46130,1,2,0:2:0:0:
160,272,46244,6,0,P|92:256|180:164,1,255,4|0,0:3|0:2,0:2:0:0:
376,276,46700,2,0,P|444:260|356:168,1,255,4|0,0:3|0:2,0:2:0:0:
152,264,47156,5,8,0:3:0:0:
56,264,47271,1,8,0:3:0:0:
272,200,47385,1,8,0:3:0:0:
180,200,47499,1,8,0:3:0:0:
392,132,47613,2,0,L|392:80,2,42.5,0|0|0,0:2|0:2|0:2,0:2:0:0:
200,136,47841,6,2,L|200:36,1,85,2|2,0:2|0:2,0:2:0:0:
328,56,48069,1,2,0:2:0:0:
20,336,48297,5,8,0:3:0:0:
120,336,48411,1,8,0:3:0:0:
312,236,48525,2,2,L|248:236,1,42.5,2|2,0:2|0:2,0:2:0:0:
224,240,48639,2,2,L|224:184,1,42.5,2|2,0:2|0:2,0:2:0:0:
392,124,48753,6,2,L|452:124,2,42.5,2|2|2,0:2|0:2|0:2,0:2:0:0:
296,124,48982,1,2,0:2:0:0:
392,124,49096,1,2,0:2:0:0:
184,300,49210,5,8,0:3:0:0:
284,300,49324,1,8,0:3:0:0:
88,244,49438,2,2,L|88:144,1,85,2|2,0:2|0:2,0:2:0:0:
268,156,49666,1,2,0:2:0:0:
88,159,49780,1,2,0:2:0:0:
328,368,49894,6,0,P|396:360|492:204,1,255,4|0,0:3|0:2,0:2:0:0:
228,256,50350,2,0,P|148:232|248:152,1,255,4|0,0:3|0:2,0:2:0:0:
496,224,50807,6,0,L|496:172,3,42.5,0|0|0|0,0:3|0:3|0:3|0:3,0:3:0:0:
412,172,51092,6,0,L|412:124,2,42.5,0|0|0,0:3|0:3|0:3,0:3:0:0:
496,181,51320,6,0,L|496:125,6,42.5,0|0|0|0|0|0|0,0:3|0:3|0:3|0:3|0:3|0:3|0:3,0:3:0:0:
412,172,51776,6,0,L|412:116,6,42.5,0|0|0|0|0|0|0,0:3|0:3|0:3|0:3|0:3|0:3|0:3,0:3:0:0:
496,224,52575,6,0,L|496:168,8,42.5,0|0|0|0|0|0|0|0|0,0:3|0:3|0:3|0:3|0:3|0:3|0:3|0:3|0:3,0:3:0:0:
392,228,53202,6,0,L|392:172,1,42.5,0|0,0:3|0:3,0:3:0:0:
492,160,53373,6,0,L|492:104,4,42.5,0|0|0|0|0,0:3|0:3|0:3|0:3|0:3,0:3:0:0:
28,192,54001,5,2,0:2:0:0:
387,191,54457,6,0,L|479:191,2,56.6666666666667,4|0|0,1:3|0:3|0:3,0:3:0:0:
211,139,54685,1,0,1:3:0:0:
273,139,54761,1,0,0:3:0:0:
335,139,54837,1,0,0:3:0:0:
155,91,54913,1,0,1:3:0:0:
442,362,55141,2,8,L|442:214,1,124.666670471192,8|0,0:3|0:3,0:3:0:0:
269,242,55369,5,4,1:3:0:0:
331,241,55445,1,0,0:3:0:0:
393,240,55521,1,0,0:3:0:0:
214,184,55598,1,0,1:3:0:0:
151,184,55674,1,0,0:3:0:0:
214,184,55750,1,0,0:3:0:0:
373,171,55826,2,8,B|465:171|465:171|393:171,1,124.666670471192,8|0,1:3|0:3,0:3:0:0:
240,352,56054,6,8,L|156:352,1,62.3333352355958,8|8,0:3|0:3,0:3:0:0:
360,280,56206,2,8,L|428:280,1,62.3333352355958,8|8,0:3|0:3,0:3:0:0:
239,248,56358,2,8,L|155:248,1,62.3333352355958,8|8,0:3|0:3,0:3:0:0:
376,224,56510,1,0,1:3:0:0:
48,356,56738,2,0,L|48:216,1,124.666670471192,8|0,0:3|0:3,0:3:0:0:
208,176,56966,2,0,L|276:176,1,46.7500014266968,0|0,1:3|1:3,1:3:0:0:
88,104,57080,2,0,L|164:104,1,46.7500014266968,0|0,1:3|1:3,1:3:0:0:
296,88,57194,6,0,L|372:88,2,62.3333352355958,4|0|0,1:3|0:3|0:3,0:3:0:0:
104,40,57423,1,0,1:3:0:0:
166,40,57499,1,0,0:3:0:0:
228,40,57575,1,0,0:3:0:0:
44,208,57651,1,0,1:3:0:0:
368,200,57879,2,0,L|232:200,1,124.666670471192,8|0,0:3|0:3,0:3:0:0:
436,128,58107,5,4,1:3:0:0:
498,127,58183,1,0,0:3:0:0:
436,128,58259,1,0,0:3:0:0:
256,80,58335,1,0,1:3:0:0:
318,80,58411,1,0,0:3:0:0:
380,80,58487,1,0,0:3:0:0:
196,268,58563,5,0,1:3:0:0:
132,216,58639,1,0,0:3:0:0:
196,152,58715,1,0,0:3:0:0:
384,200,58791,1,0,1:3:0:0:
445,168,58867,1,0,0:3:0:0:
384,140,58943,1,0,0:3:0:0:
196,304,59020,5,0,1:3:0:0:
258,305,59096,1,0,0:3:0:0:
320,304,59172,1,0,0:3:0:0:
140,240,59248,1,0,1:3:0:0:
428,240,59476,5,8,0:3:0:0:
112,228,59704,1,0,1:3:0:0:
160,228,59761,1,0,1:3:0:0:
317,228,59818,1,0,1:3:0:0:
365,230,59875,1,0,1:3:0:0:
194,138,59932,5,4,1:3:0:0:
132,140,60008,1,0,0:3:0:0:
194,138,60084,1,0,0:3:0:0:
376,80,60160,1,0,1:3:0:0:
314,80,60236,1,0,0:3:0:0:
252,80,60312,1,0,0:3:0:0:
432,40,60388,1,0,1:3:0:0:
60,192,60617,2,0,P|28:132|88:104,1,124.666670471192,8|0,0:3|0:3,0:3:0:0:
240,308,60845,5,4,1:3:0:0:
178,308,60921,1,0,0:3:0:0:
116,308,60997,1,0,0:3:0:0:
288,244,61073,1,0,1:3:0:0:
351,244,61149,1,0,0:3:0:0:
351,244,61225,1,0,0:3:0:0:
168,176,61301,2,8,B|76:176|76:176|136:176,1,124.666670471192,8|0,0:3|0:3,0:3:0:0:
292,104,61529,6,8,L|368:104,1,62.3333352355958,8|8,0:3|0:3,0:3:0:0:
168,48,61681,2,8,L|96:48,1,62.3333352355958,8|8,0:3|0:3,0:3:0:0:
292,40,61833,2,8,L|364:40,1,62.3333352355958,8|8,0:3|0:3,0:3:0:0:
136,112,61985,1,0,1:3:0:0:
304,308,62213,5,0,0:3:0:0:
241,308,62290,1,0,0:3:0:0:
179,307,62366,1,0,0:3:0:0:
364,236,62442,1,8,0:3:0:0:
172,168,62670,5,2,0:3:0:0:
484,248,62898,2,0,L|484:116,1,124.666670471192,8|0,0:3|0:3,0:3:0:0:
336,104,63126,2,0,L|448:104,1,93.5000028533936,0|0,1:3|1:3,1:3:0:0:
208,336,63354,1,4,0:3:0:0:
160,336,63411,1,0,0:3:0:0:
292,284,63468,1,0,0:3:0:0:
340,284,63525,1,0,0:3:0:0:
160,208,63582,5,4,0:3:0:0:
97,208,63658,1,0,0:3:0:0:
160,208,63734,1,0,0:3:0:0:
344,168,63810,1,0,1:3:0:0:
406,167,63886,1,0,0:3:0:0:
344,168,63963,1,0,0:3:0:0:
160,160,64039,2,0,L|304:160,1,124.666670471192,8|0,1:3|0:3,0:3:0:0:
492,248,64267,6,8,L|396:248,1,62.3333352355958,8|8,0:3|0:3,0:3:0:0:
248,248,64419,2,8,L|328:248,1,62.3333352355958,8|8,0:3|0:3,0:3:0:0:
128,248,64571,2,8,L|60:248,1,62.3333352355958,8|8,0:3|0:3,0:3:0:0:
268,208,64723,2,8,L|352:208,1,62.3333352355958,8|8,0:3|0:3,0:3:0:0:
148,208,64875,6,8,L|68:208,1,62.3333352355958,8|8,0:3|0:3,0:3:0:0:
296,164,65027,2,8,L|372:164,1,62.3333352355958,8|8,0:3|0:3,0:3:0:0:
172,164,65179,2,0,L|100:164,2,56.6666666666667,0|0|0,1:3|0:3|0:3,0:3:0:0:
404,336,65404,5,2,0:3:0:0:
256,192,65666,12,0,73657,0:3:0:0:
