osu file format v14

[General]
AudioFilename: audio.mp3
AudioLeadIn: 0
PreviewTime: 28921
Countdown: 0
SampleSet: Drum
StackLeniency: 0.7
Mode: 2
LetterboxInBreaks: 0
WidescreenStoryboard: 1

[Editor]
DistanceSpacing: 1
BeatDivisor: 2
GridSize: 4
TimelineZoom: 2.3

[Metadata]
Title:Flowering Game Night
TitleUnicode:Flowering Game Night
Artist:BLANKFIELD
ArtistUnicode:BLANKFIELD
Creator:Kukkai
Version:Cup
Source:東方花映塚 ~ Phantasmagoria of Flower View.
Tags:mpg mapper's guild rock chiptune Featured Artist FA 東方Project ZUN Team Shanghai Alice Touhou Izayoi Sakuya 十六夜 咲夜 PoFV TH09 TH 9 Flower Reflecting Mound Kaeizuka permutation suicide Instrumental Video Game Metal Comiket 79 C79 warinside
BeatmapID:4468913
BeatmapSetID:1669850

[Difficulty]
HPDrainRate:2
CircleSize:2.5
OverallDifficulty:6
ApproachRate:6
SliderMultiplier:0.8
SliderTickRate:0.5

[Events]
//Background and Video events
0,0,"aaaaaaaaaaaa.jpg",0,0
//Break Periods
2,15203,16821
2,18622,19799
2,22262,23328
//Storyboard Layer 0 (Background)
//Storyboard Layer 1 (Fail)
//Storyboard Layer 2 (Pass)
//Storyboard Layer 3 (Foreground)
//Storyboard Layer 4 (Overlay)
//Storyboard Sound Samples

[TimingPoints]
183,228.136882129278,4,3,1,70,1,0
7483,-100,4,3,1,70,0,1
14783,220.588235294118,4,3,1,70,1,0
14783,-100,4,3,1,70,0,0
14784,-100,4,3,1,70,0,0
24378,222.222222222222,4,3,1,70,1,0
24378,-100,4,3,1,70,0,0
24489,222.222222222222,4,3,1,70,1,0
24489,-100,4,3,1,70,0,0
25377,220.588235294118,4,3,1,70,1,0
25377,-100,4,3,1,70,0,0
28906,228.136882129278,4,3,1,70,1,0
28906,-100,4,3,1,70,0,0
28907,-100,4,3,1,70,0,0
44191,-100,4,2,1,70,0,0
44419,-100,4,3,1,70,0,0
45103,-100,4,2,1,70,0,0
45559,-100,4,3,1,70,0,0
45788,-100,4,2,1,70,0,0
46244,-100,4,3,1,70,0,0
47841,-100,4,2,1,70,0,0
48297,-100,4,3,1,70,0,0
48753,-100,4,2,1,70,0,0
49210,-100,4,3,1,70,0,0
49438,-100,4,2,1,70,0,0
49894,-100,4,3,1,70,0,0
50807,-100,4,2,1,40,0,0
54458,-100,4,3,1,70,0,0
65179,225.563909774436,4,3,1,70,1,0
65179,-100,4,3,1,70,0,0
65404,262.008733624454,4,3,1,40,1,0
65404,-100,4,3,1,40,0,0

[Colours]
Combo1 : 136,170,210
Combo2 : 95,86,143
Combo3 : 207,69,104

[HitObjects]
176,328,183,6,0,P|132:280|204:212,1,160,4|8,1:3|0:3,0:0:0:0:
260,216,867,1,8,0:3:0:0:
340,216,1095,2,0,L|340:48,1,160,4|0,1:3|1:3,0:0:0:0:
152,288,2008,6,0,L|312:288,1,160,4|8,1:3|0:3,0:0:0:0:
232,284,2692,1,0,1:3:0:0:
152,284,2920,2,0,L|68:284,2,80,0|0|0,1:3|1:3|1:3,0:0:0:0:
348,280,3833,6,0,P|376:200|332:140,1,160,12|8,0:3|0:3,0:0:0:0:
296,140,4403,1,8,0:3:0:0:
256,140,4517,1,8,0:3:0:0:
176,140,4745,2,0,L|176:236,1,80,8|8,0:3|0:3,0:0:0:0:
256,220,5202,1,0,1:3:0:0:
440,120,5658,6,0,L|272:120,1,160,4|8,1:3|0:3,0:0:0:0:
240,120,6228,1,8,0:3:0:0:
200,120,6342,1,8,0:3:0:0:
280,124,6570,2,0,L|376:124,2,80,0|8|0,1:3|0:3|0:3,0:0:0:0:
80,360,7483,6,0,P|60:316|108:204,1,160,4|0,1:3|1:3,0:0:0:0:
172,216,8167,1,0,1:3:0:0:
252,216,8395,1,0,1:3:0:0:
172,216,8623,1,0,1:3:0:0:
92,216,8851,1,0,1:3:0:0:
288,312,9308,6,0,P|320:256|272:168,1,160,4|0,1:3|1:3,0:0:0:0:
204,176,9992,1,0,1:3:0:0:
124,176,10221,2,0,L|40:176,2,80,0|0|0,1:3|1:3|1:3,0:0:0:0:
316,368,11133,6,0,L|512:368,1,160,4|0,1:3|1:3,0:0:0:0:
396,360,11817,1,0,1:3:0:0:
316,360,12046,1,0,1:3:0:0:
396,360,12274,1,0,1:3:0:0:
476,360,12502,1,0,1:3:0:0:
280,260,12958,6,0,L|96:260,1,160,12|8,1:3|0:3,0:0:0:0:
160,260,13529,1,8,0:3:0:0:
200,256,13643,1,8,0:3:0:0:
280,256,13871,1,8,0:3:0:0:
360,256,14099,1,8,0:3:0:0:
360,176,14327,1,8,0:3:0:0:
280,172,14555,1,8,0:3:0:0:
88,176,15003,1,12,0:3:0:0:
376,260,17871,6,0,L|140:260,1,200,0|4,0:3|0:3,0:0:0:0:
320,236,20849,6,0,L|468:236,2,120,8|8|0,0:3|0:3|1:3,0:0:0:0:
240,236,21731,1,4,0:3:0:0:
360,236,22062,1,4,0:3:0:0:
168,236,24378,6,0,L|20:236,2,120,0|8|0,0:3|0:3|0:3,0:0:0:0:
248,236,25266,1,4,0:3:0:0:
128,236,25597,6,0,L|128:48,1,160,4|8,0:3|0:3,0:0:0:0:
288,80,26479,2,0,L|288:264,1,160,8|8,0:3|0:3,0:0:0:0:
116,240,27362,5,8,0:3:0:0:
76,240,27472,1,0,1:3:0:0:
36,240,27582,1,8,0:3:0:0:
116,240,27803,1,8,0:3:0:0:
276,240,28244,6,0,L|276:60,1,160,8|8,0:3|0:3,0:0:0:0:
176,80,28906,6,0,L|48:80,2,120,2|2|2,0:3|0:3|0:3,0:0:0:0:
256,80,29818,6,0,L|72:80,1,160,10|2,0:3|0:3,0:0:0:0:
280,152,30731,6,0,L|432:152,2,120,6|2|2,0:3|0:3|0:3,0:0:0:0:
200,156,31643,6,0,L|104:156,2,80,10|0|2,0:3|0:3|0:3,0:0:0:0:
280,160,32328,1,2,0:3:0:0:
384,336,32556,6,0,L|384:204,1,120,6|2,0:3|0:3,0:0:0:0:
264,212,33240,1,2,0:3:0:0:
184,212,33468,6,0,L|368:212,1,160,8|2,0:3|0:3,0:0:0:0:
152,224,34381,6,0,P|128:180|176:112,1,120,6|2,0:3|0:3,0:0:0:0:
276,132,35065,1,2,0:3:0:0:
356,132,35293,6,0,L|356:232,1,80,10|2,0:3|0:3,0:0:0:0:
276,212,35750,2,0,L|184:212,1,80,2|2,0:3|0:3,0:0:0:0:
288,136,36206,6,0,L|440:136,2,120,6|2|2,0:3|0:3|0:3,0:0:0:0:
208,140,37118,6,0,L|400:140,1,160,10|2,0:3|0:3,0:0:0:0:
184,156,38031,6,0,L|48:156,2,120,6|2|2,0:3|0:3|0:3,0:0:0:0:
264,160,38944,6,0,L|360:160,1,80,10|2,0:3|0:3,0:0:0:0:
424,160,39400,2,0,L|328:160,1,80,2|2,0:3|0:3,0:0:0:0:
248,360,39856,6,0,P|228:320|268:248,1,120,6|2,0:3|0:3,0:0:0:0:
376,244,40540,1,2,0:3:0:0:
456,240,40769,6,0,L|456:64,1,160,10|2,0:3|0:3,0:0:0:0:
296,216,41681,6,0,L|156:216,1,120,6|2,0:3|0:3,0:0:0:0:
296,216,42366,1,2,0:3:0:0:
376,216,42594,6,0,L|500:216,2,120,10|10|10,0:3|0:3|0:3,0:0:0:0:
280,320,43506,6,0,L|108:320,1,160,8|2,0:3|0:2,0:0:0:0:
360,80,44647,6,0,L|360:208,1,120,8|2,0:3|0:2,0:0:0:0:
160,204,45559,2,0,L|92:204,1,40,8|8,0:3|0:3,0:0:0:0:
340,180,46244,6,0,L|340:348,1,160,4|4,0:3|0:3,0:0:0:0:
148,348,47156,6,0,L|320:348,1,160,8|0,0:3|0:2,0:0:0:0:
76,272,48297,6,0,L|76:148,1,120,8|2,0:3|0:2,0:0:0:0:
292,188,49210,2,0,L|352:188,1,40,8|8,0:3|0:3,0:0:0:0:
96,352,49894,6,0,L|96:164,1,160,4|4,0:3|0:3,0:0:0:0:
292,188,50807,1,0,0:3:0:0:
120,264,54457,6,0,L|304:264,1,160,4|0,1:3|1:3,0:0:0:0:
360,268,55141,1,8,0:3:0:0:
440,268,55369,6,0,P|468:220|424:112,1,160,4|8,1:3|1:3,0:0:0:0:
360,128,56054,1,8,0:3:0:0:
320,128,56168,1,0,0:0:0:0:
280,128,56282,1,8,0:3:0:0:
200,128,56510,1,0,1:3:0:0:
200,48,56738,1,8,0:3:0:0:
392,368,57194,6,0,P|428:328|364:240,1,160,4|0,1:3|1:3,0:0:0:0:
304,240,57879,1,8,0:3:0:0:
224,240,58107,6,0,L|136:240,2,80,4|0|0,1:3|1:3|1:3,0:0:0:0:
304,240,58791,2,0,L|304:128,1,80,0|0,1:3|1:3,0:0:0:0:
224,164,59248,1,0,1:3:0:0:
144,164,59476,1,8,0:3:0:0:
340,344,59932,6,0,P|368:296|312:204,1,160,4|0,1:3|1:3,0:0:0:0:
244,216,60617,1,8,0:3:0:0:
164,212,60845,6,0,L|344:212,1,160,4|8,1:3|0:3,0:0:0:0:
244,216,61529,2,0,L|180:216,2,40,8|0|8,0:3|0:0|0:3,0:0:0:0:
324,216,61985,1,0,1:3:0:0:
124,180,62442,6,0,L|124:88,1,80,8|2,0:3|0:3,0:0:0:0:
204,108,62898,1,8,0:3:0:0:
284,104,63126,1,0,1:3:0:0:
92,364,63582,6,0,P|56:320|116:236,1,160,4|8,0:3|1:3,0:0:0:0:
180,236,64267,1,8,0:3:0:0:
260,236,64495,6,0,L|320:236,2,40,8|0|8,0:3|0:0|0:3,0:0:0:0:
180,236,64951,2,0,L|120:236,2,40,8|0|0,0:3|0:0|1:3,0:0:0:0:
280,168,65404,5,2,0:3:0:0:
256,192,65928,12,2,73657,0:3:0:0:
