osu file format v14

[General]
AudioFilename: audio.mp3
AudioLeadIn: 0
PreviewTime: 40331
Countdown: 0
SampleSet: Normal
StackLeniency: 0.7
Mode: 1
LetterboxInBreaks: 0
WidescreenStoryboard: 0

[Editor]
Bookmarks: 13472,25472,52472,70472,76472,82472,100472,124472,130472,142472,154472,160472,166472,172472,178472,196472,214472,220472,226472,244472,268472,280472,286472,293972,299972,305972,311972,317972,323972,331472
DistanceSpacing: 0.4
BeatDivisor: 4
GridSize: 32
TimelineZoom: 1.5

[Metadata]
Title:Flags on the Moon
TitleUnicode:Flags on the Moon
Artist:BLANKFIELD
ArtistUnicode:BLANKFIELD
Creator:BlackBN
Version:Tsuki
Source:東方紺珠伝 ~ Legacy of Lunatic Kingdom.
Tags:BlackBq featured artist fa mappers' guild mpg mg Clownpiece theme 星条旗のピエロ seijouki no piero The Star-Spangled Pierrot The Pierrot of the Star-Spangled Banner 上海アリス幻樂団 shanhai arisu gengakudan Team Shanghai Alice ZUN touhou 東方project Minstrel vs BLANKFIELD 2 video game videogame metal rock instrumental
BeatmapID:3281904
BeatmapSetID:1607234

[Difficulty]
HPDrainRate:4.4
CircleSize:2
OverallDifficulty:6.6
ApproachRate:10
SliderMultiplier:1.4
SliderTickRate:1

[Events]
//Background and Video events
0,0,"bg.jpg",0,25
//Break Periods
//Storyboard Layer 0 (Background)
//Storyboard Layer 1 (Fail)
//Storyboard Layer 2 (Pass)
//Storyboard Layer 3 (Foreground)
//Storyboard Layer 4 (Overlay)
//Storyboard Sound Samples

[TimingPoints]
1472,375,4,1,0,60,1,0
1472,-125,4,1,0,60,0,0
10284,-125,4,1,0,80,0,0
10378,-124.085318387046,4,1,0,80,0,0
10472,-123.183925811437,4,1,0,80,0,0
10753,-120.565766583466,4,1,0,80,0,0
10847,-119.71460758543,4,1,0,80,0,0
10940,-118.884248210024,4,1,0,80,0,0
11034,-118.056584209747,4,1,0,80,0,0
11128,-117.24036481318,4,1,0,80,0,0
11222,-116.435354273192,4,1,0,80,0,0
11315,-115.649713415077,4,1,0,80,0,0
11409,-114.866325574692,4,1,0,80,0,0
11503,-114.093479350082,4,1,0,80,0,0
11597,-113.330963384287,4,1,0,80,0,0
11784,-111.843951726073,4,1,0,80,0,0
11878,-111.111111111111,4,1,0,80,0,0
11972,-110.387811634349,4,1,0,80,0,0
12065,-109.681414711347,4,1,0,80,0,0
12159,-108.976550215355,4,1,0,80,0,0
12253,-108.280687453298,4,1,0,80,0,0
12347,-107.593655079312,4,1,0,80,0,0
12440,-106.92245774081,4,1,0,80,0,0
12534,-106.252499666711,4,1,0,80,0,0
12628,-105.59088500265,4,1,0,80,0,0
12722,-104.93745885451,4,1,0,80,0,0
12909,-103.661312349613,4,1,0,80,0,0
13097,-102.409251525859,4,1,0,80,0,0
13284,-101.193499238192,4,1,0,80,0,0
13378,-100.593209642812,4,1,0,80,0,0
13472,-100,4,1,0,80,0,0
37378,-111.111111111111,4,1,0,70,0,0
40378,-90.9090909090909,4,1,0,90,0,0
40472,375,4,1,0,90,1,1
40472,-90.9090909090909,4,1,0,90,0,1
48722,-90.9090909090909,4,1,0,90,0,1
48815,-89.8957209636821,4,1,0,90,0,1
48909,-88.8941566907669,4,1,0,90,0,1
49003,-87.9146641659829,4,1,0,90,0,1
49097,-86.9565217391304,4,1,0,90,0,1
49190,-86.0289057123193,4,1,0,90,0,1
49284,-85.1112119836586,4,1,0,90,0,1
49378,-84.2128901863912,4,1,0,90,0,1
49472,-83.3333333333333,4,1,0,90,0,1
51722,-83.3333333333333,4,1,0,90,0,1
51909,-85.1015545217293,4,1,0,90,0,1
52097,-86.9565217391304,4,1,0,90,0,1
52284,-88.883621711306,4,1,0,90,0,1
52472,-90.9090909090909,4,1,0,90,0,1
60722,-90.9090909090909,4,1,0,90,0,1
60815,-89.8957209636821,4,1,0,90,0,1
60909,-88.8941566907669,4,1,0,90,0,1
61003,-87.9146641659829,4,1,0,90,0,1
61097,-86.9565217391304,4,1,0,90,0,1
61190,-86.0289057123193,4,1,0,90,0,1
61284,-85.1112119836586,4,1,0,90,0,1
61378,-84.2128901863912,4,1,0,90,0,1
61472,-83.3333333333333,4,1,0,90,0,1
64097,-83.3333333333333,4,1,0,90,0,1
64190,-84.0279645065878,4,1,0,90,0,1
64284,-84.7419325680195,4,1,0,90,0,1
64378,-85.4681374783481,4,1,0,90,0,1
64472,-86.2068965517241,4,1,0,90,0,0
64565,-86.9504730105732,4,1,0,90,0,0
64659,-87.7151946107784,4,1,0,90,0,0
64940,-90.0835975785529,4,1,0,90,0,0
65128,-91.7408748409825,4,1,0,90,0,0
65222,-92.5925925925926,4,1,0,90,0,0
65315,-93.450956937799,4,1,0,90,0,0
65409,-94.3348762326424,4,1,0,90,0,0
65597,-96.1538461538461,4,1,0,90,0,0
65690,-97.0798384591488,4,1,0,90,0,0
65972,-100,4,1,0,90,0,0
67378,-100,4,1,0,90,0,0
67472,-99.3960421485479,4,1,0,90,0,0
67659,-98.215986286585,4,1,0,90,0,0
67753,-97.6333228147681,4,1,0,90,0,0
67847,-97.0575318401405,4,1,0,90,0,0
67940,-96.4945109780439,4,1,0,90,0,0
68128,-95.3760789149198,4,1,0,90,0,0
68222,-94.8265293612848,4,1,0,90,0,0
68315,-94.2890229779972,4,1,0,90,0,0
68409,-93.7518938246167,4,1,0,90,0,0
68597,-92.6957876445563,4,1,0,90,0,0
68690,-92.1820998689072,4,1,0,90,0,0
68784,-91.6686418582603,4,1,0,90,0,0
68878,-91.1608721272835,4,1,0,90,0,0
68972,-90.6586966713549,4,1,0,90,0,0
69159,-89.6759608138659,4,1,0,90,0,0
69253,-89.1899682905736,4,1,0,90,0,0
69347,-88.709214977923,4,1,0,90,0,0
69440,-88.238649326945,4,1,0,90,0,0
69534,-87.7680698967435,4,1,0,90,0,0
69628,-87.3024830699774,4,1,0,90,0,0
69722,-86.841809812507,4,1,0,90,0,0
69815,-86.390796895069,4,1,0,90,0,0
69909,-85.9396700183323,4,1,0,90,0,0
70003,-85.4932301740812,4,1,0,90,0,0
70097,-85.0514046951454,4,1,0,90,0,0
70190,-84.6187506837326,4,1,0,90,0,0
70284,-84.1858946451894,4,1,0,90,0,0
70378,-83.7574445046021,4,1,0,90,0,0
70472,-83.3333333333333,4,1,0,90,0,0
76472,-100,4,1,0,90,0,0
77972,-100,4,1,0,90,0,0
78159,-98.3649558450643,4,1,0,90,0,0
78206,-97.9623824451411,4,1,0,90,0,0
78253,-97.5630907987165,4,1,0,90,0,0
78300,-97.1670409397132,4,1,0,90,0,0
78347,-96.7741935483871,4,1,0,90,0,0
78440,-96.0061443932412,4,1,0,90,0,0
78534,-95.2421266508635,4,1,0,90,0,0
78628,-94.4901730220057,4,1,0,90,0,0
78722,-93.75,4,1,0,90,0,0
78847,-92.7835051546392,4,1,0,90,0,0
78972,-91.8367346938775,4,1,0,90,0,0
79097,-90.9090909090909,4,1,0,90,0,0
79472,-100,4,1,0,90,0,0
80597,-100,4,1,0,90,0,0
80690,-99.0177439797212,4,1,0,90,0,0
80784,-98.0443421878268,4,1,0,90,0,0
80878,-97.0898922949461,4,1,0,90,0,0
80972,-96.1538461538461,4,1,0,90,0,0
81159,-94.3443695280266,4,1,0,90,0,0
81253,-93.460273153225,4,1,0,90,0,0
81347,-92.5925925925926,4,1,0,90,0,0
81440,-91.7498532002349,4,1,0,90,0,0
81534,-90.9134988363072,4,1,0,90,0,0
81628,-90.0922544685758,4,1,0,90,0,0
81722,-89.2857142857143,4,1,0,90,0,0
81815,-88.5018408382894,4,1,0,90,0,0
81909,-87.7234022644334,4,1,0,90,0,0
82003,-86.958538169001,4,1,0,90,0,0
82097,-86.2068965517241,4,1,0,90,0,0
82190,-85.4759299781182,4,1,0,90,0,0
82284,-84.7495932019526,4,1,0,90,0,0
82378,-84.0354965937612,4,1,0,90,0,0
82472,-83.3333333333333,4,1,0,90,0,0
87722,-83.3333333333333,4,1,0,90,0,0
88472,-90.9090909090909,4,1,0,90,0,1
96722,-90.9090909090909,4,1,0,90,0,1
96815,-89.8957209636821,4,1,0,90,0,1
96909,-88.8941566907669,4,1,0,90,0,1
97003,-87.9146641659829,4,1,0,90,0,1
97097,-86.9565217391304,4,1,0,90,0,1
97190,-86.0289057123193,4,1,0,90,0,1
97284,-85.1112119836586,4,1,0,90,0,1
97378,-84.2128901863912,4,1,0,90,0,1
97472,-83.3333333333333,4,1,0,90,0,1
99722,-83.3333333333333,4,1,0,90,0,1
99909,-85.1015545217293,4,1,0,90,0,1
100097,-86.9565217391304,4,1,0,90,0,1
100284,-88.883621711306,4,1,0,90,0,1
100472,-90.9090909090909,4,1,0,90,0,1
108722,-90.9090909090909,4,1,0,90,0,1
108815,-89.8957209636821,4,1,0,90,0,1
108909,-88.8941566907669,4,1,0,90,0,1
109003,-87.9146641659829,4,1,0,90,0,1
109097,-86.9565217391304,4,1,0,90,0,1
109190,-86.0289057123193,4,1,0,90,0,1
109284,-85.1112119836586,4,1,0,90,0,1
109378,-84.2128901863912,4,1,0,90,0,1
109472,-83.3333333333333,4,1,0,90,0,1
111722,-83.3333333333333,4,1,0,90,0,1
111815,-83.9113895726113,4,1,0,90,0,1
111909,-84.503868399309,4,1,0,90,0,1
112003,-85.1047734321809,4,1,0,90,0,1
112097,-85.7142857142857,4,1,0,90,0,1
112190,-86.3259668508287,4,1,0,90,0,1
112284,-86.9531612304838,4,1,0,90,0,1
112378,-87.5895359701028,4,1,0,90,0,1
112472,-88.2352941176471,4,1,0,90,0,0
112565,-88.883621711306,4,1,0,90,0,0
112659,-89.5486746796147,4,1,0,90,0,0
112940,-91.5974596971177,4,1,0,90,0,0
113128,-93.0213328923433,4,1,0,90,0,0
113222,-93.75,4,1,0,90,0,0
113315,-94.4822373393802,4,1,0,90,0,0
113409,-95.2340641665961,4,1,0,90,0,0
113597,-96.7741935483871,4,1,0,90,0,0
113690,-97.5546305931322,4,1,0,90,0,0
113784,-98.3563560062948,4,1,0,90,0,0
113878,-99.1713681241185,4,1,0,90,0,0
113972,-100,4,1,0,90,0,0
115472,-90.9090909090909,4,1,0,90,0,0
117722,-90.9090909090909,4,1,0,90,0,0
117815,-91.5974596971177,4,1,0,90,0,0
117909,-92.3039054808008,4,1,0,90,0,0
118003,-93.0213328923433,4,1,0,90,0,0
118097,-93.75,4,1,0,90,0,0
118190,-94.4822373393802,4,1,0,90,0,0
118284,-95.2340641665961,4,1,0,90,0,0
118378,-95.9979520436897,4,1,0,90,0,0
118472,-96.7741935483871,4,1,0,90,0,0
118565,-97.5546305931321,4,1,0,90,0,0
118659,-98.3563560062948,4,1,0,90,0,0
118847,-100,4,1,0,90,0,0
121472,-90.9090909090909,4,1,0,90,0,0
154472,-90.9090909090909,4,1,0,90,0,0
154597,-90.6801007556675,4,1,0,90,0,0
154722,-90.4522613065327,4,1,0,90,0,0
154847,-90.2255639097744,4,1,0,90,0,0
154972,-90,4,1,0,90,0,0
155097,-89.7755610972569,4,1,0,90,0,0
155222,-89.5522388059701,4,1,0,90,0,0
155347,-89.3300248138958,4,1,0,90,0,0
155472,-89.1089108910891,4,1,0,90,0,0
155597,-88.8888888888889,4,1,0,90,0,0
155722,-88.6699507389163,4,1,0,90,0,0
155847,-88.4520884520885,4,1,0,90,0,0
155972,-88.2352941176471,4,1,0,90,0,0
156097,-88.0195599022005,4,1,0,90,0,0
156222,-87.8048780487805,4,1,0,90,0,0
156284,-87.6987839101964,4,1,0,90,0,0
156347,-87.5912408759124,4,1,0,90,0,0
156409,-87.4856620720493,4,1,0,90,0,0
156472,-87.378640776699,4,1,0,90,0,0
156597,-87.1670702179177,4,1,0,90,0,0
156722,-86.9565217391304,4,1,0,90,0,0
156847,-86.7469879518072,4,1,0,90,0,0
156909,-86.6434333904538,4,1,0,90,0,0
156972,-86.5384615384615,4,1,0,90,0,0
157097,-86.3309352517986,4,1,0,90,0,0
157222,-86.1244019138756,4,1,0,90,0,0
157347,-85.9188544152745,4,1,0,90,0,0
157472,-85.7142857142857,4,1,0,90,0,0
157597,-85.5106888361045,4,1,0,90,0,0
157722,-85.3080568720379,4,1,0,90,0,0
157847,-85.1063829787234,4,1,0,90,0,0
157972,-84.9056603773585,4,1,0,90,0,0
158097,-84.7058823529412,4,1,0,90,0,0
158222,-84.5070422535211,4,1,0,90,0,0
158347,-84.3091334894614,4,1,0,90,0,0
158472,-84.1121495327103,4,1,0,90,0,0
158597,-83.9160839160839,4,1,0,90,0,0
158722,-83.7209302325581,4,1,0,90,0,0
158847,-83.5266821345708,4,1,0,90,0,0
158972,-83.3333333333333,4,1,0,90,0,0
159972,-83.3333333333333,4,1,0,90,0,0
160034,-83.7661249790585,4,1,0,90,0,0
160097,-84.2105263157895,4,1,0,90,0,0
160159,-84.6525014814188,4,1,0,90,0,0
160222,-85.1063829787234,4,1,0,90,0,0
160284,-85.5578370978782,4,1,0,90,0,0
160347,-86.0215053763441,4,1,0,90,0,0
160409,-86.482746692035,4,1,0,90,0,0
160472,-86.9565217391304,4,1,0,90,0,0
160565,-87.6654685719295,4,1,0,90,0,0
160659,-88.3938831432865,4,1,0,90,0,0
160940,-90.6453952139231,4,1,0,90,0,0
161128,-92.2168941350055,4,1,0,90,0,0
161222,-93.0232558139535,4,1,0,90,0,0
161315,-93.8350380031904,4,1,0,90,0,0
161409,-94.6700747893591,4,1,0,90,0,0
161597,-96.3855421686747,4,1,0,90,0,0
161690,-97.2573429293912,4,1,0,90,0,0
161972,-100,4,1,0,90,0,0
163378,-100,4,1,0,90,0,0
163472,-99.6971063994329,4,1,0,90,0,0
163659,-99.0999647673041,4,1,0,90,0,0
163753,-98.8024908190963,4,1,0,90,0,0
163847,-98.5067974147537,4,1,0,90,0,0
163940,-98.215986286585,4,1,0,90,0,0
164128,-97.6333228147681,4,1,0,90,0,0
164222,-97.3445758872388,4,1,0,90,0,0
164315,-97.0605765912727,4,1,0,90,0,0
164409,-96.7752025272903,4,1,0,90,0,0
164597,-96.2094592493548,4,1,0,90,0,0
164690,-95.9320352226218,4,1,0,90,0,0
164784,-95.6532492425648,4,1,0,90,0,0
164878,-95.3760789149198,4,1,0,90,0,0
164972,-95.100510235446,4,1,0,90,0,0
165159,-94.5570123162495,4,1,0,90,0,0
165253,-94.2861496266951,4,1,0,90,0,0
165347,-94.0168343006472,4,1,0,90,0,0
165440,-93.7518938246167,4,1,0,90,0,0
165534,-93.4856175972927,4,1,0,90,0,0
165628,-93.2208496535101,4,1,0,90,0,0
165722,-92.9575772142771,4,1,0,90,0,0
165815,-92.6985648800072,4,1,0,90,0,0
165909,-92.4382301096472,4,1,0,90,0,0
166003,-92.1793534932221,4,1,0,90,0,0
166097,-91.9219228141062,4,1,0,90,0,0
166190,-91.6686418582602,4,1,0,90,0,0
166284,-91.414051882054,4,1,0,90,0,0
166378,-91.1608721272834,4,1,0,90,0,0
166472,-90.9090909090909,4,1,0,90,0,0
172472,-100,4,1,0,90,0,0
173972,-100,4,1,0,90,0,0
174159,-98.7686837426747,4,1,0,90,0,0
174206,-98.4639621898385,4,1,0,90,0,0
174253,-98.1611151102677,4,1,0,90,0,0
174300,-97.8601252609603,4,1,0,90,0,0
174347,-97.5609756097561,4,1,0,90,0,0
174440,-96.9743987587277,4,1,0,90,0,0
174534,-96.3886389924174,4,1,0,90,0,0
174628,-95.8099131323454,4,1,0,90,0,0
174722,-95.2380952380952,4,1,0,90,0,0
174847,-94.488188976378,4,1,0,90,0,0
174972,-93.75,4,1,0,90,0,0
175097,-93.0232558139535,4,1,0,90,0,0
175222,-92.3076923076923,4,1,0,90,0,0
175347,-91.6030534351145,4,1,0,90,0,0
175472,-90.9090909090909,4,1,0,90,0,0
184472,-90.9090909090909,4,1,0,90,0,1
192534,-90.9090909090909,4,1,0,90,0,1
192722,-89.2823148676947,4,1,0,90,0,1
192815,-88.4989149919804,4,1,0,90,0,1
192909,-87.7209389320116,4,1,0,90,0,1
193003,-86.9565217391304,4,1,0,90,0,1
193097,-86.2053120117636,4,1,0,90,0,1
193190,-85.4747585201385,4,1,0,90,0,1
193284,-84.7488254427177,4,1,0,90,0,1
193378,-84.0351191542734,4,1,0,90,0,1
193472,-83.3333333333333,4,1,0,90,0,1
195722,-83.3333333333333,4,1,0,90,0,1
195815,-84.2034355001684,4,1,0,90,0,1
195909,-85.1015545217293,4,1,0,90,0,1
196003,-86.0190388806056,4,1,0,90,0,1
196097,-86.9565217391304,4,1,0,90,0,1
196190,-87.9043600562588,4,1,0,90,0,1
196284,-88.883621711306,4,1,0,90,0,1
196472,-90.9090909090909,4,1,0,90,0,1
204534,-90.9090909090909,4,1,0,90,0,1
204722,-89.2823148676947,4,1,0,90,0,1
204815,-88.4989149919804,4,1,0,90,0,1
204909,-87.7209389320116,4,1,0,90,0,1
205003,-86.9565217391304,4,1,0,90,0,1
205097,-86.2053120117636,4,1,0,90,0,1
205190,-85.4747585201385,4,1,0,90,0,1
205284,-84.7488254427177,4,1,0,90,0,1
205378,-84.0351191542734,4,1,0,90,0,1
205472,-83.3333333333333,4,1,0,90,0,1
207722,-83.3333333333333,4,1,0,90,0,1
207815,-83.9113895726113,4,1,0,90,0,1
207909,-84.503868399309,4,1,0,90,0,1
208003,-85.1047734321809,4,1,0,90,0,1
208097,-85.7142857142857,4,1,0,90,0,1
208190,-86.3259668508287,4,1,0,90,0,1
208284,-86.9531612304838,4,1,0,90,0,1
208378,-87.5895359701028,4,1,0,90,0,1
208472,-88.2352941176471,4,1,0,90,0,0
208565,-88.883621711306,4,1,0,90,0,0
208659,-89.5486746796147,4,1,0,90,0,0
208940,-91.5974596971177,4,1,0,90,0,0
209128,-93.0213328923433,4,1,0,90,0,0
209222,-93.75,4,1,0,90,0,0
209315,-94.4822373393802,4,1,0,90,0,0
209409,-95.2340641665961,4,1,0,90,0,0
209597,-96.7741935483871,4,1,0,90,0,0
209690,-97.5546305931322,4,1,0,90,0,0
209972,-100,4,1,0,90,0,0
211378,-100,4,1,0,90,0,0
211472,-99.6971063994329,4,1,0,90,0,0
211659,-99.0999647673041,4,1,0,90,0,0
211753,-98.8024908190963,4,1,0,90,0,0
211847,-98.5067974147537,4,1,0,90,0,0
211940,-98.215986286585,4,1,0,90,0,0
212128,-97.6333228147681,4,1,0,90,0,0
212222,-97.3445758872388,4,1,0,90,0,0
212315,-97.0605765912727,4,1,0,90,0,0
212409,-96.7752025272903,4,1,0,90,0,0
212597,-96.2094592493548,4,1,0,90,0,0
212690,-95.9320352226218,4,1,0,90,0,0
212784,-95.6532492425648,4,1,0,90,0,0
212878,-95.3760789149198,4,1,0,90,0,0
212972,-95.100510235446,4,1,0,90,0,0
213159,-94.5570123162495,4,1,0,90,0,0
213253,-94.2861496266951,4,1,0,90,0,0
213347,-94.0168343006472,4,1,0,90,0,0
213440,-93.7518938246167,4,1,0,90,0,0
213534,-93.4856175972927,4,1,0,90,0,0
213628,-93.2208496535101,4,1,0,90,0,0
213722,-92.9575772142771,4,1,0,90,0,0
213815,-92.6985648800072,4,1,0,90,0,0
213909,-92.4382301096472,4,1,0,90,0,0
214003,-92.1793534932221,4,1,0,90,0,0
214097,-91.9219228141062,4,1,0,90,0,0
214190,-91.6686418582602,4,1,0,90,0,0
214284,-91.414051882054,4,1,0,90,0,0
214378,-91.1608721272834,4,1,0,90,0,0
214472,-90.9090909090909,4,1,0,90,0,0
220472,-100,4,1,0,90,0,0
221972,-100,4,1,0,90,0,0
222159,-98.3649558450643,4,1,0,90,0,0
222206,-97.9623824451411,4,1,0,90,0,0
222253,-97.5630907987165,4,1,0,90,0,0
222300,-97.1670409397132,4,1,0,90,0,0
222347,-96.7741935483871,4,1,0,90,0,0
222440,-96.0061443932412,4,1,0,90,0,0
222534,-95.2421266508635,4,1,0,90,0,0
222628,-94.4901730220057,4,1,0,90,0,0
222722,-93.75,4,1,0,90,0,0
222847,-92.7835051546392,4,1,0,90,0,0
222972,-91.8367346938775,4,1,0,90,0,0
223097,-90.9090909090909,4,1,0,90,0,0
232472,-90.9090909090909,4,1,0,90,0,1
240534,-90.9090909090909,4,1,0,90,0,1
240722,-89.2823148676947,4,1,0,90,0,1
240815,-88.4989149919804,4,1,0,90,0,1
240909,-87.7209389320116,4,1,0,90,0,1
241003,-86.9565217391304,4,1,0,90,0,1
241097,-86.2053120117636,4,1,0,90,0,1
241190,-85.4747585201385,4,1,0,90,0,1
241284,-84.7488254427177,4,1,0,90,0,1
241378,-84.0351191542734,4,1,0,90,0,1
241472,-83.3333333333333,4,1,0,90,0,1
243722,-83.3333333333333,4,1,0,90,0,1
243815,-84.2034355001684,4,1,0,90,0,1
243909,-85.1015545217293,4,1,0,90,0,1
244003,-86.0190388806056,4,1,0,90,0,1
244097,-86.9565217391304,4,1,0,90,0,1
244190,-87.9043600562588,4,1,0,90,0,1
244284,-88.883621711306,4,1,0,90,0,1
244472,-90.9090909090909,4,1,0,90,0,1
252534,-90.9090909090909,4,1,0,90,0,1
252722,-89.2823148676947,4,1,0,90,0,1
252815,-88.4989149919804,4,1,0,90,0,1
252909,-87.7209389320116,4,1,0,90,0,1
253003,-86.9565217391304,4,1,0,90,0,1
253097,-86.2053120117636,4,1,0,90,0,1
253190,-85.4747585201385,4,1,0,90,0,1
253284,-84.7488254427177,4,1,0,90,0,1
253378,-84.0351191542734,4,1,0,90,0,1
253472,-83.3333333333333,4,1,0,90,0,1
255722,-83.3333333333333,4,1,0,90,0,1
255815,-84.2034355001684,4,1,0,90,0,1
255909,-85.1015545217293,4,1,0,90,0,1
256003,-86.0190388806056,4,1,0,90,0,1
256097,-86.9565217391304,4,1,0,90,0,1
256190,-87.9043600562588,4,1,0,90,0,1
256284,-88.883621711306,4,1,0,90,0,1
256378,-89.8849472674976,4,1,0,90,0,1
256472,-90.9090909090909,4,1,0,90,0,0
280472,-100,4,1,0,90,0,0
293972,375,4,1,0,90,1,0
323972,-99.8492099914771,4,1,0,90,0,0
324159,-99.2408692535757,4,1,0,90,0,0
324222,-99.0375861620497,4,1,0,90,0,0
324284,-98.8383412291518,4,1,0,90,0,0
324347,-98.6367021793336,4,1,0,90,0,0
324472,-98.2390505063536,4,1,0,90,0,0
324597,-97.8445922071247,4,1,0,90,0,0
324722,-97.453288968518,4,1,0,90,0,0
324909,-96.8737079795185,4,1,0,90,0,0
324972,-96.6799974608011,4,1,0,90,0,0
325034,-96.4901165737456,4,1,0,90,0,0
325097,-96.2979355695362,4,1,0,90,0,0
325222,-95.918881471218,4,1,0,90,0,0
325347,-95.5427997867068,4,1,0,90,0,0
325472,-95.1696556895582,4,1,0,90,0,0
325659,-94.6168421706582,4,1,0,90,0,0
325722,-94.4320436507936,4,1,0,90,0,0
325784,-94.2508818615013,4,1,0,90,0,0
325847,-94.0675087242519,4,1,0,90,0,0
326034,-93.5273888479489,4,1,0,90,0,0
326097,-93.3468174435353,4,1,0,90,0,0
326159,-93.1697916985287,4,1,0,90,0,0
326222,-92.9905971425082,4,1,0,90,0,0
326347,-92.6370852467991,4,1,0,90,0,0
326472,-92.2862509846695,4,1,0,90,0,0
326597,-91.9380640487761,4,1,0,90,0,0
326722,-91.5924945874429,4,1,0,90,0,0
326847,-91.2495131961295,4,1,0,90,0,0
326972,-90.9090909090909,4,1,0,90,0,0
331284,-125,4,1,0,40,0,0
338878,-125,4,1,0,45,0,0
341878,-125,4,1,0,50,0,0
343378,-125,4,1,0,55,0,0
344878,-125,4,1,0,60,0,0

[HitObjects]
256,192,1472,5,0,0:0:0:0:
256,192,2972,1,8,0:0:0:0:
256,192,4472,1,8,0:0:0:0:
256,192,5972,1,0,0:0:0:0:
256,192,7472,1,8,0:0:0:0:
256,192,8972,1,8,0:0:0:0:
256,192,10284,1,0,0:0:0:0:
256,192,10378,1,0,0:0:0:0:
256,192,10472,1,8,0:0:0:0:
256,192,10753,1,0,0:0:0:0:
256,192,10847,1,0,0:0:0:0:
256,192,10940,1,8,0:0:0:0:
256,192,11034,1,0,0:0:0:0:
256,192,11128,1,0,0:0:0:0:
256,192,11222,1,8,0:0:0:0:
256,192,11315,1,8,0:0:0:0:
256,192,11409,1,0,0:0:0:0:
256,192,11503,1,0,0:0:0:0:
256,192,11597,1,8,0:0:0:0:
256,192,11784,1,0,0:0:0:0:
256,192,11878,1,0,0:0:0:0:
256,192,11972,1,8,0:0:0:0:
256,192,12065,1,0,0:0:0:0:
256,192,12159,1,8,0:0:0:0:
256,192,12253,1,0,0:0:0:0:
256,192,12347,1,8,0:0:0:0:
256,192,12440,1,8,0:0:0:0:
256,192,12534,1,0,0:0:0:0:
256,192,12628,1,0,0:0:0:0:
256,192,12722,1,8,0:0:0:0:
256,192,12909,1,0,0:0:0:0:
256,192,13097,1,8,0:0:0:0:
256,192,13284,1,8,0:0:0:0:
256,192,13378,1,8,0:0:0:0:
256,192,13472,1,0,0:0:0:0:
256,192,13565,1,0,0:0:0:0:
256,192,13659,1,0,0:0:0:0:
256,192,13940,1,0,0:0:0:0:
256,192,14128,1,0,0:0:0:0:
256,192,14222,1,8,0:0:0:0:
256,192,14409,1,0,0:0:0:0:
256,192,14690,1,0,0:0:0:0:
256,192,14878,1,8,0:0:0:0:
256,192,14972,1,0,0:0:0:0:
256,192,15159,1,0,0:0:0:0:
256,192,15253,1,0,0:0:0:0:
256,192,15347,1,8,0:0:0:0:
256,192,15440,1,8,0:0:0:0:
256,192,15628,1,0,0:0:0:0:
256,192,15722,1,8,0:0:0:0:
256,192,15909,1,0,0:0:0:0:
256,192,16190,1,0,0:0:0:0:
256,192,16378,1,0,0:0:0:0:
256,192,16472,1,8,0:0:0:0:
256,192,16565,1,8,0:0:0:0:
256,192,16659,1,0,0:0:0:0:
256,192,16940,1,0,0:0:0:0:
256,192,17128,1,0,0:0:0:0:
256,192,17222,1,8,0:0:0:0:
256,192,17409,1,0,0:0:0:0:
256,192,17690,1,0,0:0:0:0:
256,192,17878,1,8,0:0:0:0:
256,192,17972,1,0,0:0:0:0:
256,192,18159,1,0,0:0:0:0:
256,192,18253,1,0,0:0:0:0:
256,192,18347,1,8,0:0:0:0:
256,192,18440,1,0,0:0:0:0:
256,192,18534,1,8,0:0:0:0:
256,192,18628,1,8,0:0:0:0:
256,192,18722,1,0,0:0:0:0:
256,192,18815,1,8,0:0:0:0:
256,192,18909,1,0,0:0:0:0:
256,192,19003,1,8,0:0:0:0:
256,192,19097,1,0,0:0:0:0:
256,192,19190,1,0,0:0:0:0:
256,192,19284,1,8,0:0:0:0:
256,192,19472,1,0,0:0:0:0:
256,192,19753,1,8,0:0:0:0:
256,192,20034,1,0,0:0:0:0:
256,192,20128,1,0,0:0:0:0:
256,192,20315,1,8,0:0:0:0:
256,192,20409,1,0,0:0:0:0:
256,192,20503,1,0,0:0:0:0:
256,192,20690,1,8,0:0:0:0:
256,192,20784,1,0,0:0:0:0:
256,192,21065,1,0,0:0:0:0:
256,192,21253,1,8,0:0:0:0:
256,192,21347,1,8,0:0:0:0:
256,192,21440,1,8,0:0:0:0:
256,192,21534,1,0,0:0:0:0:
256,192,21815,1,0,0:0:0:0:
256,192,22003,1,8,0:0:0:0:
256,192,22097,1,0,0:0:0:0:
256,192,22190,1,0,0:0:0:0:
256,192,22378,1,8,0:0:0:0:
256,192,22472,1,8,0:0:0:0:
256,192,22565,1,0,0:0:0:0:
256,192,22659,1,0,0:0:0:0:
256,192,22753,1,0,0:0:0:0:
256,192,22940,1,0,0:0:0:0:
256,192,23128,1,0,0:0:0:0:
256,192,23222,1,8,0:0:0:0:
256,192,23409,1,0,0:0:0:0:
256,192,23690,1,0,0:0:0:0:
256,192,23878,1,8,0:0:0:0:
256,192,23972,1,0,0:0:0:0:
256,192,24159,1,0,0:0:0:0:
256,192,24253,1,0,0:0:0:0:
256,192,24347,1,8,0:0:0:0:
256,192,24440,1,0,0:0:0:0:
256,192,24534,1,8,0:0:0:0:
256,192,24628,1,8,0:0:0:0:
256,192,24722,1,0,0:0:0:0:
256,192,24815,1,8,0:0:0:0:
256,192,24909,1,0,0:0:0:0:
256,192,25003,1,0,0:0:0:0:
256,192,25097,1,8,0:0:0:0:
256,192,25190,1,0,0:0:0:0:
256,192,25284,1,8,0:0:0:0:
256,192,25472,1,0,0:0:0:0:
256,192,25565,1,0,0:0:0:0:
256,192,25659,1,8,0:0:0:0:
256,192,25940,1,0,0:0:0:0:
256,192,26128,1,0,0:0:0:0:
256,192,26222,1,8,0:0:0:0:
256,192,26409,1,0,0:0:0:0:
256,192,26690,1,0,0:0:0:0:
256,192,26878,1,8,0:0:0:0:
256,192,26972,1,0,0:0:0:0:
256,192,27159,1,8,0:0:0:0:
256,192,27253,1,0,0:0:0:0:
256,192,27347,1,0,0:0:0:0:
256,192,27440,1,8,0:0:0:0:
256,192,27628,1,0,0:0:0:0:
256,192,27722,1,8,0:0:0:0:
256,192,27909,1,0,0:0:0:0:
256,192,28190,1,0,0:0:0:0:
256,192,28378,1,0,0:0:0:0:
256,192,28472,1,0,0:0:0:0:
256,192,28565,1,8,0:0:0:0:
256,192,28659,1,8,0:0:0:0:
256,192,28940,1,0,0:0:0:0:
256,192,29128,1,0,0:0:0:0:
256,192,29222,1,8,0:0:0:0:
256,192,29409,1,0,0:0:0:0:
256,192,29690,1,0,0:0:0:0:
256,192,29878,1,8,0:0:0:0:
256,192,29972,1,0,0:0:0:0:
256,192,30159,1,0,0:0:0:0:
256,192,30253,1,0,0:0:0:0:
256,192,30347,1,8,0:0:0:0:
256,192,30440,1,0,0:0:0:0:
256,192,30534,1,8,0:0:0:0:
256,192,30628,1,0,0:0:0:0:
256,192,30722,1,8,0:0:0:0:
256,192,30815,1,8,0:0:0:0:
256,192,30909,1,0,0:0:0:0:
256,192,31003,1,8,0:0:0:0:
256,192,31097,1,0,0:0:0:0:
256,192,31190,1,0,0:0:0:0:
256,192,31284,1,8,0:0:0:0:
256,192,31472,1,0,0:0:0:0:
256,192,31753,1,8,0:0:0:0:
256,192,32034,1,0,0:0:0:0:
256,192,32128,1,0,0:0:0:0:
256,192,32315,1,8,0:0:0:0:
256,192,32409,1,8,0:0:0:0:
256,192,32503,1,0,0:0:0:0:
256,192,32690,1,8,0:0:0:0:
256,192,32784,1,0,0:0:0:0:
256,192,33065,1,0,0:0:0:0:
256,192,33253,1,8,0:0:0:0:
256,192,33347,1,8,0:0:0:0:
256,192,33440,1,8,0:0:0:0:
256,192,33534,1,0,0:0:0:0:
256,192,33815,1,0,0:0:0:0:
256,192,34003,1,8,0:0:0:0:
256,192,34097,1,0,0:0:0:0:
256,192,34190,1,0,0:0:0:0:
256,192,34378,1,8,0:0:0:0:
256,192,34472,1,0,0:0:0:0:
256,192,34659,1,0,0:0:0:0:
256,192,34753,1,0,0:0:0:0:
256,192,34940,1,0,0:0:0:0:
256,192,35128,1,0,0:0:0:0:
256,192,35222,1,8,0:0:0:0:
256,192,35409,1,0,0:0:0:0:
256,192,35503,1,0,0:0:0:0:
256,192,35597,1,8,0:0:0:0:
256,192,35690,1,8,0:0:0:0:
256,192,35784,1,8,0:0:0:0:
256,192,35878,1,8,0:0:0:0:
256,192,35972,1,0,0:0:0:0:
256,192,37472,8,0,40097,0:0:0:0:
384,96,40472,5,4,0:0:0:0:
256,192,40753,1,0,0:0:0:0:
256,192,40847,1,0,0:0:0:0:
256,192,41034,1,0,0:0:0:0:
256,192,41222,1,8,0:0:0:0:
256,192,41315,1,0,0:0:0:0:
256,192,41409,1,0,0:0:0:0:
256,192,41503,1,0,0:0:0:0:
256,192,41597,1,8,0:0:0:0:
256,192,41690,1,0,0:0:0:0:
256,192,41784,1,8,0:0:0:0:
256,192,41878,1,8,0:0:0:0:
256,192,41972,1,0,0:0:0:0:
256,192,42253,1,0,0:0:0:0:
256,192,42534,1,0,0:0:0:0:
256,192,42722,1,8,0:0:0:0:
256,192,42815,1,0,0:0:0:0:
256,192,42909,1,0,0:0:0:0:
256,192,43003,1,0,0:0:0:0:
256,192,43097,1,8,0:0:0:0:
256,192,43190,1,8,0:0:0:0:
256,192,43284,1,0,0:0:0:0:
256,192,43378,1,8,0:0:0:0:
256,192,43472,1,0,0:0:0:0:
256,192,43753,1,8,0:0:0:0:
256,192,43847,1,0,0:0:0:0:
256,192,44034,1,0,0:0:0:0:
256,192,44222,1,8,0:0:0:0:
256,192,44315,1,8,0:0:0:0:
256,192,44409,1,0,0:0:0:0:
256,192,44503,1,0,0:0:0:0:
256,192,44597,1,8,0:0:0:0:
256,192,44690,1,0,0:0:0:0:
256,192,44784,1,0,0:0:0:0:
256,192,44878,1,8,0:0:0:0:
256,192,44972,1,0,0:0:0:0:
256,192,45253,1,0,0:0:0:0:
256,192,45534,1,0,0:0:0:0:
256,192,45722,1,8,0:0:0:0:
256,192,45815,1,0,0:0:0:0:
256,192,45909,1,0,0:0:0:0:
256,192,46003,1,8,0:0:0:0:
256,192,46097,1,8,0:0:0:0:
256,192,46190,1,0,0:0:0:0:
256,192,46284,1,8,0:0:0:0:
256,192,46378,1,8,0:0:0:0:
256,192,46472,1,0,0:0:0:0:
256,192,46753,1,0,0:0:0:0:
256,192,46847,1,0,0:0:0:0:
256,192,47034,1,0,0:0:0:0:
256,192,47222,1,8,0:0:0:0:
256,192,47315,1,8,0:0:0:0:
256,192,47409,1,0,0:0:0:0:
256,192,47503,1,8,0:0:0:0:
256,192,47597,1,0,0:0:0:0:
256,192,47690,1,0,0:0:0:0:
256,192,47784,1,8,0:0:0:0:
256,192,47878,1,8,0:0:0:0:
256,192,47972,1,0,0:0:0:0:
256,192,48253,1,0,0:0:0:0:
256,192,48534,1,0,0:0:0:0:
256,192,48722,1,8,0:0:0:0:
256,192,48815,1,0,0:0:0:0:
256,192,48909,1,0,0:0:0:0:
256,192,49003,1,8,0:0:0:0:
256,192,49097,1,8,0:0:0:0:
256,192,49190,1,0,0:0:0:0:
256,192,49284,1,8,0:0:0:0:
256,192,49378,1,8,0:0:0:0:
256,192,49472,1,0,0:0:0:0:
256,192,49565,1,0,0:0:0:0:
256,192,49659,1,8,0:0:0:0:
256,192,49847,1,8,0:0:0:0:
256,192,49940,1,8,0:0:0:0:
256,192,50034,1,0,0:0:0:0:
256,192,50128,1,0,0:0:0:0:
256,192,50222,1,8,0:0:0:0:
256,192,50315,1,0,0:0:0:0:
256,192,50409,1,8,0:0:0:0:
256,192,50503,1,8,0:0:0:0:
256,192,50597,1,0,0:0:0:0:
256,192,50690,1,0,0:0:0:0:
256,192,50784,1,0,0:0:0:0:
256,192,50878,1,0,0:0:0:0:
256,192,50972,1,8,0:0:0:0:
256,192,51065,1,8,0:0:0:0:
256,192,51159,1,0,0:0:0:0:
256,192,51253,1,8,0:0:0:0:
256,192,51347,1,0,0:0:0:0:
256,192,51440,1,0,0:0:0:0:
256,192,51534,1,8,0:0:0:0:
256,192,51628,1,8,0:0:0:0:
256,192,51722,1,0,0:0:0:0:
256,192,51909,1,0,0:0:0:0:
256,192,52097,1,8,0:0:0:0:
256,192,52284,1,8,0:0:0:0:
384,96,52472,1,4,0:0:0:0:
256,192,52753,1,0,0:0:0:0:
256,192,52847,1,0,0:0:0:0:
256,192,53034,1,0,0:0:0:0:
256,192,53222,1,8,0:0:0:0:
256,192,53315,1,0,0:0:0:0:
256,192,53409,1,0,0:0:0:0:
256,192,53503,1,0,0:0:0:0:
256,192,53597,1,8,0:0:0:0:
256,192,53690,1,0,0:0:0:0:
256,192,53784,1,8,0:0:0:0:
256,192,53878,1,8,0:0:0:0:
256,192,53972,1,0,0:0:0:0:
256,192,54253,1,0,0:0:0:0:
256,192,54534,1,0,0:0:0:0:
256,192,54722,1,8,0:0:0:0:
256,192,54815,1,0,0:0:0:0:
256,192,54909,1,0,0:0:0:0:
256,192,55003,1,0,0:0:0:0:
256,192,55097,1,8,0:0:0:0:
256,192,55190,1,8,0:0:0:0:
256,192,55284,1,0,0:0:0:0:
256,192,55378,1,8,0:0:0:0:
256,192,55472,1,0,0:0:0:0:
256,192,55753,1,8,0:0:0:0:
256,192,55847,1,0,0:0:0:0:
256,192,56034,1,0,0:0:0:0:
256,192,56222,1,8,0:0:0:0:
256,192,56315,1,8,0:0:0:0:
256,192,56409,1,0,0:0:0:0:
256,192,56503,1,0,0:0:0:0:
256,192,56597,1,8,0:0:0:0:
256,192,56690,1,0,0:0:0:0:
256,192,56784,1,0,0:0:0:0:
256,192,56878,1,8,0:0:0:0:
256,192,56972,1,0,0:0:0:0:
256,192,57253,1,0,0:0:0:0:
256,192,57534,1,0,0:0:0:0:
256,192,57722,1,8,0:0:0:0:
256,192,57815,1,0,0:0:0:0:
256,192,57909,1,0,0:0:0:0:
256,192,58003,1,8,0:0:0:0:
256,192,58097,1,8,0:0:0:0:
256,192,58190,1,0,0:0:0:0:
256,192,58284,1,8,0:0:0:0:
256,192,58378,1,8,0:0:0:0:
256,192,58472,1,0,0:0:0:0:
256,192,58753,1,0,0:0:0:0:
256,192,58847,1,0,0:0:0:0:
256,192,59034,1,0,0:0:0:0:
256,192,59222,1,8,0:0:0:0:
256,192,59315,1,8,0:0:0:0:
256,192,59409,1,0,0:0:0:0:
256,192,59503,1,8,0:0:0:0:
256,192,59597,1,0,0:0:0:0:
256,192,59690,1,0,0:0:0:0:
256,192,59784,1,8,0:0:0:0:
256,192,59878,1,8,0:0:0:0:
256,192,59972,1,0,0:0:0:0:
256,192,60253,1,0,0:0:0:0:
256,192,60534,1,0,0:0:0:0:
256,192,60722,1,8,0:0:0:0:
256,192,60815,1,8,0:0:0:0:
256,192,60909,1,0,0:0:0:0:
256,192,61003,1,0,0:0:0:0:
256,192,61097,1,8,0:0:0:0:
256,192,61190,1,0,0:0:0:0:
256,192,61284,1,8,0:0:0:0:
256,192,61378,1,8,0:0:0:0:
256,192,61472,1,0,0:0:0:0:
256,192,61565,1,8,0:0:0:0:
256,192,61659,1,0,0:0:0:0:
256,192,61753,1,0,0:0:0:0:
256,192,61847,1,8,0:0:0:0:
256,192,61940,1,0,0:0:0:0:
256,192,62034,1,0,0:0:0:0:
256,192,62128,1,0,0:0:0:0:
256,192,62222,1,8,0:0:0:0:
256,192,62315,1,8,0:0:0:0:
256,192,62409,1,0,0:0:0:0:
256,192,62503,1,8,0:0:0:0:
256,192,62597,1,0,0:0:0:0:
256,192,62690,1,0,0:0:0:0:
256,192,62784,1,0,0:0:0:0:
256,192,62878,1,0,0:0:0:0:
256,192,62972,1,8,0:0:0:0:
256,192,63065,1,8,0:0:0:0:
256,192,63159,1,0,0:0:0:0:
256,192,63253,1,0,0:0:0:0:
256,192,63347,1,8,0:0:0:0:
256,192,63440,1,0,0:0:0:0:
256,192,63534,1,8,0:0:0:0:
256,192,63628,1,8,0:0:0:0:
256,192,63722,1,0,0:0:0:0:
256,192,63815,1,0,0:0:0:0:
256,192,63909,1,0,0:0:0:0:
256,192,64003,1,0,0:0:0:0:
256,192,64097,1,8,0:0:0:0:
256,192,64190,1,0,0:0:0:0:
256,192,64284,1,8,0:0:0:0:
256,192,64378,1,8,0:0:0:0:
256,192,64472,1,0,0:0:0:0:
256,192,64565,1,0,0:0:0:0:
256,192,64659,1,0,0:0:0:0:
256,192,64940,1,0,0:0:0:0:
256,192,65128,1,0,0:0:0:0:
256,192,65222,1,8,0:0:0:0:
256,192,65315,1,0,0:0:0:0:
256,192,65409,1,0,0:0:0:0:
256,192,65597,1,0,0:0:0:0:
256,192,65690,1,8,0:0:0:0:
256,192,65972,1,0,0:0:0:0:
256,192,66253,1,0,0:0:0:0:
256,192,66722,1,8,0:0:0:0:
256,192,66909,1,0,0:0:0:0:
256,192,67003,1,0,0:0:0:0:
256,192,67190,1,8,0:0:0:0:
256,192,67378,1,0,0:0:0:0:
256,192,67472,1,8,0:0:0:0:
256,192,67659,1,0,0:0:0:0:
256,192,67753,1,0,0:0:0:0:
256,192,67847,1,0,0:0:0:0:
256,192,67940,1,8,0:0:0:0:
256,192,68128,1,8,0:0:0:0:
256,192,68222,1,0,0:0:0:0:
256,192,68315,1,8,0:0:0:0:
256,192,68409,1,8,0:0:0:0:
256,192,68597,1,0,0:0:0:0:
256,192,68690,1,0,0:0:0:0:
256,192,68784,1,8,0:0:0:0:
256,192,68878,1,0,0:0:0:0:
256,192,68972,1,8,0:0:0:0:
256,192,69159,1,0,0:0:0:0:
256,192,69253,1,0,0:0:0:0:
256,192,69347,1,8,0:0:0:0:
256,192,69440,1,8,0:0:0:0:
256,192,69534,1,0,0:0:0:0:
256,192,69628,1,0,0:0:0:0:
256,192,69722,1,8,0:0:0:0:
256,192,69815,1,8,0:0:0:0:
256,192,69909,1,8,0:0:0:0:
256,192,70003,1,8,0:0:0:0:
256,192,70097,1,0,0:0:0:0:
256,192,70190,1,8,0:0:0:0:
256,192,70284,1,0,0:0:0:0:
256,192,70378,1,0,0:0:0:0:
256,192,70472,1,8,0:0:0:0:
256,192,70565,1,0,0:0:0:0:
256,192,70659,1,8,0:0:0:0:
256,192,70753,1,0,0:0:0:0:
256,192,70847,1,8,0:0:0:0:
256,192,70940,1,8,0:0:0:0:
256,192,71034,1,0,0:0:0:0:
256,192,71128,1,0,0:0:0:0:
256,192,71222,1,8,0:0:0:0:
256,192,71315,1,0,0:0:0:0:
256,192,71409,1,0,0:0:0:0:
256,192,71503,1,0,0:0:0:0:
256,192,71597,1,8,0:0:0:0:
256,192,71690,1,0,0:0:0:0:
256,192,71784,1,8,0:0:0:0:
256,192,71878,1,8,0:0:0:0:
256,192,71972,1,0,0:0:0:0:
256,192,72065,1,0,0:0:0:0:
256,192,72159,1,8,0:0:0:0:
256,192,72253,1,0,0:0:0:0:
256,192,72347,1,8,0:0:0:0:
256,192,72440,1,8,0:0:0:0:
256,192,72534,1,0,0:0:0:0:
256,192,72628,1,0,0:0:0:0:
256,192,72722,1,8,0:0:0:0:
256,192,72815,1,0,0:0:0:0:
256,192,72909,1,8,0:0:0:0:
256,192,73003,1,8,0:0:0:0:
256,192,73097,1,0,0:0:0:0:
256,192,73190,1,0,0:0:0:0:
256,192,73284,1,8,0:0:0:0:
256,192,73378,1,8,0:0:0:0:
256,192,73472,1,0,0:0:0:0:
256,192,73565,1,0,0:0:0:0:
256,192,73659,1,8,0:0:0:0:
256,192,73753,1,0,0:0:0:0:
256,192,73847,1,0,0:0:0:0:
256,192,73940,1,0,0:0:0:0:
256,192,74034,1,8,0:0:0:0:
256,192,74128,1,0,0:0:0:0:
256,192,74222,1,8,0:0:0:0:
256,192,74315,1,8,0:0:0:0:
256,192,74409,1,0,0:0:0:0:
256,192,74503,1,0,0:0:0:0:
256,192,74597,1,8,0:0:0:0:
256,192,74690,1,0,0:0:0:0:
256,192,74784,1,8,0:0:0:0:
256,192,74878,1,8,0:0:0:0:
256,192,74972,1,0,0:0:0:0:
256,192,75065,1,0,0:0:0:0:
256,192,75159,1,8,0:0:0:0:
256,192,75253,1,8,0:0:0:0:
256,192,75347,1,0,0:0:0:0:
256,192,75440,1,8,0:0:0:0:
256,192,75534,1,0,0:0:0:0:
256,192,75628,1,8,0:0:0:0:
256,192,75722,1,0,0:0:0:0:
256,192,75815,1,0,0:0:0:0:
256,192,75909,1,8,0:0:0:0:
256,192,76003,1,0,0:0:0:0:
256,192,76097,1,8,0:0:0:0:
384,96,76472,1,4,0:0:0:0:
256,192,77034,1,0,0:0:0:0:
256,192,77597,1,8,0:0:0:0:
256,192,77972,1,0,0:0:0:0:
256,192,78159,1,0,0:0:0:0:
256,192,78206,1,0,0:0:0:0:
256,192,78253,1,0,0:0:0:0:
256,192,78300,1,0,0:0:0:0:
256,192,78347,1,8,0:0:0:0:
256,192,78440,1,8,0:0:0:0:
256,192,78534,1,0,0:0:0:0:
256,192,78628,1,0,0:0:0:0:
256,192,78722,1,8,0:0:0:0:
256,192,78847,1,0,0:0:0:0:
256,192,78972,1,0,0:0:0:0:
256,192,79097,1,8,0:0:0:0:
384,96,79472,1,4,0:0:0:0:
256,192,80034,1,0,0:0:0:0:
256,192,80597,1,8,0:0:0:0:
256,192,80690,1,0,0:0:0:0:
256,192,80784,1,0,0:0:0:0:
256,192,80878,1,0,0:0:0:0:
256,192,80972,1,8,0:0:0:0:
256,192,81159,1,8,0:0:0:0:
256,192,81253,1,0,0:0:0:0:
256,192,81347,1,8,0:0:0:0:
256,192,81440,1,8,0:0:0:0:
256,192,81534,1,0,0:0:0:0:
256,192,81628,1,0,0:0:0:0:
256,192,81722,1,8,0:0:0:0:
256,192,81815,1,0,0:0:0:0:
256,192,81909,1,8,0:0:0:0:
256,192,82003,1,8,0:0:0:0:
256,192,82097,1,0,0:0:0:0:
256,192,82190,1,8,0:0:0:0:
256,192,82284,1,0,0:0:0:0:
256,192,82378,1,8,0:0:0:0:
256,192,82472,1,0,0:0:0:0:
256,192,82565,1,0,0:0:0:0:
256,192,82659,1,8,0:0:0:0:
256,192,82753,1,8,0:0:0:0:
256,192,82847,1,0,0:0:0:0:
256,192,82940,1,0,0:0:0:0:
256,192,83034,1,8,0:0:0:0:
256,192,83128,1,0,0:0:0:0:
256,192,83222,1,8,0:0:0:0:
256,192,83315,1,8,0:0:0:0:
256,192,83409,1,0,0:0:0:0:
256,192,83503,1,0,0:0:0:0:
256,192,83597,1,8,0:0:0:0:
256,192,83690,1,0,0:0:0:0:
256,192,83784,1,8,0:0:0:0:
256,192,83878,1,8,0:0:0:0:
256,192,83972,1,0,0:0:0:0:
256,192,84065,1,0,0:0:0:0:
256,192,84159,1,8,0:0:0:0:
256,192,84253,1,0,0:0:0:0:
256,192,84347,1,8,0:0:0:0:
256,192,84440,1,8,0:0:0:0:
256,192,84534,1,0,0:0:0:0:
256,192,84628,1,0,0:0:0:0:
256,192,84722,1,8,0:0:0:0:
256,192,84815,1,0,0:0:0:0:
256,192,84909,1,8,0:0:0:0:
256,192,85003,1,0,0:0:0:0:
256,192,85097,1,0,0:0:0:0:
256,192,85190,1,0,0:0:0:0:
256,192,85284,1,8,0:0:0:0:
256,192,85378,1,8,0:0:0:0:
256,192,85472,1,0,0:0:0:0:
256,192,85565,1,0,0:0:0:0:
256,192,85659,1,8,0:0:0:0:
256,192,85753,1,0,0:0:0:0:
256,192,85847,1,8,0:0:0:0:
256,192,85940,1,0,0:0:0:0:
256,192,86034,1,8,0:0:0:0:
256,192,86128,1,8,0:0:0:0:
256,192,86222,1,0,0:0:0:0:
256,192,86315,1,8,0:0:0:0:
256,192,86409,1,0,0:0:0:0:
256,192,86503,1,0,0:0:0:0:
256,192,86597,1,8,0:0:0:0:
256,192,86690,1,8,0:0:0:0:
256,192,86784,1,8,0:0:0:0:
256,192,86878,1,8,0:0:0:0:
256,192,86972,1,0,0:0:0:0:
256,192,87065,1,0,0:0:0:0:
256,192,87159,1,8,0:0:0:0:
256,192,87253,1,8,0:0:0:0:
256,192,87347,1,0,0:0:0:0:
256,192,87440,1,8,0:0:0:0:
256,192,87534,1,0,0:0:0:0:
256,192,87628,1,0,0:0:0:0:
256,192,87722,1,8,0:0:0:0:
384,96,88472,5,4,0:0:0:0:
256,192,88753,1,0,0:0:0:0:
256,192,88847,1,0,0:0:0:0:
256,192,89034,1,0,0:0:0:0:
256,192,89222,1,8,0:0:0:0:
256,192,89315,1,8,0:0:0:0:
256,192,89409,1,0,0:0:0:0:
256,192,89503,1,0,0:0:0:0:
256,192,89597,1,8,0:0:0:0:
256,192,89690,1,0,0:0:0:0:
256,192,89784,1,8,0:0:0:0:
256,192,89878,1,8,0:0:0:0:
256,192,89972,1,0,0:0:0:0:
256,192,90253,1,0,0:0:0:0:
256,192,90534,1,0,0:0:0:0:
256,192,90722,1,8,0:0:0:0:
256,192,90815,1,8,0:0:0:0:
256,192,90909,1,0,0:0:0:0:
256,192,91003,1,0,0:0:0:0:
256,192,91097,1,8,0:0:0:0:
256,192,91190,1,8,0:0:0:0:
256,192,91284,1,0,0:0:0:0:
256,192,91378,1,8,0:0:0:0:
256,192,91472,1,0,0:0:0:0:
256,192,91753,1,8,0:0:0:0:
256,192,91847,1,0,0:0:0:0:
256,192,92034,1,0,0:0:0:0:
256,192,92222,1,8,0:0:0:0:
256,192,92315,1,0,0:0:0:0:
256,192,92409,1,0,0:0:0:0:
256,192,92503,1,0,0:0:0:0:
256,192,92597,1,8,0:0:0:0:
256,192,92690,1,0,0:0:0:0:
256,192,92784,1,0,0:0:0:0:
256,192,92878,1,8,0:0:0:0:
256,192,92972,1,0,0:0:0:0:
256,192,93253,1,0,0:0:0:0:
256,192,93534,1,0,0:0:0:0:
256,192,93722,1,8,0:0:0:0:
256,192,93815,1,8,0:0:0:0:
256,192,93909,1,0,0:0:0:0:
256,192,94003,1,8,0:0:0:0:
256,192,94097,1,0,0:0:0:0:
256,192,94190,1,0,0:0:0:0:
256,192,94284,1,8,0:0:0:0:
256,192,94378,1,8,0:0:0:0:
256,192,94472,1,0,0:0:0:0:
256,192,94753,1,0,0:0:0:0:
256,192,94847,1,0,0:0:0:0:
256,192,95034,1,0,0:0:0:0:
256,192,95222,1,8,0:0:0:0:
256,192,95315,1,0,0:0:0:0:
256,192,95409,1,0,0:0:0:0:
256,192,95503,1,8,0:0:0:0:
256,192,95597,1,8,0:0:0:0:
256,192,95690,1,0,0:0:0:0:
256,192,95784,1,8,0:0:0:0:
256,192,95878,1,8,0:0:0:0:
256,192,95972,1,0,0:0:0:0:
256,192,96253,1,0,0:0:0:0:
256,192,96534,1,0,0:0:0:0:
256,192,96722,1,8,0:0:0:0:
256,192,96815,1,8,0:0:0:0:
256,192,96909,1,0,0:0:0:0:
256,192,97003,1,0,0:0:0:0:
256,192,97097,1,8,0:0:0:0:
256,192,97190,1,0,0:0:0:0:
256,192,97284,1,8,0:0:0:0:
256,192,97378,1,8,0:0:0:0:
256,192,97472,1,0,0:0:0:0:
256,192,97565,1,0,0:0:0:0:
256,192,97659,1,8,0:0:0:0:
256,192,97847,1,8,0:0:0:0:
256,192,97940,1,0,0:0:0:0:
256,192,98034,1,0,0:0:0:0:
256,192,98128,1,0,0:0:0:0:
256,192,98222,1,8,0:0:0:0:
256,192,98315,1,0,0:0:0:0:
256,192,98409,1,8,0:0:0:0:
256,192,98503,1,8,0:0:0:0:
256,192,98597,1,0,0:0:0:0:
256,192,98690,1,0,0:0:0:0:
256,192,98784,1,0,0:0:0:0:
256,192,98878,1,0,0:0:0:0:
256,192,98972,1,8,0:0:0:0:
256,192,99065,1,8,0:0:0:0:
256,192,99159,1,0,0:0:0:0:
256,192,99253,1,8,0:0:0:0:
256,192,99347,1,0,0:0:0:0:
256,192,99440,1,0,0:0:0:0:
256,192,99534,1,8,0:0:0:0:
256,192,99628,1,8,0:0:0:0:
256,192,99722,1,0,0:0:0:0:
256,192,99909,1,0,0:0:0:0:
256,192,100097,1,8,0:0:0:0:
256,192,100284,1,8,0:0:0:0:
384,96,100472,1,4,0:0:0:0:
256,192,100753,1,0,0:0:0:0:
256,192,100847,1,0,0:0:0:0:
256,192,101034,1,0,0:0:0:0:
256,192,101222,1,8,0:0:0:0:
256,192,101315,1,8,0:0:0:0:
256,192,101409,1,0,0:0:0:0:
256,192,101503,1,0,0:0:0:0:
256,192,101597,1,8,0:0:0:0:
256,192,101690,1,0,0:0:0:0:
256,192,101784,1,8,0:0:0:0:
256,192,101878,1,8,0:0:0:0:
256,192,101972,1,0,0:0:0:0:
256,192,102253,1,0,0:0:0:0:
256,192,102534,1,0,0:0:0:0:
256,192,102722,1,8,0:0:0:0:
256,192,102815,1,8,0:0:0:0:
256,192,102909,1,0,0:0:0:0:
256,192,103003,1,0,0:0:0:0:
256,192,103097,1,8,0:0:0:0:
256,192,103190,1,8,0:0:0:0:
256,192,103284,1,0,0:0:0:0:
256,192,103378,1,8,0:0:0:0:
256,192,103472,1,0,0:0:0:0:
256,192,103753,1,8,0:0:0:0:
256,192,103847,1,0,0:0:0:0:
256,192,104034,1,0,0:0:0:0:
256,192,104222,1,8,0:0:0:0:
256,192,104315,1,0,0:0:0:0:
256,192,104409,1,0,0:0:0:0:
256,192,104503,1,0,0:0:0:0:
256,192,104597,1,8,0:0:0:0:
256,192,104690,1,0,0:0:0:0:
256,192,104784,1,0,0:0:0:0:
256,192,104878,1,8,0:0:0:0:
256,192,104972,1,0,0:0:0:0:
256,192,105253,1,0,0:0:0:0:
256,192,105534,1,0,0:0:0:0:
256,192,105722,1,8,0:0:0:0:
256,192,105815,1,8,0:0:0:0:
256,192,105909,1,0,0:0:0:0:
256,192,106003,1,8,0:0:0:0:
256,192,106097,1,0,0:0:0:0:
256,192,106190,1,0,0:0:0:0:
256,192,106284,1,8,0:0:0:0:
256,192,106378,1,8,0:0:0:0:
256,192,106472,1,0,0:0:0:0:
256,192,106753,1,0,0:0:0:0:
256,192,106847,1,0,0:0:0:0:
256,192,107034,1,0,0:0:0:0:
256,192,107222,1,8,0:0:0:0:
256,192,107315,1,0,0:0:0:0:
256,192,107409,1,0,0:0:0:0:
256,192,107503,1,8,0:0:0:0:
256,192,107597,1,8,0:0:0:0:
256,192,107690,1,0,0:0:0:0:
256,192,107784,1,8,0:0:0:0:
256,192,107878,1,8,0:0:0:0:
256,192,107972,1,0,0:0:0:0:
256,192,108253,1,0,0:0:0:0:
256,192,108534,1,0,0:0:0:0:
256,192,108722,1,8,0:0:0:0:
256,192,108815,1,0,0:0:0:0:
256,192,108909,1,0,0:0:0:0:
256,192,109003,1,0,0:0:0:0:
256,192,109097,1,8,0:0:0:0:
256,192,109190,1,0,0:0:0:0:
256,192,109284,1,8,0:0:0:0:
256,192,109378,1,8,0:0:0:0:
256,192,109472,1,0,0:0:0:0:
256,192,109565,1,8,0:0:0:0:
256,192,109659,1,0,0:0:0:0:
256,192,109753,1,0,0:0:0:0:
256,192,109847,1,8,0:0:0:0:
256,192,109940,1,0,0:0:0:0:
256,192,110034,1,0,0:0:0:0:
256,192,110128,1,0,0:0:0:0:
256,192,110222,1,8,0:0:0:0:
256,192,110315,1,8,0:0:0:0:
256,192,110409,1,0,0:0:0:0:
256,192,110503,1,8,0:0:0:0:
256,192,110597,1,0,0:0:0:0:
256,192,110690,1,0,0:0:0:0:
256,192,110784,1,0,0:0:0:0:
256,192,110878,1,0,0:0:0:0:
256,192,110972,1,8,0:0:0:0:
256,192,111065,1,8,0:0:0:0:
256,192,111159,1,0,0:0:0:0:
256,192,111253,1,0,0:0:0:0:
256,192,111347,1,8,0:0:0:0:
256,192,111440,1,0,0:0:0:0:
256,192,111534,1,8,0:0:0:0:
256,192,111628,1,8,0:0:0:0:
256,192,111722,1,0,0:0:0:0:
256,192,111815,1,0,0:0:0:0:
256,192,111909,1,0,0:0:0:0:
256,192,112003,1,0,0:0:0:0:
256,192,112097,1,8,0:0:0:0:
256,192,112190,1,0,0:0:0:0:
256,192,112284,1,8,0:0:0:0:
256,192,112378,1,8,0:0:0:0:
256,192,112472,1,0,0:0:0:0:
256,192,112565,1,0,0:0:0:0:
256,192,112659,1,0,0:0:0:0:
256,192,112940,1,0,0:0:0:0:
256,192,113128,1,8,0:0:0:0:
256,192,113222,1,0,0:0:0:0:
256,192,113315,1,0,0:0:0:0:
256,192,113409,1,8,0:0:0:0:
256,192,113597,1,8,0:0:0:0:
256,192,113690,1,0,0:0:0:0:
256,192,113784,1,8,0:0:0:0:
256,192,113878,1,0,0:0:0:0:
256,192,113972,1,0,0:0:0:0:
256,192,114253,1,8,0:0:0:0:
256,192,114722,1,8,0:0:0:0:
256,192,115003,1,0,0:0:0:0:
256,192,115190,1,0,0:0:0:0:
256,192,115472,1,8,0:0:0:0:
256,192,115565,1,0,0:0:0:0:
256,192,115659,1,8,0:0:0:0:
256,192,115753,1,0,0:0:0:0:
256,192,115847,1,8,0:0:0:0:
256,192,115940,1,8,0:0:0:0:
256,192,116034,1,0,0:0:0:0:
256,192,116128,1,8,0:0:0:0:
256,192,116222,1,0,0:0:0:0:
256,192,116315,1,8,0:0:0:0:
256,192,116409,1,8,0:0:0:0:
256,192,116503,1,8,0:0:0:0:
256,192,116597,1,0,0:0:0:0:
256,192,116690,1,0,0:0:0:0:
256,192,116784,1,8,0:0:0:0:
256,192,116878,1,0,0:0:0:0:
256,192,116972,1,8,0:0:0:0:
256,192,117065,1,0,0:0:0:0:
256,192,117159,1,8,0:0:0:0:
256,192,117253,1,8,0:0:0:0:
256,192,117347,1,0,0:0:0:0:
256,192,117440,1,0,0:0:0:0:
256,192,117534,1,8,0:0:0:0:
256,192,117628,1,0,0:0:0:0:
256,192,117722,1,8,0:0:0:0:
256,192,117815,1,8,0:0:0:0:
256,192,117909,1,0,0:0:0:0:
256,192,118003,1,0,0:0:0:0:
256,192,118097,1,8,0:0:0:0:
256,192,118190,1,0,0:0:0:0:
256,192,118284,1,8,0:0:0:0:
256,192,118378,1,8,0:0:0:0:
256,192,118472,1,0,0:0:0:0:
256,192,118565,1,0,0:0:0:0:
256,192,118659,1,0,0:0:0:0:
256,192,118940,1,0,0:0:0:0:
256,192,119128,1,8,0:0:0:0:
256,192,119222,1,8,0:0:0:0:
256,192,119315,1,0,0:0:0:0:
256,192,119409,1,0,0:0:0:0:
256,192,119597,1,8,0:0:0:0:
256,192,119690,1,0,0:0:0:0:
256,192,119784,1,0,0:0:0:0:
256,192,119878,1,8,0:0:0:0:
256,192,119972,1,0,0:0:0:0:
256,192,120253,1,8,0:0:0:0:
256,192,120722,1,8,0:0:0:0:
256,192,121003,1,0,0:0:0:0:
256,192,121190,1,0,0:0:0:0:
256,192,121472,1,8,0:0:0:0:
256,192,121565,1,0,0:0:0:0:
256,192,121659,1,8,0:0:0:0:
256,192,121753,1,0,0:0:0:0:
256,192,121847,1,8,0:0:0:0:
256,192,121940,1,8,0:0:0:0:
256,192,122034,1,0,0:0:0:0:
256,192,122128,1,8,0:0:0:0:
256,192,122222,1,0,0:0:0:0:
256,192,122315,1,8,0:0:0:0:
256,192,122409,1,8,0:0:0:0:
256,192,122503,1,8,0:0:0:0:
256,192,122597,1,0,0:0:0:0:
256,192,122690,1,0,0:0:0:0:
256,192,122784,1,8,0:0:0:0:
256,192,122878,1,0,0:0:0:0:
256,192,122972,1,8,0:0:0:0:
256,192,123065,1,0,0:0:0:0:
256,192,123159,1,8,0:0:0:0:
256,192,123253,1,8,0:0:0:0:
256,192,123347,1,0,0:0:0:0:
256,192,123440,1,0,0:0:0:0:
256,192,123534,1,8,0:0:0:0:
256,192,123628,1,0,0:0:0:0:
256,192,123722,1,8,0:0:0:0:
256,192,123815,1,8,0:0:0:0:
256,192,123909,1,0,0:0:0:0:
256,192,124003,1,0,0:0:0:0:
256,192,124097,1,8,0:0:0:0:
256,192,124190,1,0,0:0:0:0:
256,192,124284,1,8,0:0:0:0:
256,192,124378,1,8,0:0:0:0:
256,192,124472,1,0,0:0:0:0:
256,192,124565,1,0,0:0:0:0:
256,192,124659,1,8,0:0:0:0:
256,192,124940,1,8,0:0:0:0:
256,192,125034,1,0,0:0:0:0:
256,192,125222,1,0,0:0:0:0:
256,192,125315,1,0,0:0:0:0:
256,192,125409,1,8,0:0:0:0:
256,192,125503,1,0,0:0:0:0:
256,192,125690,1,0,0:0:0:0:
256,192,125784,1,8,0:0:0:0:
256,192,125972,1,0,0:0:0:0:
256,192,126065,1,8,0:0:0:0:
256,192,126253,1,0,0:0:0:0:
256,192,126347,1,8,0:0:0:0:
256,192,126440,1,8,0:0:0:0:
256,192,126534,1,0,0:0:0:0:
256,192,126628,1,0,0:0:0:0:
256,192,126722,1,0,0:0:0:0:
256,192,126815,1,8,0:0:0:0:
256,192,127003,1,0,0:0:0:0:
256,192,127097,1,0,0:0:0:0:
256,192,127190,1,0,0:0:0:0:
256,192,127284,1,8,0:0:0:0:
256,192,127472,1,0,0:0:0:0:
256,192,127659,1,8,0:0:0:0:
256,192,127753,1,0,0:0:0:0:
256,192,127940,1,0,0:0:0:0:
256,192,128128,1,0,0:0:0:0:
256,192,128222,1,0,0:0:0:0:
256,192,128315,1,0,0:0:0:0:
256,192,128409,1,8,0:0:0:0:
256,192,128503,1,8,0:0:0:0:
256,192,128597,1,0,0:0:0:0:
256,192,128690,1,8,0:0:0:0:
256,192,128784,1,0,0:0:0:0:
256,192,128878,1,0,0:0:0:0:
256,192,128972,1,8,0:0:0:0:
256,192,129159,1,0,0:0:0:0:
256,192,129253,1,8,0:0:0:0:
256,192,129440,1,0,0:0:0:0:
256,192,129534,1,8,0:0:0:0:
256,192,129722,1,8,0:0:0:0:
256,192,129815,1,0,0:0:0:0:
256,192,129909,1,0,0:0:0:0:
256,192,130003,1,0,0:0:0:0:
256,192,130097,1,8,0:0:0:0:
256,192,130190,1,0,0:0:0:0:
256,192,130472,1,0,0:0:0:0:
256,192,130597,1,8,0:0:0:0:
256,192,130722,1,0,0:0:0:0:
256,192,130847,1,8,0:0:0:0:
256,192,130972,1,8,0:0:0:0:
256,192,131097,1,0,0:0:0:0:
256,192,131222,1,8,0:0:0:0:
256,192,131347,1,0,0:0:0:0:
256,192,131472,1,0,0:0:0:0:
256,192,131597,1,8,0:0:0:0:
256,192,131722,1,0,0:0:0:0:
256,192,131847,1,0,0:0:0:0:
256,192,131972,1,8,0:0:0:0:
256,192,132097,1,0,0:0:0:0:
256,192,132222,1,8,0:0:0:0:
256,192,132347,1,8,0:0:0:0:
256,192,132472,1,0,0:0:0:0:
256,192,132597,1,8,0:0:0:0:
256,192,132722,1,0,0:0:0:0:
256,192,132847,1,8,0:0:0:0:
256,192,132909,1,8,0:0:0:0:
256,192,132972,1,0,0:0:0:0:
256,192,133034,1,0,0:0:0:0:
256,192,133097,1,8,0:0:0:0:
256,192,133190,1,0,0:0:0:0:
256,192,133284,1,0,0:0:0:0:
256,192,133378,1,8,0:0:0:0:
256,192,133472,1,0,0:0:0:0:
256,192,133659,1,0,0:0:0:0:
256,192,133753,1,0,0:0:0:0:
256,192,133940,1,0,0:0:0:0:
256,192,134034,1,8,0:0:0:0:
256,192,134128,1,8,0:0:0:0:
256,192,134222,1,0,0:0:0:0:
256,192,134315,1,0,0:0:0:0:
256,192,134409,1,8,0:0:0:0:
256,192,134597,1,0,0:0:0:0:
256,192,134690,1,8,0:0:0:0:
256,192,134784,1,0,0:0:0:0:
256,192,134878,1,0,0:0:0:0:
256,192,134972,1,8,0:0:0:0:
256,192,135065,1,8,0:0:0:0:
256,192,135159,1,0,0:0:0:0:
256,192,135253,1,8,0:0:0:0:
256,192,135440,1,0,0:0:0:0:
256,192,135534,1,8,0:0:0:0:
256,192,135722,1,8,0:0:0:0:
256,192,135815,1,0,0:0:0:0:
256,192,135909,1,0,0:0:0:0:
256,192,136003,1,8,0:0:0:0:
256,192,136097,1,8,0:0:0:0:
256,192,136190,1,0,0:0:0:0:
256,192,136472,1,0,0:0:0:0:
256,192,136659,1,8,0:0:0:0:
256,192,136753,1,0,0:0:0:0:
256,192,136940,1,0,0:0:0:0:
256,192,137034,1,8,0:0:0:0:
256,192,137222,1,0,0:0:0:0:
256,192,137315,1,8,0:0:0:0:
256,192,137409,1,8,0:0:0:0:
256,192,137503,1,0,0:0:0:0:
256,192,137597,1,0,0:0:0:0:
256,192,137690,1,8,0:0:0:0:
256,192,137784,1,0,0:0:0:0:
256,192,137972,1,0,0:0:0:0:
256,192,138065,1,8,0:0:0:0:
256,192,138159,1,0,0:0:0:0:
256,192,138253,1,0,0:0:0:0:
256,192,138347,1,8,0:0:0:0:
256,192,138534,1,8,0:0:0:0:
256,192,138628,1,0,0:0:0:0:
256,192,138722,1,0,0:0:0:0:
256,192,138815,1,8,0:0:0:0:
256,192,139003,1,0,0:0:0:0:
256,192,139097,1,0,0:0:0:0:
256,192,139190,1,0,0:0:0:0:
256,192,139284,1,8,0:0:0:0:
256,192,139378,1,8,0:0:0:0:
256,192,139472,1,0,0:0:0:0:
256,192,139659,1,8,0:0:0:0:
256,192,139753,1,0,0:0:0:0:
256,192,139940,1,8,0:0:0:0:
256,192,140128,1,0,0:0:0:0:
256,192,140222,1,0,0:0:0:0:
256,192,140315,1,0,0:0:0:0:
256,192,140409,1,8,0:0:0:0:
256,192,140503,1,0,0:0:0:0:
256,192,140597,1,0,0:0:0:0:
256,192,140690,1,8,0:0:0:0:
256,192,140784,1,0,0:0:0:0:
256,192,140878,1,0,0:0:0:0:
256,192,140972,1,8,0:0:0:0:
256,192,141159,1,0,0:0:0:0:
256,192,141253,1,8,0:0:0:0:
256,192,141440,1,0,0:0:0:0:
256,192,141534,1,8,0:0:0:0:
256,192,141722,1,8,0:0:0:0:
256,192,141815,1,0,0:0:0:0:
256,192,141909,1,0,0:0:0:0:
256,192,142003,1,0,0:0:0:0:
256,192,142097,1,8,0:0:0:0:
256,192,142190,1,0,0:0:0:0:
256,192,142472,1,8,0:0:0:0:
256,192,142565,1,0,0:0:0:0:
256,192,142659,1,0,0:0:0:0:
256,192,142753,1,0,0:0:0:0:
256,192,142940,1,0,0:0:0:0:
256,192,143034,1,8,0:0:0:0:
256,192,143222,1,0,0:0:0:0:
256,192,143315,1,0,0:0:0:0:
256,192,143409,1,8,0:0:0:0:
256,192,143503,1,0,0:0:0:0:
256,192,143597,1,8,0:0:0:0:
256,192,143690,1,8,0:0:0:0:
256,192,143784,1,0,0:0:0:0:
256,192,143972,1,0,0:0:0:0:
256,192,144065,1,8,0:0:0:0:
256,192,144159,1,0,0:0:0:0:
256,192,144253,1,0,0:0:0:0:
256,192,144347,1,8,0:0:0:0:
256,192,144534,1,8,0:0:0:0:
256,192,144628,1,8,0:0:0:0:
256,192,144722,1,0,0:0:0:0:
256,192,144815,1,8,0:0:0:0:
256,192,144909,1,0,0:0:0:0:
256,192,145003,1,0,0:0:0:0:
256,192,145097,1,8,0:0:0:0:
256,192,145190,1,0,0:0:0:0:
256,192,145284,1,8,0:0:0:0:
256,192,145378,1,8,0:0:0:0:
256,192,145472,1,0,0:0:0:0:
256,192,145659,1,8,0:0:0:0:
256,192,145753,1,0,0:0:0:0:
256,192,145847,1,0,0:0:0:0:
256,192,145940,1,8,0:0:0:0:
256,192,146034,1,0,0:0:0:0:
256,192,146222,1,8,0:0:0:0:
256,192,146315,1,0,0:0:0:0:
256,192,146409,1,0,0:0:0:0:
256,192,146503,1,0,0:0:0:0:
256,192,146597,1,8,0:0:0:0:
256,192,146784,1,0,0:0:0:0:
256,192,146878,1,0,0:0:0:0:
256,192,146972,1,0,0:0:0:0:
256,192,147065,1,8,0:0:0:0:
256,192,147253,1,0,0:0:0:0:
256,192,147347,1,8,0:0:0:0:
256,192,147534,1,0,0:0:0:0:
256,192,147628,1,0,0:0:0:0:
256,192,147722,1,8,0:0:0:0:
256,192,147909,1,0,0:0:0:0:
256,192,148003,1,0,0:0:0:0:
256,192,148097,1,8,0:0:0:0:
256,192,148190,1,0,0:0:0:0:
256,192,148472,1,0,0:0:0:0:
256,192,148659,1,8,0:0:0:0:
256,192,148753,1,0,0:0:0:0:
256,192,148940,1,8,0:0:0:0:
256,192,149034,1,0,0:0:0:0:
256,192,149222,1,0,0:0:0:0:
256,192,149315,1,0,0:0:0:0:
256,192,149409,1,8,0:0:0:0:
256,192,149503,1,0,0:0:0:0:
256,192,149690,1,0,0:0:0:0:
256,192,149784,1,8,0:0:0:0:
256,192,149972,1,0,0:0:0:0:
256,192,150065,1,8,0:0:0:0:
256,192,150253,1,0,0:0:0:0:
256,192,150347,1,8,0:0:0:0:
256,192,150440,1,8,0:0:0:0:
256,192,150534,1,0,0:0:0:0:
256,192,150628,1,0,0:0:0:0:
256,192,150722,1,0,0:0:0:0:
256,192,150815,1,8,0:0:0:0:
256,192,151003,1,0,0:0:0:0:
256,192,151097,1,0,0:0:0:0:
256,192,151190,1,0,0:0:0:0:
256,192,151284,1,8,0:0:0:0:
256,192,151378,1,8,0:0:0:0:
256,192,151472,1,0,0:0:0:0:
256,192,151659,1,8,0:0:0:0:
256,192,151753,1,0,0:0:0:0:
256,192,151940,1,0,0:0:0:0:
256,192,152128,1,0,0:0:0:0:
256,192,152222,1,0,0:0:0:0:
256,192,152315,1,8,0:0:0:0:
256,192,152409,1,0,0:0:0:0:
256,192,152503,1,0,0:0:0:0:
256,192,152597,1,8,0:0:0:0:
256,192,152690,1,8,0:0:0:0:
256,192,152784,1,0,0:0:0:0:
256,192,152878,1,0,0:0:0:0:
256,192,152972,1,8,0:0:0:0:
256,192,153159,1,0,0:0:0:0:
256,192,153253,1,8,0:0:0:0:
256,192,153440,1,0,0:0:0:0:
256,192,153534,1,8,0:0:0:0:
256,192,153722,1,8,0:0:0:0:
256,192,153815,1,0,0:0:0:0:
256,192,153909,1,0,0:0:0:0:
256,192,154003,1,0,0:0:0:0:
256,192,154097,1,8,0:0:0:0:
256,192,154190,1,0,0:0:0:0:
256,192,154472,1,0,0:0:0:0:
256,192,154597,1,8,0:0:0:0:
256,192,154722,1,0,0:0:0:0:
256,192,154847,1,8,0:0:0:0:
256,192,154972,1,8,0:0:0:0:
256,192,155097,1,0,0:0:0:0:
256,192,155222,1,8,0:0:0:0:
256,192,155347,1,0,0:0:0:0:
256,192,155472,1,0,0:0:0:0:
256,192,155597,1,8,0:0:0:0:
256,192,155722,1,0,0:0:0:0:
256,192,155847,1,0,0:0:0:0:
256,192,155972,1,8,0:0:0:0:
256,192,156097,1,0,0:0:0:0:
256,192,156222,1,8,0:0:0:0:
256,192,156284,1,8,0:0:0:0:
256,192,156347,1,0,0:0:0:0:
256,192,156409,1,0,0:0:0:0:
256,192,156472,1,0,0:0:0:0:
256,192,156597,1,0,0:0:0:0:
256,192,156722,1,8,0:0:0:0:
256,192,156847,1,0,0:0:0:0:
256,192,156909,1,0,0:0:0:0:
256,192,156972,1,0,0:0:0:0:
256,192,157097,1,8,0:0:0:0:
256,192,157222,1,0,0:0:0:0:
256,192,157347,1,8,0:0:0:0:
256,192,157472,1,0,0:0:0:0:
256,192,157597,1,0,0:0:0:0:
256,192,157722,1,8,0:0:0:0:
256,192,157847,1,0,0:0:0:0:
256,192,157972,1,0,0:0:0:0:
256,192,158097,1,8,0:0:0:0:
256,192,158222,1,8,0:0:0:0:
256,192,158347,1,0,0:0:0:0:
256,192,158472,1,0,0:0:0:0:
256,192,158597,1,8,0:0:0:0:
256,192,158722,1,0,0:0:0:0:
256,192,158847,1,0,0:0:0:0:
256,192,158972,1,8,0:0:0:0:
256,192,159034,1,8,0:0:0:0:
256,192,159097,1,0,0:0:0:0:
256,192,159159,1,0,0:0:0:0:
256,192,159222,1,0,0:0:0:0:
256,192,159284,1,0,0:0:0:0:
256,192,159347,1,8,0:0:0:0:
256,192,159409,1,8,0:0:0:0:
256,192,159472,1,0,0:0:0:0:
256,192,159534,1,0,0:0:0:0:
256,192,159597,1,0,0:0:0:0:
256,192,159659,1,0,0:0:0:0:
256,192,159722,1,8,0:0:0:0:
256,192,159784,1,8,0:0:0:0:
256,192,159847,1,8,0:0:0:0:
256,192,159909,1,8,0:0:0:0:
256,192,159972,1,0,0:0:0:0:
256,192,160034,1,0,0:0:0:0:
256,192,160097,1,0,0:0:0:0:
256,192,160159,1,0,0:0:0:0:
256,192,160222,1,8,0:0:0:0:
256,192,160284,1,8,0:0:0:0:
256,192,160347,1,8,0:0:0:0:
256,192,160409,1,8,0:0:0:0:
256,192,160472,1,0,0:0:0:0:
256,192,160565,1,0,0:0:0:0:
256,192,160659,1,0,0:0:0:0:
256,192,160940,1,0,0:0:0:0:
256,192,161128,1,0,0:0:0:0:
256,192,161222,1,8,0:0:0:0:
256,192,161315,1,0,0:0:0:0:
256,192,161409,1,0,0:0:0:0:
256,192,161597,1,0,0:0:0:0:
256,192,161690,1,8,0:0:0:0:
256,192,161972,1,0,0:0:0:0:
256,192,162253,1,0,0:0:0:0:
256,192,162722,1,8,0:0:0:0:
256,192,162909,1,0,0:0:0:0:
256,192,163003,1,0,0:0:0:0:
256,192,163190,1,8,0:0:0:0:
256,192,163378,1,0,0:0:0:0:
256,192,163472,1,8,0:0:0:0:
256,192,163659,1,0,0:0:0:0:
256,192,163753,1,0,0:0:0:0:
256,192,163847,1,0,0:0:0:0:
256,192,163940,1,8,0:0:0:0:
256,192,164128,1,8,0:0:0:0:
256,192,164222,1,0,0:0:0:0:
256,192,164315,1,8,0:0:0:0:
256,192,164409,1,8,0:0:0:0:
256,192,164597,1,0,0:0:0:0:
256,192,164690,1,0,0:0:0:0:
256,192,164784,1,8,0:0:0:0:
256,192,164878,1,0,0:0:0:0:
256,192,164972,1,8,0:0:0:0:
256,192,165159,1,0,0:0:0:0:
256,192,165253,1,0,0:0:0:0:
256,192,165347,1,8,0:0:0:0:
256,192,165440,1,8,0:0:0:0:
256,192,165534,1,0,0:0:0:0:
256,192,165628,1,0,0:0:0:0:
256,192,165722,1,8,0:0:0:0:
256,192,165815,1,8,0:0:0:0:
256,192,165909,1,8,0:0:0:0:
256,192,166003,1,8,0:0:0:0:
256,192,166097,1,0,0:0:0:0:
256,192,166190,1,8,0:0:0:0:
256,192,166284,1,0,0:0:0:0:
256,192,166378,1,0,0:0:0:0:
256,192,166472,1,8,0:0:0:0:
256,192,166565,1,0,0:0:0:0:
256,192,166659,1,8,0:0:0:0:
256,192,166753,1,0,0:0:0:0:
256,192,166847,1,8,0:0:0:0:
256,192,166940,1,8,0:0:0:0:
256,192,167034,1,0,0:0:0:0:
256,192,167128,1,0,0:0:0:0:
256,192,167222,1,8,0:0:0:0:
256,192,167315,1,0,0:0:0:0:
256,192,167409,1,0,0:0:0:0:
256,192,167503,1,0,0:0:0:0:
256,192,167597,1,8,0:0:0:0:
256,192,167690,1,0,0:0:0:0:
256,192,167784,1,8,0:0:0:0:
256,192,167878,1,8,0:0:0:0:
256,192,167972,1,0,0:0:0:0:
256,192,168065,1,0,0:0:0:0:
256,192,168159,1,8,0:0:0:0:
256,192,168253,1,0,0:0:0:0:
256,192,168347,1,8,0:0:0:0:
256,192,168440,1,8,0:0:0:0:
256,192,168534,1,0,0:0:0:0:
256,192,168628,1,0,0:0:0:0:
256,192,168722,1,8,0:0:0:0:
256,192,168815,1,0,0:0:0:0:
256,192,168909,1,8,0:0:0:0:
256,192,169003,1,8,0:0:0:0:
256,192,169097,1,0,0:0:0:0:
256,192,169190,1,0,0:0:0:0:
256,192,169284,1,8,0:0:0:0:
256,192,169378,1,8,0:0:0:0:
256,192,169472,1,0,0:0:0:0:
256,192,169565,1,0,0:0:0:0:
256,192,169659,1,8,0:0:0:0:
256,192,169753,1,0,0:0:0:0:
256,192,169847,1,0,0:0:0:0:
256,192,169940,1,0,0:0:0:0:
256,192,170034,1,8,0:0:0:0:
256,192,170128,1,0,0:0:0:0:
256,192,170222,1,8,0:0:0:0:
256,192,170315,1,8,0:0:0:0:
256,192,170409,1,0,0:0:0:0:
256,192,170503,1,0,0:0:0:0:
256,192,170597,1,8,0:0:0:0:
256,192,170690,1,0,0:0:0:0:
256,192,170784,1,8,0:0:0:0:
256,192,170878,1,8,0:0:0:0:
256,192,170972,1,0,0:0:0:0:
256,192,171065,1,0,0:0:0:0:
256,192,171159,1,8,0:0:0:0:
256,192,171253,1,8,0:0:0:0:
256,192,171347,1,0,0:0:0:0:
256,192,171440,1,8,0:0:0:0:
256,192,171534,1,0,0:0:0:0:
256,192,171628,1,8,0:0:0:0:
256,192,171722,1,0,0:0:0:0:
256,192,171815,1,0,0:0:0:0:
256,192,171909,1,8,0:0:0:0:
256,192,172003,1,0,0:0:0:0:
256,192,172097,5,8,0:0:0:0:
256,192,172472,5,4,0:0:0:0:
256,192,173034,1,0,0:0:0:0:
256,192,173597,1,8,0:0:0:0:
256,192,173972,1,0,0:0:0:0:
256,192,174159,1,0,0:0:0:0:
256,192,174206,1,0,0:0:0:0:
256,192,174253,1,0,0:0:0:0:
256,192,174300,1,0,0:0:0:0:
256,192,174347,1,8,0:0:0:0:
256,192,174440,1,8,0:0:0:0:
256,192,174534,1,0,0:0:0:0:
256,192,174628,1,0,0:0:0:0:
256,192,174722,1,8,0:0:0:0:
256,192,174847,1,0,0:0:0:0:
256,192,174972,1,0,0:0:0:0:
256,192,175097,1,8,0:0:0:0:
256,192,175222,1,0,0:0:0:0:
256,192,175347,1,0,0:0:0:0:
256,192,175472,1,8,0:0:0:0:
256,192,175565,1,8,0:0:0:0:
256,192,175659,1,0,0:0:0:0:
256,192,175753,1,0,0:0:0:0:
256,192,175847,1,8,0:0:0:0:
256,192,175940,1,0,0:0:0:0:
256,192,176034,1,8,0:0:0:0:
256,192,176128,1,8,0:0:0:0:
256,192,176222,1,0,0:0:0:0:
256,192,176315,1,8,0:0:0:0:
256,192,176409,1,0,0:0:0:0:
256,192,176503,1,0,0:0:0:0:
256,192,176597,1,8,0:0:0:0:
256,192,176690,1,0,0:0:0:0:
256,192,176784,1,0,0:0:0:0:
256,192,176878,1,0,0:0:0:0:
256,192,176972,1,8,0:0:0:0:
256,192,177159,1,8,0:0:0:0:
256,192,177253,1,0,0:0:0:0:
256,192,177347,1,8,0:0:0:0:
256,192,177440,1,8,0:0:0:0:
256,192,177534,1,0,0:0:0:0:
256,192,177628,1,0,0:0:0:0:
256,192,177722,1,8,0:0:0:0:
256,192,177815,1,0,0:0:0:0:
256,192,177909,1,8,0:0:0:0:
256,192,178003,1,8,0:0:0:0:
256,192,178097,1,0,0:0:0:0:
256,192,178190,1,8,0:0:0:0:
256,192,178284,1,0,0:0:0:0:
256,192,178378,1,8,0:0:0:0:
256,192,178472,1,0,0:0:0:0:
256,192,178565,1,0,0:0:0:0:
256,192,178659,1,8,0:0:0:0:
256,192,178753,1,8,0:0:0:0:
256,192,178847,1,0,0:0:0:0:
256,192,178940,1,0,0:0:0:0:
256,192,179034,1,8,0:0:0:0:
256,192,179128,1,0,0:0:0:0:
256,192,179222,1,8,0:0:0:0:
256,192,179315,1,8,0:0:0:0:
256,192,179409,1,0,0:0:0:0:
256,192,179503,1,0,0:0:0:0:
256,192,179597,1,8,0:0:0:0:
256,192,179690,1,0,0:0:0:0:
256,192,179784,1,8,0:0:0:0:
256,192,179878,1,8,0:0:0:0:
256,192,179972,1,0,0:0:0:0:
256,192,180065,1,0,0:0:0:0:
256,192,180159,1,8,0:0:0:0:
256,192,180253,1,0,0:0:0:0:
256,192,180347,1,8,0:0:0:0:
256,192,180440,1,8,0:0:0:0:
256,192,180534,1,0,0:0:0:0:
256,192,180628,1,0,0:0:0:0:
256,192,180722,1,8,0:0:0:0:
256,192,180815,1,0,0:0:0:0:
256,192,180909,1,8,0:0:0:0:
256,192,181003,1,0,0:0:0:0:
256,192,181097,1,0,0:0:0:0:
256,192,181190,1,0,0:0:0:0:
256,192,181284,1,8,0:0:0:0:
256,192,181378,1,8,0:0:0:0:
256,192,181472,1,0,0:0:0:0:
256,192,181565,1,0,0:0:0:0:
256,192,181659,1,8,0:0:0:0:
256,192,181753,1,0,0:0:0:0:
256,192,181847,1,8,0:0:0:0:
256,192,181940,1,0,0:0:0:0:
256,192,182034,1,8,0:0:0:0:
256,192,182128,1,8,0:0:0:0:
256,192,182222,1,0,0:0:0:0:
256,192,182315,1,8,0:0:0:0:
256,192,182409,1,0,0:0:0:0:
256,192,182503,1,0,0:0:0:0:
256,192,182597,1,8,0:0:0:0:
256,192,182690,1,8,0:0:0:0:
256,192,182784,1,8,0:0:0:0:
256,192,182878,1,8,0:0:0:0:
256,192,182972,1,0,0:0:0:0:
256,192,183065,1,0,0:0:0:0:
256,192,183159,1,8,0:0:0:0:
256,192,183253,1,8,0:0:0:0:
256,192,183347,1,0,0:0:0:0:
256,192,183440,1,8,0:0:0:0:
256,192,183534,1,0,0:0:0:0:
256,192,183628,1,0,0:0:0:0:
256,192,183722,1,8,0:0:0:0:
384,96,184472,5,4,0:0:0:0:
256,192,184753,1,0,0:0:0:0:
256,192,184847,1,0,0:0:0:0:
256,192,185034,1,0,0:0:0:0:
256,192,185222,1,8,0:0:0:0:
256,192,185315,1,0,0:0:0:0:
256,192,185409,1,0,0:0:0:0:
256,192,185503,1,0,0:0:0:0:
256,192,185597,1,8,0:0:0:0:
256,192,185690,1,0,0:0:0:0:
256,192,185784,1,8,0:0:0:0:
256,192,185878,1,8,0:0:0:0:
256,192,185972,1,0,0:0:0:0:
256,192,186253,1,0,0:0:0:0:
256,192,186534,1,0,0:0:0:0:
256,192,186722,1,8,0:0:0:0:
256,192,186815,1,0,0:0:0:0:
256,192,186909,1,0,0:0:0:0:
256,192,187003,1,0,0:0:0:0:
256,192,187097,1,8,0:0:0:0:
256,192,187190,1,8,0:0:0:0:
256,192,187284,1,0,0:0:0:0:
256,192,187378,1,8,0:0:0:0:
256,192,187472,1,0,0:0:0:0:
256,192,187753,1,8,0:0:0:0:
256,192,187847,1,0,0:0:0:0:
256,192,188034,1,0,0:0:0:0:
256,192,188222,1,8,0:0:0:0:
256,192,188315,1,8,0:0:0:0:
256,192,188409,1,0,0:0:0:0:
256,192,188503,1,0,0:0:0:0:
256,192,188597,1,8,0:0:0:0:
256,192,188690,1,0,0:0:0:0:
256,192,188784,1,0,0:0:0:0:
256,192,188878,1,8,0:0:0:0:
256,192,188972,1,0,0:0:0:0:
256,192,189253,1,0,0:0:0:0:
256,192,189534,1,0,0:0:0:0:
256,192,189722,1,8,0:0:0:0:
256,192,189815,1,0,0:0:0:0:
256,192,189909,1,0,0:0:0:0:
256,192,190003,1,8,0:0:0:0:
256,192,190097,1,8,0:0:0:0:
256,192,190190,1,0,0:0:0:0:
256,192,190284,1,8,0:0:0:0:
256,192,190378,1,8,0:0:0:0:
256,192,190472,1,0,0:0:0:0:
256,192,190753,1,0,0:0:0:0:
256,192,190847,1,0,0:0:0:0:
256,192,191034,1,0,0:0:0:0:
256,192,191222,1,8,0:0:0:0:
256,192,191315,1,8,0:0:0:0:
256,192,191409,1,0,0:0:0:0:
256,192,191503,1,8,0:0:0:0:
256,192,191597,1,0,0:0:0:0:
256,192,191690,1,0,0:0:0:0:
256,192,191784,1,8,0:0:0:0:
256,192,191878,1,8,0:0:0:0:
256,192,191972,1,0,0:0:0:0:
256,192,192253,1,0,0:0:0:0:
256,192,192534,1,0,0:0:0:0:
256,192,192722,1,8,0:0:0:0:
256,192,192815,1,0,0:0:0:0:
256,192,192909,1,0,0:0:0:0:
256,192,193003,1,8,0:0:0:0:
256,192,193097,1,8,0:0:0:0:
256,192,193190,1,0,0:0:0:0:
256,192,193284,1,8,0:0:0:0:
256,192,193378,1,8,0:0:0:0:
256,192,193472,1,0,0:0:0:0:
256,192,193565,1,0,0:0:0:0:
256,192,193659,1,8,0:0:0:0:
256,192,193847,1,8,0:0:0:0:
256,192,193940,1,8,0:0:0:0:
256,192,194034,1,0,0:0:0:0:
256,192,194128,1,0,0:0:0:0:
256,192,194222,1,8,0:0:0:0:
256,192,194315,1,0,0:0:0:0:
256,192,194409,1,8,0:0:0:0:
256,192,194503,1,8,0:0:0:0:
256,192,194597,1,0,0:0:0:0:
256,192,194690,1,0,0:0:0:0:
256,192,194784,1,0,0:0:0:0:
256,192,194878,1,0,0:0:0:0:
256,192,194972,1,8,0:0:0:0:
256,192,195065,1,8,0:0:0:0:
256,192,195159,1,0,0:0:0:0:
256,192,195253,1,8,0:0:0:0:
256,192,195347,1,0,0:0:0:0:
256,192,195440,1,0,0:0:0:0:
256,192,195534,1,8,0:0:0:0:
256,192,195628,1,8,0:0:0:0:
256,192,195722,1,0,0:0:0:0:
256,192,195815,1,0,0:0:0:0:
256,192,195909,1,0,0:0:0:0:
256,192,196003,1,0,0:0:0:0:
256,192,196097,1,8,0:0:0:0:
256,192,196190,1,0,0:0:0:0:
256,192,196284,1,8,0:0:0:0:
384,96,196472,1,4,0:0:0:0:
256,192,196753,1,0,0:0:0:0:
256,192,196847,1,0,0:0:0:0:
256,192,197034,1,0,0:0:0:0:
256,192,197222,1,8,0:0:0:0:
256,192,197315,1,0,0:0:0:0:
256,192,197409,1,0,0:0:0:0:
256,192,197503,1,0,0:0:0:0:
256,192,197597,1,8,0:0:0:0:
256,192,197690,1,0,0:0:0:0:
256,192,197784,1,8,0:0:0:0:
256,192,197878,1,8,0:0:0:0:
256,192,197972,1,0,0:0:0:0:
256,192,198253,1,0,0:0:0:0:
256,192,198534,1,0,0:0:0:0:
256,192,198722,1,8,0:0:0:0:
256,192,198815,1,0,0:0:0:0:
256,192,198909,1,0,0:0:0:0:
256,192,199003,1,0,0:0:0:0:
256,192,199097,1,8,0:0:0:0:
256,192,199190,1,8,0:0:0:0:
256,192,199284,1,0,0:0:0:0:
256,192,199378,1,8,0:0:0:0:
256,192,199472,1,0,0:0:0:0:
256,192,199753,1,8,0:0:0:0:
256,192,199847,1,0,0:0:0:0:
256,192,200034,1,0,0:0:0:0:
256,192,200222,1,8,0:0:0:0:
256,192,200315,1,8,0:0:0:0:
256,192,200409,1,0,0:0:0:0:
256,192,200503,1,0,0:0:0:0:
256,192,200597,1,8,0:0:0:0:
256,192,200690,1,0,0:0:0:0:
256,192,200784,1,0,0:0:0:0:
256,192,200878,1,8,0:0:0:0:
256,192,200972,1,0,0:0:0:0:
256,192,201253,1,0,0:0:0:0:
256,192,201534,1,0,0:0:0:0:
256,192,201722,1,8,0:0:0:0:
256,192,201815,1,0,0:0:0:0:
256,192,201909,1,0,0:0:0:0:
256,192,202003,1,8,0:0:0:0:
256,192,202097,1,8,0:0:0:0:
256,192,202190,1,0,0:0:0:0:
256,192,202284,1,8,0:0:0:0:
256,192,202378,1,8,0:0:0:0:
256,192,202472,1,0,0:0:0:0:
256,192,202753,1,0,0:0:0:0:
256,192,202847,1,0,0:0:0:0:
256,192,203034,1,0,0:0:0:0:
256,192,203222,1,8,0:0:0:0:
256,192,203315,1,8,0:0:0:0:
256,192,203409,1,0,0:0:0:0:
256,192,203503,1,8,0:0:0:0:
256,192,203597,1,0,0:0:0:0:
256,192,203690,1,0,0:0:0:0:
256,192,203784,1,8,0:0:0:0:
256,192,203878,1,8,0:0:0:0:
256,192,203972,1,0,0:0:0:0:
256,192,204253,1,0,0:0:0:0:
256,192,204534,1,0,0:0:0:0:
256,192,204722,1,8,0:0:0:0:
256,192,204815,1,8,0:0:0:0:
256,192,204909,1,0,0:0:0:0:
256,192,205003,1,0,0:0:0:0:
256,192,205097,1,8,0:0:0:0:
256,192,205190,1,0,0:0:0:0:
256,192,205284,1,8,0:0:0:0:
256,192,205378,1,8,0:0:0:0:
256,192,205472,1,0,0:0:0:0:
256,192,205565,1,8,0:0:0:0:
256,192,205659,1,0,0:0:0:0:
256,192,205753,1,0,0:0:0:0:
256,192,205847,1,8,0:0:0:0:
256,192,205940,1,0,0:0:0:0:
256,192,206034,1,0,0:0:0:0:
256,192,206128,1,0,0:0:0:0:
256,192,206222,1,8,0:0:0:0:
256,192,206315,1,8,0:0:0:0:
256,192,206409,1,0,0:0:0:0:
256,192,206503,1,8,0:0:0:0:
256,192,206597,1,0,0:0:0:0:
256,192,206690,1,0,0:0:0:0:
256,192,206784,1,0,0:0:0:0:
256,192,206878,1,0,0:0:0:0:
256,192,206972,1,8,0:0:0:0:
256,192,207065,1,8,0:0:0:0:
256,192,207159,1,0,0:0:0:0:
256,192,207253,1,0,0:0:0:0:
256,192,207347,1,8,0:0:0:0:
256,192,207440,1,0,0:0:0:0:
256,192,207534,1,8,0:0:0:0:
256,192,207628,1,8,0:0:0:0:
256,192,207722,1,0,0:0:0:0:
256,192,207815,1,0,0:0:0:0:
256,192,207909,1,0,0:0:0:0:
256,192,208003,1,0,0:0:0:0:
256,192,208097,1,8,0:0:0:0:
256,192,208190,1,0,0:0:0:0:
256,192,208284,1,8,0:0:0:0:
256,192,208378,1,8,0:0:0:0:
256,192,208472,1,0,0:0:0:0:
256,192,208565,1,0,0:0:0:0:
256,192,208659,1,0,0:0:0:0:
256,192,208940,1,0,0:0:0:0:
256,192,209128,1,0,0:0:0:0:
256,192,209222,1,8,0:0:0:0:
256,192,209315,1,0,0:0:0:0:
256,192,209409,1,0,0:0:0:0:
256,192,209597,1,0,0:0:0:0:
256,192,209690,1,8,0:0:0:0:
256,192,209972,1,0,0:0:0:0:
256,192,210253,1,0,0:0:0:0:
256,192,210722,1,8,0:0:0:0:
256,192,210909,1,0,0:0:0:0:
256,192,211003,1,0,0:0:0:0:
256,192,211190,1,8,0:0:0:0:
256,192,211378,1,0,0:0:0:0:
256,192,211472,1,8,0:0:0:0:
256,192,211659,1,0,0:0:0:0:
256,192,211753,1,0,0:0:0:0:
256,192,211847,1,0,0:0:0:0:
256,192,211940,1,8,0:0:0:0:
256,192,212128,1,8,0:0:0:0:
256,192,212222,1,0,0:0:0:0:
256,192,212315,1,8,0:0:0:0:
256,192,212409,1,8,0:0:0:0:
256,192,212597,1,0,0:0:0:0:
256,192,212690,1,0,0:0:0:0:
256,192,212784,1,8,0:0:0:0:
256,192,212878,1,0,0:0:0:0:
256,192,212972,1,8,0:0:0:0:
256,192,213159,1,0,0:0:0:0:
256,192,213253,1,0,0:0:0:0:
256,192,213347,1,8,0:0:0:0:
256,192,213440,1,8,0:0:0:0:
256,192,213534,1,0,0:0:0:0:
256,192,213628,1,0,0:0:0:0:
256,192,213722,1,8,0:0:0:0:
256,192,213815,1,8,0:0:0:0:
256,192,213909,1,8,0:0:0:0:
256,192,214003,1,8,0:0:0:0:
256,192,214097,1,0,0:0:0:0:
256,192,214190,1,8,0:0:0:0:
256,192,214284,1,0,0:0:0:0:
256,192,214378,1,0,0:0:0:0:
256,192,214472,1,8,0:0:0:0:
256,192,214565,1,0,0:0:0:0:
256,192,214659,1,8,0:0:0:0:
256,192,214753,1,0,0:0:0:0:
256,192,214847,1,8,0:0:0:0:
256,192,214940,1,8,0:0:0:0:
256,192,215034,1,0,0:0:0:0:
256,192,215128,1,0,0:0:0:0:
256,192,215222,1,8,0:0:0:0:
256,192,215315,1,0,0:0:0:0:
256,192,215409,1,0,0:0:0:0:
256,192,215503,1,0,0:0:0:0:
256,192,215597,1,8,0:0:0:0:
256,192,215690,1,0,0:0:0:0:
256,192,215784,1,8,0:0:0:0:
256,192,215878,1,8,0:0:0:0:
256,192,215972,1,0,0:0:0:0:
256,192,216065,1,0,0:0:0:0:
256,192,216159,1,8,0:0:0:0:
256,192,216253,1,0,0:0:0:0:
256,192,216347,1,8,0:0:0:0:
256,192,216440,1,8,0:0:0:0:
256,192,216534,1,0,0:0:0:0:
256,192,216628,1,0,0:0:0:0:
256,192,216722,1,8,0:0:0:0:
256,192,216815,1,0,0:0:0:0:
256,192,216909,1,8,0:0:0:0:
256,192,217003,1,8,0:0:0:0:
256,192,217097,1,0,0:0:0:0:
256,192,217190,1,0,0:0:0:0:
256,192,217284,1,8,0:0:0:0:
256,192,217378,1,8,0:0:0:0:
256,192,217472,1,0,0:0:0:0:
256,192,217565,1,0,0:0:0:0:
256,192,217659,1,8,0:0:0:0:
256,192,217753,1,0,0:0:0:0:
256,192,217847,1,0,0:0:0:0:
256,192,217940,1,0,0:0:0:0:
256,192,218034,1,8,0:0:0:0:
256,192,218128,1,0,0:0:0:0:
256,192,218222,1,8,0:0:0:0:
256,192,218315,1,8,0:0:0:0:
256,192,218409,1,0,0:0:0:0:
256,192,218503,1,0,0:0:0:0:
256,192,218597,1,8,0:0:0:0:
256,192,218690,1,0,0:0:0:0:
256,192,218784,1,8,0:0:0:0:
256,192,218878,1,8,0:0:0:0:
256,192,218972,1,0,0:0:0:0:
256,192,219065,1,0,0:0:0:0:
256,192,219159,1,8,0:0:0:0:
256,192,219253,1,8,0:0:0:0:
256,192,219347,1,0,0:0:0:0:
256,192,219440,1,8,0:0:0:0:
256,192,219534,1,0,0:0:0:0:
256,192,219628,1,8,0:0:0:0:
256,192,219722,1,0,0:0:0:0:
256,192,219815,1,0,0:0:0:0:
256,192,219909,1,8,0:0:0:0:
256,192,220003,1,0,0:0:0:0:
256,192,220097,5,8,0:0:0:0:
384,96,220472,5,4,0:0:0:0:
256,192,221034,1,0,0:0:0:0:
256,192,221597,1,8,0:0:0:0:
256,192,221972,1,0,0:0:0:0:
256,192,222159,1,0,0:0:0:0:
256,192,222206,1,0,0:0:0:0:
256,192,222253,1,0,0:0:0:0:
256,192,222300,1,0,0:0:0:0:
256,192,222347,1,8,0:0:0:0:
256,192,222440,1,8,0:0:0:0:
256,192,222534,1,0,0:0:0:0:
256,192,222628,1,0,0:0:0:0:
256,192,222722,1,8,0:0:0:0:
256,192,222847,1,0,0:0:0:0:
256,192,222972,1,0,0:0:0:0:
256,192,223097,1,8,0:0:0:0:
256,192,223472,1,8,0:0:0:0:
256,192,223565,1,0,0:0:0:0:
256,192,223659,1,8,0:0:0:0:
256,192,223753,1,0,0:0:0:0:
256,192,223847,1,8,0:0:0:0:
256,192,223940,1,0,0:0:0:0:
256,192,224034,1,8,0:0:0:0:
256,192,224128,1,0,0:0:0:0:
256,192,224222,1,8,0:0:0:0:
256,192,224315,1,8,0:0:0:0:
256,192,224409,1,0,0:0:0:0:
256,192,224503,1,0,0:0:0:0:
256,192,224597,1,8,0:0:0:0:
256,192,224690,1,0,0:0:0:0:
256,192,224784,1,0,0:0:0:0:
256,192,224878,1,0,0:0:0:0:
256,192,224972,1,8,0:0:0:0:
256,192,225159,1,8,0:0:0:0:
256,192,225253,1,0,0:0:0:0:
256,192,225347,1,8,0:0:0:0:
256,192,225440,1,8,0:0:0:0:
256,192,225534,1,0,0:0:0:0:
256,192,225628,1,0,0:0:0:0:
256,192,225722,1,8,0:0:0:0:
256,192,225815,1,0,0:0:0:0:
256,192,225909,1,8,0:0:0:0:
256,192,226003,1,8,0:0:0:0:
256,192,226097,1,0,0:0:0:0:
256,192,226190,1,8,0:0:0:0:
256,192,226284,1,0,0:0:0:0:
256,192,226378,1,8,0:0:0:0:
256,192,226472,1,0,0:0:0:0:
256,192,226565,1,0,0:0:0:0:
256,192,226659,1,8,0:0:0:0:
256,192,226753,1,8,0:0:0:0:
256,192,226847,1,0,0:0:0:0:
256,192,226940,1,0,0:0:0:0:
256,192,227034,1,8,0:0:0:0:
256,192,227128,1,0,0:0:0:0:
256,192,227222,1,8,0:0:0:0:
256,192,227315,1,8,0:0:0:0:
256,192,227409,1,0,0:0:0:0:
256,192,227503,1,0,0:0:0:0:
256,192,227597,1,8,0:0:0:0:
256,192,227690,1,0,0:0:0:0:
256,192,227784,1,8,0:0:0:0:
256,192,227878,1,8,0:0:0:0:
256,192,227972,1,0,0:0:0:0:
256,192,228065,1,0,0:0:0:0:
256,192,228159,1,8,0:0:0:0:
256,192,228253,1,0,0:0:0:0:
256,192,228347,1,8,0:0:0:0:
256,192,228440,1,8,0:0:0:0:
256,192,228534,1,0,0:0:0:0:
256,192,228628,1,0,0:0:0:0:
256,192,228722,1,8,0:0:0:0:
256,192,228815,1,0,0:0:0:0:
256,192,228909,1,8,0:0:0:0:
256,192,229003,1,0,0:0:0:0:
256,192,229097,1,0,0:0:0:0:
256,192,229190,1,0,0:0:0:0:
256,192,229284,1,8,0:0:0:0:
256,192,229378,1,8,0:0:0:0:
256,192,229472,1,0,0:0:0:0:
256,192,229565,1,0,0:0:0:0:
256,192,229659,1,8,0:0:0:0:
256,192,229753,1,0,0:0:0:0:
256,192,229847,1,8,0:0:0:0:
256,192,229940,1,0,0:0:0:0:
256,192,230034,1,8,0:0:0:0:
256,192,230128,1,8,0:0:0:0:
256,192,230222,1,0,0:0:0:0:
256,192,230315,1,8,0:0:0:0:
256,192,230409,1,0,0:0:0:0:
256,192,230503,1,0,0:0:0:0:
256,192,230597,1,8,0:0:0:0:
256,192,230690,1,8,0:0:0:0:
256,192,230784,1,8,0:0:0:0:
256,192,230878,1,8,0:0:0:0:
256,192,230972,1,0,0:0:0:0:
256,192,231065,1,0,0:0:0:0:
256,192,231159,1,8,0:0:0:0:
256,192,231253,1,8,0:0:0:0:
256,192,231347,1,0,0:0:0:0:
256,192,231440,1,8,0:0:0:0:
256,192,231534,1,0,0:0:0:0:
256,192,231628,1,0,0:0:0:0:
256,192,231722,1,8,0:0:0:0:
384,96,232472,5,4,0:0:0:0:
256,192,232753,1,0,0:0:0:0:
256,192,232847,1,0,0:0:0:0:
256,192,233034,1,0,0:0:0:0:
256,192,233222,1,8,0:0:0:0:
256,192,233315,1,8,0:0:0:0:
256,192,233409,1,0,0:0:0:0:
256,192,233503,1,0,0:0:0:0:
256,192,233597,1,8,0:0:0:0:
256,192,233690,1,0,0:0:0:0:
256,192,233784,1,8,0:0:0:0:
256,192,233878,1,8,0:0:0:0:
256,192,233972,1,0,0:0:0:0:
256,192,234253,1,0,0:0:0:0:
256,192,234534,1,0,0:0:0:0:
256,192,234722,1,8,0:0:0:0:
256,192,234815,1,8,0:0:0:0:
256,192,234909,1,0,0:0:0:0:
256,192,235003,1,0,0:0:0:0:
256,192,235097,1,8,0:0:0:0:
256,192,235190,1,8,0:0:0:0:
256,192,235284,1,0,0:0:0:0:
256,192,235378,1,8,0:0:0:0:
256,192,235472,1,0,0:0:0:0:
256,192,235753,1,8,0:0:0:0:
256,192,235847,1,0,0:0:0:0:
256,192,236034,1,0,0:0:0:0:
256,192,236222,1,8,0:0:0:0:
256,192,236315,1,0,0:0:0:0:
256,192,236409,1,0,0:0:0:0:
256,192,236503,1,0,0:0:0:0:
256,192,236597,1,8,0:0:0:0:
256,192,236690,1,0,0:0:0:0:
256,192,236784,1,0,0:0:0:0:
256,192,236878,1,8,0:0:0:0:
256,192,236972,1,0,0:0:0:0:
256,192,237253,1,0,0:0:0:0:
256,192,237534,1,0,0:0:0:0:
256,192,237722,1,8,0:0:0:0:
256,192,237815,1,8,0:0:0:0:
256,192,237909,1,0,0:0:0:0:
256,192,238003,1,8,0:0:0:0:
256,192,238097,1,0,0:0:0:0:
256,192,238190,1,0,0:0:0:0:
256,192,238284,1,8,0:0:0:0:
256,192,238378,1,8,0:0:0:0:
256,192,238472,1,0,0:0:0:0:
256,192,238753,1,0,0:0:0:0:
256,192,238847,1,0,0:0:0:0:
256,192,239034,1,0,0:0:0:0:
256,192,239222,1,8,0:0:0:0:
256,192,239315,1,0,0:0:0:0:
256,192,239409,1,0,0:0:0:0:
256,192,239503,1,8,0:0:0:0:
256,192,239597,1,8,0:0:0:0:
256,192,239690,1,0,0:0:0:0:
256,192,239784,1,8,0:0:0:0:
256,192,239878,1,8,0:0:0:0:
256,192,239972,1,0,0:0:0:0:
256,192,240253,1,0,0:0:0:0:
256,192,240534,1,0,0:0:0:0:
256,192,240722,1,8,0:0:0:0:
256,192,240815,1,8,0:0:0:0:
256,192,240909,1,0,0:0:0:0:
256,192,241003,1,0,0:0:0:0:
256,192,241097,1,8,0:0:0:0:
256,192,241190,1,0,0:0:0:0:
256,192,241284,1,8,0:0:0:0:
256,192,241378,1,8,0:0:0:0:
256,192,241472,1,0,0:0:0:0:
256,192,241565,1,0,0:0:0:0:
256,192,241659,1,8,0:0:0:0:
256,192,241847,1,8,0:0:0:0:
256,192,241940,1,0,0:0:0:0:
256,192,242034,1,0,0:0:0:0:
256,192,242128,1,0,0:0:0:0:
256,192,242222,1,8,0:0:0:0:
256,192,242315,1,0,0:0:0:0:
256,192,242409,1,8,0:0:0:0:
256,192,242503,1,8,0:0:0:0:
256,192,242597,1,0,0:0:0:0:
256,192,242690,1,0,0:0:0:0:
256,192,242784,1,0,0:0:0:0:
256,192,242878,1,0,0:0:0:0:
256,192,242972,1,8,0:0:0:0:
256,192,243065,1,8,0:0:0:0:
256,192,243159,1,0,0:0:0:0:
256,192,243253,1,8,0:0:0:0:
256,192,243347,1,0,0:0:0:0:
256,192,243440,1,0,0:0:0:0:
256,192,243534,1,8,0:0:0:0:
256,192,243628,1,8,0:0:0:0:
256,192,243722,1,0,0:0:0:0:
256,192,243815,1,0,0:0:0:0:
256,192,243909,1,0,0:0:0:0:
256,192,244003,1,0,0:0:0:0:
256,192,244097,1,8,0:0:0:0:
256,192,244190,1,0,0:0:0:0:
256,192,244284,1,8,0:0:0:0:
384,96,244472,1,4,0:0:0:0:
256,192,244753,1,0,0:0:0:0:
256,192,244847,1,0,0:0:0:0:
256,192,245034,1,0,0:0:0:0:
256,192,245222,1,8,0:0:0:0:
256,192,245315,1,8,0:0:0:0:
256,192,245409,1,0,0:0:0:0:
256,192,245503,1,0,0:0:0:0:
256,192,245597,1,8,0:0:0:0:
256,192,245690,1,0,0:0:0:0:
256,192,245784,1,8,0:0:0:0:
256,192,245878,1,8,0:0:0:0:
256,192,245972,1,0,0:0:0:0:
256,192,246253,1,0,0:0:0:0:
256,192,246534,1,0,0:0:0:0:
256,192,246722,1,8,0:0:0:0:
256,192,246815,1,8,0:0:0:0:
256,192,246909,1,0,0:0:0:0:
256,192,247003,1,0,0:0:0:0:
256,192,247097,1,8,0:0:0:0:
256,192,247190,1,8,0:0:0:0:
256,192,247284,1,0,0:0:0:0:
256,192,247378,1,8,0:0:0:0:
256,192,247472,1,0,0:0:0:0:
256,192,247753,1,8,0:0:0:0:
256,192,247847,1,0,0:0:0:0:
256,192,248034,1,0,0:0:0:0:
256,192,248222,1,8,0:0:0:0:
256,192,248315,1,0,0:0:0:0:
256,192,248409,1,0,0:0:0:0:
256,192,248503,1,0,0:0:0:0:
256,192,248597,1,8,0:0:0:0:
256,192,248690,1,0,0:0:0:0:
256,192,248784,1,0,0:0:0:0:
256,192,248878,1,8,0:0:0:0:
256,192,248972,1,0,0:0:0:0:
256,192,249253,1,0,0:0:0:0:
256,192,249534,1,0,0:0:0:0:
256,192,249722,1,8,0:0:0:0:
256,192,249815,1,8,0:0:0:0:
256,192,249909,1,0,0:0:0:0:
256,192,250003,1,8,0:0:0:0:
256,192,250097,1,0,0:0:0:0:
256,192,250190,1,0,0:0:0:0:
256,192,250284,1,8,0:0:0:0:
256,192,250378,1,8,0:0:0:0:
256,192,250472,1,0,0:0:0:0:
256,192,250753,1,0,0:0:0:0:
256,192,250847,1,0,0:0:0:0:
256,192,251034,1,0,0:0:0:0:
256,192,251222,1,8,0:0:0:0:
256,192,251315,1,0,0:0:0:0:
256,192,251409,1,0,0:0:0:0:
256,192,251503,1,8,0:0:0:0:
256,192,251597,1,8,0:0:0:0:
256,192,251690,1,0,0:0:0:0:
256,192,251784,1,8,0:0:0:0:
256,192,251878,1,8,0:0:0:0:
256,192,251972,1,0,0:0:0:0:
256,192,252253,1,0,0:0:0:0:
256,192,252534,1,0,0:0:0:0:
256,192,252722,1,8,0:0:0:0:
256,192,252815,1,0,0:0:0:0:
256,192,252909,1,0,0:0:0:0:
256,192,253003,1,0,0:0:0:0:
256,192,253097,1,8,0:0:0:0:
256,192,253190,1,0,0:0:0:0:
256,192,253284,1,8,0:0:0:0:
256,192,253378,1,8,0:0:0:0:
256,192,253472,1,0,0:0:0:0:
256,192,253565,1,8,0:0:0:0:
256,192,253659,1,0,0:0:0:0:
256,192,253753,1,0,0:0:0:0:
256,192,253847,1,8,0:0:0:0:
256,192,253940,1,0,0:0:0:0:
256,192,254034,1,0,0:0:0:0:
256,192,254128,1,0,0:0:0:0:
256,192,254222,1,8,0:0:0:0:
256,192,254315,1,8,0:0:0:0:
256,192,254409,1,0,0:0:0:0:
256,192,254503,1,8,0:0:0:0:
256,192,254597,1,0,0:0:0:0:
256,192,254690,1,0,0:0:0:0:
256,192,254784,1,0,0:0:0:0:
256,192,254878,1,0,0:0:0:0:
256,192,254972,1,8,0:0:0:0:
256,192,255065,1,8,0:0:0:0:
256,192,255159,1,0,0:0:0:0:
256,192,255253,1,0,0:0:0:0:
256,192,255347,1,8,0:0:0:0:
256,192,255440,1,0,0:0:0:0:
256,192,255534,1,8,0:0:0:0:
256,192,255628,1,8,0:0:0:0:
256,192,255722,1,0,0:0:0:0:
256,192,255815,1,0,0:0:0:0:
256,192,255909,1,0,0:0:0:0:
256,192,256003,1,0,0:0:0:0:
256,192,256097,1,8,0:0:0:0:
256,192,256190,1,0,0:0:0:0:
256,192,256284,1,8,0:0:0:0:
256,192,256378,1,8,0:0:0:0:
256,192,256472,1,0,0:0:0:0:
256,192,256847,1,0,0:0:0:0:
256,192,256940,1,8,0:0:0:0:
256,192,257034,1,0,0:0:0:0:
256,192,257128,1,0,0:0:0:0:
256,192,257222,1,0,0:0:0:0:
256,192,257503,1,0,0:0:0:0:
256,192,257784,1,8,0:0:0:0:
256,192,257972,1,0,0:0:0:0:
256,192,258159,1,0,0:0:0:0:
256,192,258534,1,0,0:0:0:0:
256,192,258628,1,8,0:0:0:0:
256,192,258722,1,0,0:0:0:0:
256,192,259003,1,0,0:0:0:0:
256,192,259472,1,0,0:0:0:0:
256,192,259847,1,0,0:0:0:0:
256,192,259940,1,8,0:0:0:0:
256,192,260034,1,0,0:0:0:0:
256,192,260128,1,0,0:0:0:0:
256,192,260222,1,0,0:0:0:0:
256,192,260503,1,0,0:0:0:0:
256,192,260784,1,8,0:0:0:0:
256,192,260972,1,0,0:0:0:0:
256,192,261159,1,0,0:0:0:0:
256,192,261534,1,0,0:0:0:0:
256,192,261628,1,8,0:0:0:0:
256,192,261722,1,0,0:0:0:0:
256,192,262003,1,0,0:0:0:0:
256,192,262472,1,8,0:0:0:0:
256,192,262847,1,0,0:0:0:0:
256,192,262940,1,8,0:0:0:0:
256,192,263034,1,0,0:0:0:0:
256,192,263128,1,0,0:0:0:0:
256,192,263222,1,0,0:0:0:0:
256,192,263503,1,0,0:0:0:0:
256,192,263784,1,8,0:0:0:0:
256,192,263972,1,0,0:0:0:0:
256,192,264159,1,0,0:0:0:0:
256,192,264534,1,0,0:0:0:0:
256,192,264628,1,8,0:0:0:0:
256,192,264722,1,0,0:0:0:0:
256,192,265003,1,0,0:0:0:0:
256,192,265284,1,8,0:0:0:0:
256,192,265378,1,8,0:0:0:0:
256,192,265472,1,0,0:0:0:0:
256,192,265847,1,0,0:0:0:0:
256,192,265940,1,8,0:0:0:0:
256,192,266034,1,0,0:0:0:0:
256,192,266128,1,0,0:0:0:0:
256,192,266222,1,0,0:0:0:0:
256,192,266503,1,0,0:0:0:0:
256,192,266784,1,8,0:0:0:0:
256,192,266972,1,8,0:0:0:0:
256,192,267065,1,0,0:0:0:0:
256,192,267159,1,0,0:0:0:0:
256,192,267253,1,8,0:0:0:0:
256,192,267347,1,0,0:0:0:0:
256,192,267440,1,0,0:0:0:0:
256,192,267534,1,8,0:0:0:0:
256,192,267722,1,0,0:0:0:0:
256,192,267815,1,0,0:0:0:0:
256,192,267909,1,8,0:0:0:0:
256,192,268003,1,8,0:0:0:0:
256,192,268097,1,8,0:0:0:0:
256,192,268190,1,8,0:0:0:0:
256,192,268284,1,0,0:0:0:0:
256,192,268378,1,0,0:0:0:0:
256,192,268472,1,8,0:0:0:0:
256,192,268847,1,0,0:0:0:0:
256,192,268940,1,8,0:0:0:0:
256,192,269034,1,0,0:0:0:0:
256,192,269128,1,8,0:0:0:0:
256,192,269222,1,0,0:0:0:0:
256,192,269503,1,0,0:0:0:0:
256,192,269784,1,8,0:0:0:0:
256,192,269972,1,8,0:0:0:0:
256,192,270159,1,0,0:0:0:0:
256,192,270534,1,0,0:0:0:0:
256,192,270628,1,8,0:0:0:0:
256,192,270722,1,8,0:0:0:0:
256,192,271003,1,0,0:0:0:0:
256,192,271472,1,8,0:0:0:0:
256,192,271847,1,0,0:0:0:0:
256,192,271940,1,8,0:0:0:0:
256,192,272034,1,0,0:0:0:0:
256,192,272128,1,8,0:0:0:0:
256,192,272222,1,0,0:0:0:0:
256,192,272503,1,0,0:0:0:0:
256,192,272784,1,8,0:0:0:0:
256,192,272972,1,8,0:0:0:0:
256,192,273159,1,0,0:0:0:0:
256,192,273534,1,0,0:0:0:0:
256,192,273628,1,8,0:0:0:0:
256,192,273722,1,8,0:0:0:0:
256,192,274003,1,0,0:0:0:0:
256,192,274472,1,8,0:0:0:0:
256,192,274847,1,8,0:0:0:0:
256,192,274940,1,0,0:0:0:0:
256,192,275034,1,8,0:0:0:0:
256,192,275128,1,8,0:0:0:0:
256,192,275222,1,0,0:0:0:0:
256,192,275503,1,0,0:0:0:0:
256,192,275784,1,8,0:0:0:0:
256,192,275972,1,0,0:0:0:0:
256,192,276159,1,0,0:0:0:0:
256,192,276534,1,0,0:0:0:0:
256,192,276628,1,8,0:0:0:0:
256,192,276722,1,0,0:0:0:0:
256,192,277003,1,0,0:0:0:0:
256,192,277472,1,0,0:0:0:0:
256,192,277565,1,0,0:0:0:0:
256,192,277659,1,8,0:0:0:0:
256,192,277753,1,0,0:0:0:0:
256,192,277847,1,8,0:0:0:0:
256,192,277940,1,0,0:0:0:0:
256,192,278034,1,0,0:0:0:0:
256,192,278128,1,0,0:0:0:0:
256,192,278222,1,8,0:0:0:0:
256,192,278315,1,8,0:0:0:0:
256,192,278409,1,0,0:0:0:0:
256,192,278503,1,0,0:0:0:0:
256,192,278597,1,8,0:0:0:0:
256,192,278690,1,0,0:0:0:0:
256,192,278784,1,8,0:0:0:0:
256,192,278972,1,8,0:0:0:0:
256,192,279065,1,8,0:0:0:0:
256,192,279159,1,0,0:0:0:0:
256,192,279253,1,8,0:0:0:0:
256,192,279347,1,0,0:0:0:0:
256,192,279440,1,0,0:0:0:0:
256,192,279534,1,8,0:0:0:0:
256,192,279628,1,0,0:0:0:0:
256,192,279722,1,8,0:0:0:0:
352,96,280472,1,4,0:0:0:0:
256,192,281034,1,0,0:0:0:0:
256,192,281128,1,0,0:0:0:0:
256,192,281222,1,8,0:0:0:0:
256,192,281503,1,8,0:0:0:0:
256,192,281597,1,0,0:0:0:0:
256,192,281784,1,0,0:0:0:0:
256,192,282159,1,8,0:0:0:0:
256,192,282534,1,0,0:0:0:0:
256,192,282628,1,0,0:0:0:0:
256,192,282722,1,8,0:0:0:0:
256,192,283003,1,0,0:0:0:0:
256,192,283097,1,8,0:0:0:0:
256,192,283190,1,8,0:0:0:0:
256,192,283284,1,0,0:0:0:0:
256,192,283472,1,8,0:0:0:0:
256,192,283565,1,0,0:0:0:0:
256,192,283659,1,0,0:0:0:0:
352,64,286472,1,4,0:0:0:0:
256,192,286847,1,8,0:0:0:0:
256,192,287128,1,0,0:0:0:0:
256,192,287222,1,0,0:0:0:0:
256,192,287315,1,8,0:0:0:0:
256,192,287409,1,0,0:0:0:0:
256,192,287597,1,8,0:0:0:0:
256,192,287690,1,0,0:0:0:0:
256,192,287878,1,0,0:0:0:0:
256,192,287972,1,8,0:0:0:0:
256,192,288159,1,8,0:0:0:0:
256,192,288253,1,8,0:0:0:0:
256,192,288347,1,0,0:0:0:0:
256,192,288440,1,0,0:0:0:0:
256,192,288628,1,0,0:0:0:0:
256,192,288722,1,8,0:0:0:0:
256,192,289003,1,0,0:0:0:0:
256,192,289097,1,8,0:0:0:0:
256,192,289190,1,0,0:0:0:0:
256,192,289284,1,8,0:0:0:0:
256,192,289472,1,0,0:0:0:0:
256,192,289753,1,8,0:0:0:0:
256,192,289940,1,8,0:0:0:0:
256,192,290034,1,0,0:0:0:0:
256,192,290128,1,0,0:0:0:0:
256,192,290222,1,0,0:0:0:0:
256,192,290315,1,8,0:0:0:0:
256,192,290409,1,8,0:0:0:0:
256,192,290503,1,0,0:0:0:0:
256,192,290597,1,0,0:0:0:0:
256,192,290690,1,8,0:0:0:0:
256,192,290784,1,8,0:0:0:0:
256,192,290878,1,0,0:0:0:0:
256,192,290972,1,8,0:0:0:0:
352,96,293972,1,4,0:0:0:0:
256,192,294534,1,0,0:0:0:0:
256,192,294628,1,0,0:0:0:0:
256,192,294722,1,8,0:0:0:0:
256,192,295003,1,8,0:0:0:0:
256,192,295097,1,0,0:0:0:0:
256,192,295190,1,0,0:0:0:0:
256,192,295284,1,0,0:0:0:0:
256,192,295659,1,8,0:0:0:0:
256,192,296034,1,0,0:0:0:0:
256,192,296128,1,8,0:0:0:0:
256,192,296222,1,8,0:0:0:0:
256,192,296597,1,8,0:0:0:0:
256,192,296690,1,8,0:0:0:0:
256,192,296784,1,0,0:0:0:0:
256,192,296972,1,8,0:0:0:0:
256,192,297065,1,0,0:0:0:0:
256,192,297159,1,0,0:0:0:0:
352,96,299972,1,4,0:0:0:0:
256,192,300347,1,8,0:0:0:0:
256,192,300628,1,8,0:0:0:0:
256,192,300722,1,0,0:0:0:0:
256,192,300815,1,0,0:0:0:0:
256,192,300909,1,8,0:0:0:0:
256,192,301097,1,0,0:0:0:0:
256,192,301284,1,0,0:0:0:0:
256,192,301472,1,8,0:0:0:0:
256,192,301565,1,0,0:0:0:0:
256,192,301847,1,8,0:0:0:0:
256,192,302222,1,8,0:0:0:0:
256,192,302315,1,0,0:0:0:0:
256,192,302503,1,0,0:0:0:0:
256,192,302597,1,8,0:0:0:0:
256,192,302878,1,8,0:0:0:0:
256,192,302972,1,0,0:0:0:0:
256,192,303347,1,8,0:0:0:0:
256,192,303628,1,0,0:0:0:0:
256,192,303722,1,0,0:0:0:0:
256,192,303815,1,0,0:0:0:0:
256,192,303909,1,8,0:0:0:0:
256,192,304003,1,8,0:0:0:0:
256,192,304097,1,0,0:0:0:0:
256,192,304190,1,8,0:0:0:0:
256,192,304284,1,0,0:0:0:0:
256,192,304378,1,0,0:0:0:0:
256,192,304472,1,8,0:0:0:0:
384,96,305972,1,4,0:0:0:0:
256,192,306534,1,0,0:0:0:0:
256,192,306628,1,0,0:0:0:0:
256,192,306722,1,8,0:0:0:0:
256,192,307003,1,8,0:0:0:0:
256,192,307097,1,0,0:0:0:0:
256,192,307190,1,0,0:0:0:0:
256,192,307284,1,0,0:0:0:0:
256,192,307659,1,8,0:0:0:0:
256,192,308034,1,0,0:0:0:0:
256,192,308128,1,0,0:0:0:0:
256,192,308222,1,8,0:0:0:0:
256,192,308503,1,0,0:0:0:0:
256,192,308597,1,8,0:0:0:0:
256,192,308690,1,8,0:0:0:0:
256,192,308784,1,0,0:0:0:0:
256,192,308878,1,0,0:0:0:0:
256,192,308972,1,8,0:0:0:0:
256,192,309065,1,0,0:0:0:0:
256,192,309159,1,0,0:0:0:0:
384,96,311972,1,4,0:0:0:0:
256,192,312347,1,8,0:0:0:0:
256,192,312628,1,0,0:0:0:0:
256,192,312722,1,0,0:0:0:0:
256,192,312815,1,8,0:0:0:0:
256,192,312909,1,0,0:0:0:0:
256,192,313097,1,8,0:0:0:0:
256,192,313190,1,0,0:0:0:0:
256,192,313378,1,0,0:0:0:0:
256,192,313472,1,8,0:0:0:0:
256,192,313659,1,8,0:0:0:0:
256,192,313753,1,8,0:0:0:0:
256,192,313847,1,0,0:0:0:0:
256,192,313940,1,0,0:0:0:0:
256,192,314128,1,0,0:0:0:0:
256,192,314222,1,8,0:0:0:0:
256,192,314503,1,0,0:0:0:0:
256,192,314597,1,8,0:0:0:0:
256,192,314690,1,0,0:0:0:0:
256,192,314784,1,8,0:0:0:0:
256,192,314972,1,0,0:0:0:0:
256,192,315253,1,8,0:0:0:0:
256,192,315440,1,8,0:0:0:0:
256,192,315534,1,0,0:0:0:0:
256,192,315628,1,0,0:0:0:0:
256,192,315722,1,0,0:0:0:0:
256,192,315815,1,8,0:0:0:0:
256,192,315909,1,8,0:0:0:0:
256,192,316003,1,0,0:0:0:0:
256,192,316097,1,0,0:0:0:0:
256,192,316190,1,8,0:0:0:0:
256,192,316284,1,8,0:0:0:0:
256,192,316378,1,0,0:0:0:0:
256,192,316472,1,8,0:0:0:0:
352,96,317972,1,4,0:0:0:0:
256,192,318534,1,0,0:0:0:0:
256,192,318628,1,0,0:0:0:0:
256,192,318722,1,8,0:0:0:0:
256,192,319003,1,8,0:0:0:0:
256,192,319097,1,0,0:0:0:0:
256,192,319190,1,0,0:0:0:0:
256,192,319284,1,0,0:0:0:0:
256,192,319659,1,8,0:0:0:0:
256,192,320034,1,0,0:0:0:0:
256,192,320128,1,8,0:0:0:0:
256,192,320222,1,8,0:0:0:0:
256,192,320597,1,8,0:0:0:0:
256,192,320690,1,8,0:0:0:0:
256,192,320784,1,0,0:0:0:0:
256,192,320972,1,8,0:0:0:0:
256,192,321065,1,0,0:0:0:0:
256,192,321159,1,0,0:0:0:0:
384,96,323972,1,4,0:0:0:0:
256,192,324159,1,8,0:0:0:0:
256,192,324222,1,8,0:0:0:0:
256,192,324284,1,8,0:0:0:0:
256,192,324347,1,0,0:0:0:0:
256,192,324472,1,8,0:0:0:0:
256,192,324597,1,8,0:0:0:0:
256,192,324722,1,0,0:0:0:0:
256,192,324909,1,8,0:0:0:0:
256,192,324972,1,8,0:0:0:0:
256,192,325034,1,8,0:0:0:0:
256,192,325097,1,0,0:0:0:0:
256,192,325222,1,0,0:0:0:0:
256,192,325347,1,0,0:0:0:0:
256,192,325472,1,8,0:0:0:0:
256,192,325659,1,8,0:0:0:0:
256,192,325722,1,0,0:0:0:0:
256,192,325784,1,0,0:0:0:0:
256,192,325847,1,8,0:0:0:0:
256,192,326034,1,0,0:0:0:0:
256,192,326097,1,0,0:0:0:0:
256,192,326159,1,0,0:0:0:0:
256,192,326222,1,8,0:0:0:0:
256,192,326347,1,0,0:0:0:0:
256,192,326472,1,0,0:0:0:0:
256,192,326597,1,8,0:0:0:0:
256,192,326722,1,0,0:0:0:0:
256,192,326847,1,8,0:0:0:0:
256,192,326972,1,8,0:0:0:0:
256,192,327097,1,0,0:0:0:0:
256,192,327222,1,8,0:0:0:0:
256,192,327347,1,0,0:0:0:0:
256,192,327409,1,0,0:0:0:0:
256,192,327472,1,8,0:0:0:0:
256,192,327597,1,0,0:0:0:0:
256,192,327722,1,8,0:0:0:0:
256,192,327847,1,0,0:0:0:0:
256,192,327972,1,8,0:0:0:0:
256,192,328097,1,0,0:0:0:0:
256,192,328222,1,8,0:0:0:0:
256,192,328284,1,8,0:0:0:0:
256,192,328347,1,0,0:0:0:0:
256,192,328409,1,0,0:0:0:0:
256,192,328472,1,8,0:0:0:0:
256,192,328534,1,8,0:0:0:0:
256,192,328597,1,8,0:0:0:0:
256,192,328659,1,8,0:0:0:0:
256,192,328722,1,0,0:0:0:0:
256,192,328784,1,0,0:0:0:0:
256,192,328847,1,0,0:0:0:0:
256,192,328909,1,0,0:0:0:0:
256,192,328972,1,8,0:0:0:0:
256,192,329034,1,8,0:0:0:0:
256,192,329097,1,0,0:0:0:0:
256,192,329159,1,0,0:0:0:0:
256,192,329222,1,8,0:0:0:0:
256,192,329284,1,8,0:0:0:0:
256,192,329347,1,0,0:0:0:0:
256,192,329409,1,0,0:0:0:0:
256,192,329472,1,8,0:0:0:0:
256,192,329534,1,8,0:0:0:0:
256,192,329597,1,8,0:0:0:0:
256,192,329659,1,8,0:0:0:0:
256,192,329722,1,8,0:0:0:0:
256,192,329784,1,8,0:0:0:0:
256,192,329847,1,8,0:0:0:0:
256,192,329909,1,8,0:0:0:0:
256,192,329972,1,0,0:0:0:0:
256,192,331472,5,0,0:0:0:0:
256,192,332972,1,8,0:0:0:0:
256,192,334472,1,8,0:0:0:0:
256,192,335972,1,0,0:0:0:0:
256,192,337472,1,8,0:0:0:0:
256,192,338972,1,8,0:0:0:0:
256,192,340472,1,8,0:0:0:0:
256,192,341972,1,0,0:0:0:0:
256,192,343472,1,8,0:0:0:0:
256,192,344972,1,8,0:0:0:0:
256,192,346472,1,0,0:0:0:0:
256,192,347222,1,0,0:0:0:0:
256,192,347972,1,8,0:0:0:0:
256,192,349472,1,8,0:0:0:0:
256,192,350222,1,0,0:0:0:0:
256,192,350972,1,8,0:0:0:0:
256,192,352472,1,0,0:0:0:0:
256,192,353972,1,0,0:0:0:0:
256,192,355472,1,8,0:0:0:0:
256,192,356972,1,8,0:0:0:0:
256,192,358472,1,0,0:0:0:0:
256,192,359972,1,8,0:0:0:0:
256,192,361472,1,8,0:0:0:0:
256,192,362972,1,8,0:0:0:0:
256,192,364472,1,8,0:0:0:0:
256,192,365972,12,8,370472,0:0:0:0:
