osu file format v14

[General]
AudioFilename: audio.mp3
AudioLeadIn: 0
PreviewTime: 78242
Countdown: 0
SampleSet: Drum
StackLeniency: 0.2
Mode: 0
LetterboxInBreaks: 0
WidescreenStoryboard: 0

[Editor]
Bookmarks: 39902,70622,83711,140496,149136,160656,168336
DistanceSpacing: 0.4
BeatDivisor: 4
GridSize: 4
TimelineZoom: 1.8

[Metadata]
Title:Far From Truth
TitleUnicode:Far From Truth
Artist:BLANKFIELD
ArtistUnicode:BLANKFIELD
Creator:Hey lululu
Version:Close To False
Source:東方妖々夢 ~ Perfect Cherry Blossom.
Tags:warinside Fast Forward to End of East アルティメットトゥルース Team Shanghai Alice 上海アリス幻樂団 progressive metal Instrumental video game Mappers' Guild Featured Artist FA 太田 順也 ZUN Touhou TH 東方Project PCB Comiket 77 Ultimate Truth Stage 6 Theme eiri- fieryrage IsomirDiAngelo Crissa lu^3 ayyri
BeatmapID:2444513
BeatmapSetID:1171995

[Difficulty]
HPDrainRate:6
CircleSize:4.2
OverallDifficulty:9
ApproachRate:9.7
SliderMultiplier:1.8
SliderTickRate:1

[Events]
//Background and Video events
0,0,"BG.jpg",0,0
//Break Periods
2,39992,42987
2,78392,83196
//Storyboard Layer 0 (Background)
//Storyboard Layer 1 (Fail)
//Storyboard Layer 2 (Pass)
//Storyboard Layer 3 (Foreground)
//Storyboard Layer 4 (Overlay)
//Storyboard Sound Samples

[TimingPoints]
9192,240,4,3,1,80,1,0
16392,-83.3333333333333,4,3,1,80,0,0
16632,-100,4,3,1,80,0,0
35832,-83.3333333333333,4,3,1,80,0,0
43752,-333.333333333333,4,3,1,80,0,0
47112,-100,4,3,1,80,0,0
47592,-83.3333333333333,4,3,1,90,0,1
61752,-125,4,3,1,90,0,1
61992,-100,4,3,1,90,0,1
62952,-100,4,3,1,80,0,0
66552,-166.666666666667,4,3,1,80,0,0
66792,-100,4,3,1,80,0,0
74232,-166.666666666667,4,3,1,80,0,0
74472,-100,4,3,1,80,0,0
78312,491.803278688525,3,3,1,80,1,0
83721,-333.333333333333,3,3,1,80,0,0
84213,-100,3,3,1,80,0,0
94295,-66.6666666666667,3,3,1,80,0,0
101918,491.803278688525,4,3,1,70,1,0
101918,-142.857142857143,4,3,1,70,0,0
109786,480,4,3,1,70,1,0
116986,-200,4,3,1,70,0,0
125146,240,4,3,1,70,1,0
125146,-200,4,3,1,70,0,0
126106,-100,4,3,1,80,0,0
133306,-83.3333333333333,4,3,1,80,0,0
133546,-100,4,3,1,80,0,0
156466,-90.9090909090909,4,3,1,80,0,0
156586,-83.3333333333333,4,3,1,80,0,0
156706,-76.9230769230769,4,3,1,80,0,0
156826,-100,4,3,1,80,0,0
164266,-83.3333333333333,4,3,1,80,0,0
164506,-100,4,3,1,80,0,0
169306,-100,4,3,1,70,0,0
170266,-100,4,3,1,60,0,0
171226,-100,4,3,1,45,0,0
172186,-100,4,3,1,30,0,0

[Colours]
Combo1 : 221,81,81
Combo2 : 160,131,226
Combo3 : 255,183,255
Combo4 : 128,0,255

[HitObjects]
48,34,9192,6,0,B|15:60|15:60|40:130,1,90,4|8,1:3|0:0,0:0:0:0:
122,293,9432,2,0,B|89:267|89:267|114:197,1,90,0|8,1:3|0:0,0:0:0:0:
204,156,9672,2,0,L|404:108,1,180,0|0,1:3|1:3,0:0:0:0:
413,135,9972,1,0,0:0:0:0:
413,135,10032,1,10,0:1:0:0:
238,13,10152,6,0,P|279:39|325:46,1,90,0|10,1:3|0:1,0:0:0:0:
424,0,10392,1,0,1:3:0:0:
424,0,10452,1,0,0:0:0:0:
424,0,10512,1,8,0:0:0:0:
320,155,10632,2,0,P|317:106|334:63,1,90,0|8,1:3|0:0,0:0:0:0:
424,0,10872,1,0,1:3:0:0:
424,0,10932,1,0,0:0:0:0:
424,0,10992,1,10,0:1:0:0:
498,115,11112,5,0,1:3:0:0:
498,115,11232,1,10,0:1:0:0:
453,225,11352,1,0,1:3:0:0:
430,221,11412,1,0,0:0:0:0:
408,217,11472,1,8,0:0:0:0:
292,297,11592,1,0,1:3:0:0:
292,297,11712,1,8,0:0:0:0:
247,187,11832,1,0,1:3:0:0:
224,191,11892,1,0,0:0:0:0:
202,195,11952,1,10,0:1:0:0:
153,384,12072,6,0,B|174:355|174:355|156:296,1,90,0|10,1:3|0:1,0:0:0:0:
45,259,12312,1,0,1:3:0:0:
36,280,12372,1,0,0:0:0:0:
28,301,12432,1,8,0:0:0:0:
0,92,12552,5,0,0:0:0:0:
0,125,12612,1,0,0:0:0:0:
16,154,12672,1,0,0:0:0:0:
44,172,12732,1,0,0:0:0:0:
77,175,12792,5,8,0:0:0:0:
116,153,12852,1,8,0:0:0:0:
160,151,12912,1,8,0:0:0:0:
201,169,12972,1,8,0:0:0:0:
229,203,13032,6,0,L|207:100,1,90,4|8,1:3|0:0,0:0:0:0:
357,0,13272,2,0,L|335:103,1,90,0|8,1:3|0:0,0:0:0:0:
467,242,13512,2,0,B|512:200|512:200|463:82,1,180,0|0,1:3|1:3,0:0:0:0:
453,61,13812,1,0,0:0:0:0:
453,61,13872,1,10,0:1:0:0:
253,98,13992,6,0,P|198:77|176:35,1,90,0|10,1:3|0:1,0:0:0:0:
343,11,14232,1,0,1:3:0:0:
343,11,14292,1,0,0:0:0:0:
343,11,14352,1,8,0:0:0:0:
439,190,14472,2,0,P|494:169|516:127,1,90,0|8,1:3|0:0,0:0:0:0:
349,103,14712,1,0,1:3:0:0:
349,103,14772,1,0,0:0:0:0:
349,103,14832,1,10,0:1:0:0:
269,147,14952,5,0,1:3:0:0:
269,147,15072,1,10,0:1:0:0:
345,277,15192,1,0,1:3:0:0:
349,254,15252,1,0,0:0:0:0:
354,232,15312,1,8,0:0:0:0:
248,226,15432,1,0,1:3:0:0:
248,226,15552,1,8,0:0:0:0:
167,107,15672,1,0,1:3:0:0:
163,130,15732,1,0,0:0:0:0:
158,152,15792,1,10,0:1:0:0:
77,279,15912,6,0,P|22:262|-15:213,1,90,0|10,1:3|0:1,0:0:0:0:
214,320,16152,1,0,1:3:0:0:
218,343,16212,1,0,0:0:0:0:
223,365,16272,1,8,0:0:0:0:
374,215,16392,6,0,B|423:166|483:206|483:206|450:212|433:233,1,161.999995056153,4|0,0:0|0:0,0:0:0:0:
432,324,16632,2,0,P|468:348|462:276,1,135,2|0,1:1|0:0,0:0:0:0:
370,233,16872,6,0,L|261:257,1,90,4|8,1:3|0:0,0:0:0:0:
188,372,17112,1,0,1:3:0:0:
188,372,17232,1,8,0:0:0:0:
102,283,17352,2,0,P|127:225|112:188,1,90,0|8,1:3|0:0,0:0:0:0:
3,135,17592,1,0,1:3:0:0:
18,143,17652,1,0,0:0:0:0:
33,152,17712,6,0,L|134:133,1,90,10|0,0:1|1:3,0:0:0:0:
179,228,17952,2,0,L|280:209,1,90,10|0,0:1|1:3,0:0:0:0:
361,192,18132,1,0,0:0:0:0:
361,192,18192,1,8,0:0:0:0:
317,18,18312,2,0,P|282:57|277:104,1,90,0|8,1:3|0:0,0:0:0:0:
369,199,18552,1,0,1:3:0:0:
369,199,18612,1,0,0:0:0:0:
369,199,18672,6,0,B|394:176|394:176|372:108,1,90,10|0,0:1|1:3,0:0:0:0:
455,2,18912,2,0,B|430:25|430:25|452:93,1,90,10|0,0:1|1:3,0:0:0:0:
482,158,19092,1,0,0:0:0:0:
482,158,19152,1,8,0:0:0:0:
285,138,19272,2,0,L|181:125,1,90,0|8,1:3|0:0,0:0:0:0:
334,285,19512,1,0,1:3:0:0:
334,285,19572,1,0,0:0:0:0:
334,285,19632,6,0,P|349:239|356:191,1,90,10|0,0:1|1:3,0:0:0:0:
210,8,19872,2,0,P|195:54|188:102,1,90,10|0,0:1|1:3,0:0:0:0:
210,181,20052,1,0,0:0:0:0:
210,181,20112,1,8,0:0:0:0:
376,94,20232,5,0,0:0:0:0:
384,126,20292,1,0,0:0:0:0:
393,159,20352,1,0,0:0:0:0:
402,191,20412,1,0,0:0:0:0:
410,224,20472,5,8,0:0:0:0:
397,267,20532,1,8,0:0:0:0:
384,309,20592,6,0,B|354:297|354:297|276:316,1,90,10|4,0:1|1:3,0:0:0:0:
152,372,20832,2,0,B|182:384|182:384|260:365,1,90,10|0,0:1|1:3,0:0:0:0:
169,260,21072,1,8,0:0:0:0:
71,311,21192,2,0,P|45:278|59:201,1,90,0|8,1:3|0:0,0:0:0:0:
122,150,21432,1,0,1:3:0:0:
122,150,21492,1,0,0:0:0:0:
122,150,21552,6,0,B|167:136|167:136|233:165,1,90,10|0,0:1|1:3,0:0:0:0:
337,277,21792,2,0,B|292:291|292:291|226:262,1,90,10|0,0:1|1:3,0:0:0:0:
298,198,21972,1,0,0:0:0:0:
298,198,22032,1,8,0:0:0:0:
424,116,22152,2,0,B|452:93|452:93|428:6,1,90,0|8,1:3|0:0,0:0:0:0:
290,87,22392,1,0,1:3:0:0:
290,87,22452,1,0,0:0:0:0:
290,87,22512,6,0,L|318:197,1,90,10|0,0:1|1:3,0:0:0:0:
494,309,22752,2,0,L|471:221,1,90,10|0,0:1|1:3,0:0:0:0:
383,224,22992,1,8,0:0:0:0:
300,360,23112,2,0,P|334:321|387:316,1,90,0|8,1:3|0:0,0:0:0:0:
238,215,23352,1,0,1:3:0:0:
238,215,23412,1,0,0:0:0:0:
238,215,23472,6,0,B|200:229|200:229|193:240|193:240|142:261,1,90,10|0,0:1|1:3,0:0:0:0:
0,314,23712,2,0,B|38:328|38:328|45:339|45:339|96:360,1,90,10|0,0:1|1:3,0:0:0:0:
77,204,23952,1,8,0:0:0:0:
131,126,24072,5,4,0:0:0:0:
111,277,24192,1,0,0:0:0:0:
113,116,24312,1,0,1:3:0:0:
126,290,24432,1,0,0:0:0:0:
238,215,24552,6,0,P|214:248|203:301,1,90,4|8,1:3|0:0,0:0:0:0:
311,303,24792,2,0,P|317:343|347:388,1,90,0|8,1:3|0:0,0:0:0:0:
434,323,25032,1,0,1:3:0:0:
434,323,25152,1,8,0:0:0:0:
488,235,25272,1,0,1:3:0:0:
414,166,25392,6,0,L|317:189,1,90,10|0,0:2|1:3,0:0:0:0:
435,0,25632,2,0,B|472:28|472:28|470:98,1,90,10|0,0:2|1:3,0:0:0:0:
326,186,25872,1,8,0:0:0:0:
263,127,25992,2,0,L|277:37,1,90,0|8,1:3|0:0,0:0:0:0:
115,0,26232,1,0,1:3:0:0:
115,0,26292,1,0,0:0:0:0:
115,0,26352,6,0,B|91:39|91:39|112:102,1,90,10|0,0:2|1:3,0:0:0:0:
68,258,26592,2,0,B|92:219|92:219|71:156,1,90,10|0,0:2|1:3,0:0:0:0:
6,126,26832,1,8,0:0:0:0:
6,126,26952,1,0,1:3:0:0:
88,167,27072,1,8,0:0:0:0:
198,98,27192,1,0,1:3:0:0:
198,98,27252,1,0,0:0:0:0:
198,98,27312,6,0,P|227:141|220:197,1,90,10|0,0:2|1:3,0:0:0:0:
296,250,27552,2,0,P|335:228|355:189,1,90,10|0,0:2|1:3,0:0:0:0:
159,237,27792,1,8,0:0:0:0:
304,370,27912,5,0,0:0:0:0:
325,344,27972,1,0,0:0:0:0:
353,325,28032,1,0,0:0:0:0:
385,315,28092,1,0,0:0:0:0:
419,313,28152,5,8,0:0:0:0:
440,274,28212,1,8,0:0:0:0:
440,230,28272,1,8,0:0:0:0:
419,190,28332,1,8,0:0:0:0:
382,166,28392,6,0,P|360:199|348:271,1,90,4|8,1:3|0:0,0:0:0:0:
308,81,28632,2,0,P|330:48|342:-24,1,90,0|8,1:3|0:0,0:0:0:0:
150,93,28872,2,0,P|160:136|184:174,1,90,0|8,1:3|0:0,0:0:0:0:
275,161,29112,1,0,1:3:0:0:
275,161,29172,1,0,0:0:0:0:
275,161,29232,1,10,0:2:0:0:
155,262,29352,6,0,L|61:276,1,90,0|10,1:3|0:2,0:0:0:0:
288,354,29592,1,0,1:3:0:0:
288,354,29652,1,0,0:0:0:0:
288,354,29712,1,8,0:0:0:0:
377,177,29832,2,0,L|471:191,1,90,0|8,1:3|0:0,0:0:0:0:
244,269,30072,1,0,1:3:0:0:
244,269,30132,1,0,0:0:0:0:
244,269,30192,1,10,0:2:0:0:
385,187,30312,6,0,B|401:168|401:168|378:88,1,90,0|10,1:3|0:2,0:0:0:0:
284,34,30552,1,0,1:3:0:0:
284,34,30612,1,0,0:0:0:0:
284,34,30672,1,8,0:0:0:0:
149,3,30792,2,0,B|165:22|165:22|142:102,1,90,0|8,1:3|0:0,0:0:0:0:
48,156,31032,1,0,1:3:0:0:
48,156,31092,1,0,0:0:0:0:
48,156,31152,1,8,0:0:0:0:
16,269,31272,6,0,B|62:254|62:254|98:258|98:258|142:246,2,120,4|0|0,3:3|0:0|0:0,0:0:0:0:
281,365,31752,2,0,B|235:350|235:350|199:354|199:354|155:342,2,120,4|0|0,3:0|0:0|0:0,0:0:0:0:
398,279,32232,5,4,1:3:0:0:
332,187,32352,2,0,B|341:154|341:154|356:139|356:139|366:85,1,90,8|0,0:0|1:3,0:0:0:0:
356,8,32592,1,8,0:0:0:0:
227,0,32712,2,0,P|258:45|258:94,1,90,0|8,1:3|0:0,0:0:0:0:
140,172,32952,1,0,1:3:0:0:
27,51,33072,6,0,B|69:39|69:39|107:65,1,90,10|0,0:1|1:3,0:0:0:0:
22,63,33312,2,0,B|60:89|60:89|102:77,1,90,10|0,0:1|1:3,0:0:0:0:
189,78,33552,1,8,0:0:0:0:
273,200,33672,2,0,P|295:159|294:110,1,90,0|8,1:3|0:0,0:0:0:0:
194,269,33912,1,0,1:3:0:0:
194,269,33972,1,0,0:0:0:0:
194,269,34032,6,0,P|172:228|173:179,1,90,10|0,0:1|1:3,0:0:0:0:
204,267,34272,2,0,P|202:222|181:183,1,90,10|0,0:1|1:3,0:0:0:0:
55,347,34512,1,8,0:0:0:0:
0,245,34632,2,0,L|111:265,1,90,0|8,1:3|0:0,0:0:0:0:
285,297,34872,1,0,1:3:0:0:
285,297,34932,1,0,0:0:0:0:
285,297,34992,6,0,P|314:264|373:261,1,90,10|0,0:1|1:3,0:0:0:0:
284,310,35232,2,0,P|313:343|372:346,1,90,10|4,0:1|1:3,0:0:0:0:
461,308,35472,1,8,0:0:0:0:
494,174,35592,6,0,L|505:228,1,45
512,227,35712,2,0,L|503:182,1,45
437,56,35832,6,0,L|423:121,1,53.9999983520508,8|8,0:0|0:0,0:0:0:0:
415,119,35952,2,0,L|425:65,1,53.9999983520508,10|8,0:1|0:0,0:0:0:0:
341,16,36072,5,4,1:3:0:0:
277,99,36192,2,0,L|152:79,1,107.999996704102,10|0,0:1|1:3,0:0:0:0:
76,221,36432,1,8,0:0:0:0:
12,135,36552,1,0,1:3:0:0:
150,57,36672,1,8,0:0:0:0:
57,0,36792,1,0,1:3:0:0:
57,0,36852,1,0,0:0:0:0:
57,0,36912,6,0,B|35:77|35:77|65:110,1,107.999996704102,10|0,0:1|1:3,0:0:0:0:
77,114,37152,2,0,B|99:37|99:37|69:4,1,107.999996704102,10|0,0:1|1:3,0:0:0:0:
0,262,37392,1,8,0:0:0:0:
147,369,37512,2,0,P|186:339|244:336,1,107.999996704102,0|8,1:3|0:0,0:0:0:0:
358,315,37752,1,0,1:3:0:0:
358,315,37812,1,0,0:0:0:0:
358,315,37872,6,0,P|328:275|273:256,1,107.999996704102,10|0,0:1|1:3,0:0:0:0:
266,236,38112,2,0,P|296:196|351:177,1,107.999996704102,10|0,0:1|1:3,0:0:0:0:
467,222,38352,1,8,0:0:0:0:
411,122,38472,1,0,1:3:0:0:
446,220,38592,1,8,0:0:0:0:
503,61,38712,1,0,1:3:0:0:
503,61,38772,1,0,0:0:0:0:
503,61,38832,5,8,0:0:0:0:
369,32,38952,2,0,L|311:59,3,53.9999983520508,8|8|8|0,1:3|1:3|1:3|1:3,0:0:0:0:
222,0,39192,2,0,L|200:59,3,53.9999983520508,8|8|8|0,1:3|1:3|1:3|1:3,0:0:0:0:
96,78,39432,2,0,L|123:137,3,53.9999983520508,8|8|8|0,1:3|1:3|1:3|1:3,0:0:0:0:
199,135,39672,5,8,0:0:0:0:
156,321,39792,1,8,0:0:0:0:
256,192,43512,5,8,0:0:0:0:
256,192,43752,5,4,1:3:0:0:
256,192,43872,1,0,1:0:0:0:
162,126,43992,2,0,P|99:122|61:159,1,107.999996704102,4|8,1:2|3:3,0:0:0:0:
256,192,44712,5,4,1:3:0:0:
256,192,44832,1,0,1:0:0:0:
79,162,44952,2,0,B|90:202|90:202|108:217|108:217|120:261,1,107.999996704102,4|8,1:2|3:3,0:0:0:0:
256,192,45672,5,4,1:3:0:0:
256,192,45792,1,0,1:0:0:0:
128,285,45912,2,0,B|150:263|150:263|194:258|227:294,1,107.999996704102,4|8,1:2|3:3,0:0:0:0:
306,370,46632,5,0,0:0:0:0:
313,367,46692,1,0,0:0:0:0:
321,365,46752,1,0,0:0:0:0:
329,363,46812,1,0,0:0:0:0:
341,352,46872,5,0,0:0:0:0:
348,354,46932,1,0,0:0:0:0:
356,356,46992,1,0,0:0:0:0:
364,358,47052,1,0,0:0:0:0:
378,365,47112,6,0,L|392:305,1,45,8|0,0:0|0:0,0:0:0:0:
357,247,47232,1,10,0:0:0:0:
507,23,47592,5,4,1:3:0:0:
507,23,47712,1,8,0:0:0:0:
473,162,47832,2,0,P|419:139|387:54,1,107.999996704102,2|8,1:2|0:0,0:0:0:0:
285,3,48072,2,0,P|231:26|199:111,1,107.999996704102,2|8,1:2|0:0,0:0:0:0:
201,171,48312,1,2,1:2:0:0:
201,171,48372,1,0,0:0:0:0:
201,171,48432,1,8,0:0:0:0:
85,94,48552,5,0,1:3:0:0:
85,94,48672,1,8,0:0:0:0:
119,233,48792,2,0,P|173:210|205:125,1,107.999996704102,2|8,1:2|0:0,0:0:0:0:
307,74,49032,2,0,P|361:97|393:182,1,107.999996704102,2|8,1:2|0:0,0:0:0:0:
391,242,49272,1,2,1:2:0:0:
391,242,49332,1,0,0:0:0:0:
391,242,49392,1,8,0:0:0:0:
256,296,49512,5,0,1:3:0:0:
256,296,49632,1,8,0:0:0:0:
119,219,49752,2,0,P|78:188|-17:193,1,107.999996704102,2|8,1:2|0:0,0:0:0:0:
145,302,49992,2,0,L|170:129,1,161.999995056153,2|0,1:2|0:0,0:0:0:0:
172,109,50232,1,2,1:2:0:0:
21,8,50352,6,0,P|57:50|112:65,1,107.999996704102,10|0,0:2|1:3,0:0:0:0:
247,16,50592,1,8,0:0:0:0:
403,47,50712,1,2,1:2:0:0:
468,155,50832,1,10,0:2:0:0:
431,234,50952,2,0,P|408:232|363:219,1,53.9999983520508,2|0,1:2|0:0,0:0:0:0:
415,312,51072,2,0,P|438:310|483:297,1,53.9999983520508,10|0,0:2|0:0,0:0:0:0:
391,353,51192,2,0,L|224:379,1,161.999995056153,2|0,1:2|0:0,0:0:0:0:
129,329,51432,5,4,1:3:0:0:
129,329,51552,1,8,0:0:0:0:
0,314,51672,2,0,P|39:290|58:227,1,107.999996704102,2|8,1:2|0:0,0:0:0:0:
202,205,51912,2,0,P|188:161|132:126,1,107.999996704102,2|8,1:2|0:0,0:0:0:0:
19,126,52152,1,2,1:2:0:0:
19,126,52212,1,0,0:0:0:0:
19,126,52272,1,8,0:0:0:0:
168,30,52392,5,0,1:3:0:0:
168,30,52512,1,8,0:0:0:0:
39,45,52632,2,0,P|78:69|97:132,1,107.999996704102,2|8,1:2|0:0,0:0:0:0:
241,154,52872,2,0,P|227:197|171:232,1,107.999996704102,2|8,1:2|0:0,0:0:0:0:
58,233,53112,1,2,1:2:0:0:
58,233,53172,1,0,0:0:0:0:
58,233,53232,1,8,0:0:0:0:
140,358,53352,5,0,1:3:0:0:
140,358,53472,1,8,0:0:0:0:
258,323,53592,2,0,P|304:325|354:372,1,107.999996704102,2|8,1:2|0:0,0:0:0:0:
327,166,53832,2,0,P|358:199|360:268,1,107.999996704102,2|8,1:2|0:0,0:0:0:0:
246,218,54072,2,0,B|244:186|223:158|223:158|233:121|233:121|213:99|205:33,1,161.999995056153,2|0,1:2|0:0,0:0:0:0:
204,41,54312,5,4,1:3:0:0:
15,27,54552,1,0,0:0:0:0:
15,27,54612,1,0,0:0:0:0:
15,27,54672,1,0,0:0:0:0:
63,105,54792,1,8,0:0:0:0:
190,131,54912,1,8,0:0:0:0:
314,19,55032,1,8,0:0:0:0:
79,199,55272,5,4,1:3:0:0:
79,199,55392,1,8,0:0:0:0:
190,131,55512,2,0,P|213:77|206:20,1,107.999996704102,2|8,1:3|0:3,0:0:0:0:
300,212,55752,2,0,P|323:265|316:322,1,107.999996704102,2|8,1:3|0:3,0:0:0:0:
438,134,55992,2,0,P|464:117|494:117,1,53.9999983520508,2|0,1:3|0:0,0:0:0:0:
367,63,56112,2,0,P|373:32|394:11,1,53.9999983520508,8|0,0:3|0:0,0:0:0:0:
418,214,56232,5,0,1:3:0:0:
418,214,56352,1,8,0:0:0:0:
307,146,56472,2,0,P|284:92|291:35,1,107.999996704102,2|8,1:3|0:0,0:0:0:0:
197,227,56712,2,0,P|174:280|181:337,1,107.999996704102,2|8,1:3|0:0,0:0:0:0:
59,149,56952,2,0,P|33:132|3:132,1,53.9999983520508,2|0,1:3|0:0,0:0:0:0:
130,78,57072,2,0,P|124:47|103:26,1,53.9999983520508,8|0,0:0|0:0,0:0:0:0:
78,232,57192,5,0,1:3:0:0:
78,232,57312,1,8,0:0:0:0:
285,280,57432,2,0,P|245:241|167:228,1,107.999996704102,2|8,1:3|0:0,0:0:0:0:
291,143,57672,2,0,P|327:104|453:96,1,161.999995056153,2|0,1:3|0:0,0:0:0:0:
453,110,57912,1,2,1:3:0:0:
434,259,58032,6,0,L|414:377,1,107.999996704102,8|2,0:0|1:3,0:0:0:0:
270,384,58272,1,8,0:0:0:0:
114,353,58392,1,2,1:3:0:0:
49,245,58512,1,8,0:0:0:0:
86,166,58632,2,0,P|109:168|154:181,1,53.9999983520508,2|0,1:3|0:0,0:0:0:0:
102,88,58752,2,0,P|79:90|34:103,1,53.9999983520508,8|0,0:0|0:0,0:0:0:0:
130,49,58872,2,0,L|180:225,1,161.999995056153,2|0,1:3|0:0,0:0:0:0:
199,289,59112,5,4,1:3:0:0:
199,289,59232,1,8,0:0:0:0:
256,154,59352,2,0,P|286:109|354:69,1,107.999996704102,2|8,1:3|0:0,0:0:0:0:
102,88,59592,2,0,P|71:43|3:3,1,107.999996704102,2|8,1:3|0:0,0:0:0:0:
222,16,59832,2,0,P|215:46|198:76,1,53.9999983520508,2|0,1:3|0:0,0:0:0:0:
304,130,59952,2,0,P|277:146|244:155,1,53.9999983520508,8|0,0:0|0:0,0:0:0:0:
378,24,60072,5,0,1:3:0:0:
378,24,60192,1,8,0:0:0:0:
435,159,60312,2,0,P|465:203|533:243,1,107.999996704102,2|8,1:3|0:0,0:0:0:0:
281,225,60552,2,0,P|250:269|182:309,1,107.999996704102,2|8,1:3|0:0,0:0:0:0:
401,297,60792,2,0,P|394:267|377:237,1,53.9999983520508,2|0,1:3|0:0,0:0:0:0:
483,183,60912,2,0,P|456:166|423:157,1,53.9999983520508,8|0,0:0|0:0,0:0:0:0:
511,312,61032,5,4,1:3:0:0:
511,312,61152,1,8,0:0:0:0:
352,361,61272,2,0,L|210:390,1,107.999996704102,2|8,1:3|0:0,0:0:0:0:
253,368,61452,1,0,0:0:0:0:
259,352,61512,1,2,1:3:0:0:
115,239,61632,1,8,0:0:0:0:
121,255,61692,1,0,0:0:0:0:
127,271,61752,2,0,P|153:224|144:160,1,108,6|0,1:3|0:0,0:0:0:0:
49,148,61992,6,0,P|29:136|12:73,1,90,0|0,1:3|0:0,0:0:0:0:
142,8,62232,2,0,P|162:20|179:83,1,90
149,171,62472,1,8,0:0:0:0:
149,171,62532,1,0,0:0:0:0:
149,171,62592,1,8,0:0:0:0:
227,224,62712,1,8,0:0:0:0:
328,155,62832,1,8,0:0:0:0:
406,286,62952,6,0,P|412:240|455:185,1,90,4|8,1:3|0:0,0:0:0:0:
466,377,63192,1,0,1:3:0:0:
466,377,63252,1,0,0:0:0:0:
466,377,63312,1,8,0:0:0:0:
390,296,63432,2,0,L|267:325,1,90,0|8,1:3|0:0,0:0:0:0:
214,377,63672,1,0,1:3:0:0:
214,377,63732,1,0,0:0:0:0:
214,377,63792,1,8,0:0:0:0:
265,248,63912,5,0,1:3:0:0:
265,248,64032,1,8,0:0:0:0:
167,144,64152,1,0,1:3:0:0:
167,144,64212,1,0,0:0:0:0:
167,144,64272,1,8,0:0:0:0:
278,228,64392,2,0,L|396:201,1,90,0|8,1:3|0:0,0:0:0:0:
214,377,64632,1,0,1:3:0:0:
214,377,64692,1,0,0:0:0:0:
214,377,64752,1,8,0:0:0:0:
139,242,64872,6,0,P|163:200|167:140,1,90,0|8,1:3|0:0,0:0:0:0:
17,244,65112,1,0,1:3:0:0:
17,244,65172,1,0,0:0:0:0:
17,244,65232,1,8,0:0:0:0:
58,93,65352,2,0,P|65:137|88:175,1,90,0|8,1:3|0:0,0:0:0:0:
242,108,65592,1,0,1:3:0:0:
242,108,65652,1,0,0:0:0:0:
242,108,65712,1,8,0:0:0:0:
346,170,65832,6,0,L|454:194,1,90,0|8,1:3|0:0,0:0:0:0:
504,292,66072,1,0,1:3:0:0:
504,292,66132,1,0,0:0:0:0:
504,292,66192,1,8,0:0:0:0:
395,384,66312,5,0,0:0:0:0:
398,339,66372,1,0,0:0:0:0:
381,298,66432,1,0,0:0:0:0:
348,268,66492,1,0,0:0:0:0:
305,257,66552,6,0,L|214:278,1,80.9999975280763,12|8,0:0|0:0,0:0:0:0:
108,291,66792,6,0,P|60:278|32:172,1,135,4|0,1:3|0:0,0:0:0:0:
23,207,67032,1,0,1:3:0:0:
140,182,67152,2,0,P|139:132|235:77,1,135,12|0,0:0|0:0,0:0:0:0:
198,77,67392,1,8,0:0:0:0:
385,338,67512,2,0,P|433:350|509:270,1,135,4|0,1:3|0:0,0:0:0:0:
500,305,67752,1,0,1:3:0:0:
385,231,67872,2,0,P|409:187|351:93,1,135,12|0,0:0|0:0,0:0:0:0:
383,111,68112,1,8,0:0:0:0:
252,289,68232,1,4,1:3:0:0:
273,180,68352,2,0,L|256:269,1,90,8|0,0:0|1:3,0:0:0:0:
116,384,68592,6,0,B|81:366|81:366|76:297,1,90,8|4,0:0|1:3,0:0:0:0:
111,155,68832,2,0,B|146:173|146:173|151:242,1,90,8|0,0:0|1:3,0:0:0:0:
226,383,69072,1,8,0:0:0:0:
226,383,69192,1,0,1:3:0:0:
319,349,69312,1,8,0:0:0:0:
283,256,69432,1,2,1:3:0:0:
189,288,69552,1,8,0:0:0:0:
127,210,69672,6,0,L|18:228,1,90,4|0,3:3|0:0,0:0:0:0:
237,161,69912,2,0,B|219:189|219:189|223:220,2,60
313,139,70152,2,0,L|422:157,1,90,4|0,3:0|0:0,0:0:0:0:
172,0,70392,2,0,B|190:28|190:28|186:59,2,60
106,52,70632,5,4,1:3:0:0:
259,75,70752,2,0,P|290:43|297:-8,1,90,10|0,0:1|1:3,0:0:0:0:
96,139,70992,2,0,P|104:182|135:214,1,90,8|0,0:0|1:3,0:0:0:0:
250,243,71232,1,8,0:0:0:0:
250,243,71352,1,0,1:3:0:0:
354,154,71472,6,0,P|323:122|316:71,1,90,10|0,0:1|1:3,0:0:0:0:
504,203,71712,2,0,P|495:246|464:278,1,90,10|0,0:1|1:3,0:0:0:0:
381,382,71952,1,8,0:0:0:0:
358,294,72072,1,0,1:3:0:0:
381,382,72192,1,8,0:0:0:0:
412,221,72312,1,0,1:3:0:0:
250,243,72432,6,0,P|215:213|145:211,1,90,10|4,0:1|1:3,0:0:0:0:
314,78,72672,2,0,P|348:48|418:46,1,90,10|0,0:1|1:3,0:0:0:0:
412,221,72912,2,0,L|427:119,1,90,8|0,0:0|1:3,0:0:0:0:
488,321,73152,1,8,0:0:0:0:
381,382,73272,1,0,1:3:0:0:
381,382,73332,1,0,0:0:0:0:
381,382,73392,6,0,B|356:343|356:343|284:326,1,90,10|0,0:1|1:3,0:0:0:0:
147,286,73632,2,0,B|193:283|193:283|243:229,1,90,10|4,0:1|1:3,0:0:0:0:
141,185,73872,1,8,0:0:0:0:
314,144,73992,5,0,0:0:0:0:
275,122,74052,1,0,0:0:0:0:
251,84,74112,1,0,0:0:0:0:
247,40,74172,1,0,0:0:0:0:
266,0,74232,6,0,L|351:15,1,80.9999975280763,8|8,0:0|0:0,0:0:0:0:
372,51,74472,5,4,1:3:0:0:
512,0,74592,2,0,P|484:35|475:78,1,90,10|0,0:1|1:3,0:0:0:0:
504,182,74832,1,8,0:0:0:0:
429,273,74952,2,0,P|419:229|392:194,1,90,0|8,1:3|0:0,0:0:0:0:
340,345,75192,1,0,1:3:0:0:
258,246,75312,6,0,L|369:269,1,90,10|4,0:1|1:3,0:0:0:0:
430,114,75552,2,0,L|319:137,1,90,10|4,0:1|1:3,0:0:0:0:
239,34,75792,1,8,0:0:0:0:
239,34,75852,1,0,0:0:0:0:
239,34,75912,1,0,1:3:0:0:
260,121,76032,1,8,0:0:0:0:
173,96,76152,1,4,1:3:0:0:
327,0,76272,6,0,P|347:28|345:107,1,90,10|4,0:1|1:3,0:0:0:0:
463,152,76512,2,0,P|442:179|366:202,1,90,10|0,0:1|1:3,0:0:0:0:
260,121,76752,1,8,0:0:0:0:
260,121,76872,1,4,1:3:0:0:
84,109,76992,2,0,L|183:94,1,90,8|0,0:0|1:3,0:0:0:0:
9,227,77232,6,0,B|-15:201|-15:201|5:128,1,90,10|4,0:1|1:3,0:0:0:0:
209,279,77472,2,0,B|233:305|233:305|213:378,1,90,10|0,0:1|1:3,0:0:0:0:
133,318,77712,1,8,0:0:0:0:
147,214,77832,5,8,0:0:0:0:
273,145,77952,1,8,0:0:0:0:
427,189,78072,1,8,0:0:0:0:
481,321,78192,1,8,0:0:0:0:
137,75,83721,6,0,L|132:123,1,40.4999987640381,4|0,0:3|0:0,0:0:0:0:
67,149,84213,5,4,0:0:0:0:
69,160,84336,1,0,0:0:0:0:
71,171,84459,1,0,0:0:0:0:
73,182,84582,1,0,0:0:0:0:
75,193,84705,1,10,0:2:0:0:
180,269,84951,1,4,0:2:0:0:
184,242,85074,1,0,0:0:0:0:
261,92,85320,1,0,0:0:0:0:
265,119,85443,1,0,0:0:0:0:
398,199,85689,5,10,0:2:0:0:
398,199,85934,1,0,0:0:0:0:
483,169,86057,1,0,0:0:0:0:
467,257,86180,1,2,0:2:0:0:
404,67,86426,1,4,0:2:0:0:
410,40,86549,1,0,0:0:0:0:
265,144,86795,1,0,0:0:0:0:
271,170,86918,1,0,0:0:0:0:
169,45,87164,5,12,0:2:0:0:
172,33,87287,1,0,0:0:0:0:
174,22,87410,1,0,0:0:0:0:
176,11,87533,1,0,0:0:0:0:
178,0,87656,1,2,0:2:0:0:
265,144,87902,1,4,0:2:0:0:
271,170,88025,1,0,0:0:0:0:
76,30,88271,1,0,0:0:0:0:
70,56,88393,1,0,0:0:0:0:
119,247,88639,5,10,0:2:0:0:
119,247,88885,1,0,0:0:0:0:
34,217,89008,1,0,0:0:0:0:
50,305,89131,1,0,0:0:0:0:
292,384,89377,1,4,0:2:0:0:
286,358,89500,1,0,0:0:0:0:
227,228,89746,1,0,0:0:0:0:
233,202,89869,1,0,0:0:0:0:
481,349,90115,5,4,0:0:0:0:
463,343,90238,1,0,0:0:0:0:
463,325,90361,1,0,0:0:0:0:
481,319,90484,1,0,0:0:0:0:
491,334,90607,1,10,0:2:0:0:
368,384,90852,1,4,0:2:0:0:
374,358,90975,1,0,0:0:0:0:
401,221,91221,1,0,0:0:0:0:
395,247,91344,1,0,0:0:0:0:
259,280,91590,5,10,0:2:0:0:
259,280,91836,1,0,0:0:0:0:
162,258,91959,1,0,0:0:0:0:
65,236,92082,1,2,0:2:0:0:
222,166,92328,1,4,0:2:0:0:
216,140,92451,1,0,0:0:0:0:
189,3,92697,1,0,0:0:0:0:
195,29,92820,1,0,0:0:0:0:
57,124,93066,5,12,0:2:0:0:
75,118,93189,1,0,0:0:0:0:
75,100,93312,1,0,0:0:0:0:
57,94,93434,1,0,0:0:0:0:
47,109,93557,1,2,0:2:0:0:
179,287,93803,1,4,0:2:0:0:
185,261,93926,1,0,0:0:0:0:
212,124,94172,1,0,0:0:0:0:
288,192,94295,6,0,P|346:154|416:159,1,135.000005149842,2|10,0:1|0:2,0:0:0:0:
512,92,94787,2,0,P|486:59|479:23,1,67.5000025749208,2|0,0:1|0:0,0:0:0:0:
401,245,95033,2,0,P|375:278|368:314,1,67.5000025749208,2|0,0:1|0:0,0:0:0:0:
324,101,95279,2,0,L|245:87,1,67.5000025749208,6|0,0:2|0:0,0:0:0:0:
125,33,95525,2,0,P|135:61|142:105,1,67.5000025749208,2|0,0:1|0:0,0:0:0:0:
37,220,95771,2,0,P|47:192|54:148,1,67.5000025749208,2|0,0:2|0:0,0:0:0:0:
22,312,96016,5,4,0:0:0:0:
33,316,96139,1,0,0:0:0:0:
44,319,96262,1,0,0:0:0:0:
54,323,96385,1,0,0:0:0:0:
65,326,96508,1,10,0:2:0:0:
156,215,96754,1,4,0:2:0:0:
162,241,96877,1,0,0:0:0:0:
270,368,97123,1,0,0:0:0:0:
244,360,97246,1,0,0:0:0:0:
320,226,97492,5,10,0:2:0:0:
320,226,97738,1,0,0:0:0:0:
410,197,97861,1,0,0:0:0:0:
488,249,97984,1,2,0:2:0:0:
299,104,98230,1,4,0:2:0:0:
293,130,98352,1,0,0:0:0:0:
185,257,98598,1,0,0:0:0:0:
211,249,98721,1,0,0:0:0:0:
451,59,98967,5,12,0:2:0:0:
440,63,99090,1,0,0:0:0:0:
429,66,99213,1,0,0:0:0:0:
419,70,99336,1,0,0:0:0:0:
408,73,99459,1,2,0:2:0:0:
309,219,99705,1,4,0:2:0:0:
335,227,99828,1,0,0:0:0:0:
227,100,100074,1,0,0:0:0:0:
221,74,100197,1,0,0:0:0:0:
141,237,100443,5,14,0:2:0:0:
141,237,100689,1,0,0:0:0:0:
230,266,100812,1,0,0:0:0:0:
161,329,100934,1,8,0:0:0:0:
227,100,101180,1,8,0:2:0:0:
221,74,101303,1,8,0:0:0:0:
335,227,101549,1,8,0:2:0:0:
329,253,101672,1,8,0:0:0:0:
49,259,101918,6,0,B|20:237|-21:236|-21:236|72:203|96:314|96:314|93:217|145:173|145:173|149:233|122:253,1,472.499985580445,4|0,0:0|0:0,0:0:0:0:
194,338,103885,2,0,B|255:319|311:354|311:354|320:310|362:302|362:302|423:382|516:339|516:339|500:276|445:271,1,472.499985580445,4|0,0:0|0:0,0:0:0:0:
390,220,105852,2,0,B|491:122|399:118|484:5|484:5|317:20|315:126,1,472.499985580445,4|0,0:0|0:0,0:0:0:0:
256,192,107819,2,0,B|306:220|336:155|262:61|144:114|155:250|178:276|238:299|271:266|299:260|299:260|328:260|347:309|428:292,1,472.499985580445,4|0,0:0|0:0,0:0:0:0:
471,214,109786,5,4,0:2:0:0:
471,214,109906,1,0,0:0:0:0:
471,214,110026,1,0,0:0:0:0:
471,214,110746,1,4,0:2:0:0:
471,214,110866,1,0,0:0:0:0:
471,214,110986,1,0,0:0:0:0:
471,214,111706,1,4,0:2:0:0:
471,214,111826,1,0,0:0:0:0:
471,214,111946,1,0,0:0:0:0:
471,214,112666,1,4,0:2:0:0:
471,214,112786,1,0,0:0:0:0:
471,214,112906,1,0,0:0:0:0:
471,214,113626,1,4,0:2:0:0:
471,214,113746,1,0,0:0:0:0:
471,214,113866,1,0,0:0:0:0:
471,214,114586,1,4,0:2:0:0:
471,214,114706,1,0,0:0:0:0:
471,214,114826,1,0,0:0:0:0:
471,214,115546,1,4,0:2:0:0:
471,214,115666,1,0,0:0:0:0:
471,214,115786,1,0,0:0:0:0:
471,214,116506,1,4,0:2:0:0:
471,214,116626,1,0,0:0:0:0:
471,214,116746,1,0,0:0:0:0:
358,171,116986,6,0,L|331:90,1,67.5,4|0,0:0|0:0,0:0:0:0:
401,19,117466,5,4,0:2:0:0:
401,19,117586,1,0,0:0:0:0:
401,19,117706,1,0,0:0:0:0:
401,19,118426,1,4,0:2:0:0:
401,19,118546,1,0,0:0:0:0:
401,19,118666,1,0,0:0:0:0:
401,19,119386,1,4,0:2:0:0:
401,19,119506,1,0,0:0:0:0:
401,19,119626,1,0,0:0:0:0:
401,19,120346,1,4,0:2:0:0:
401,19,120466,1,0,0:0:0:0:
401,19,120586,1,0,0:0:0:0:
401,19,121306,1,4,0:2:0:0:
401,19,121426,1,0,0:0:0:0:
401,19,121546,1,0,0:0:0:0:
401,19,122266,1,4,0:2:0:0:
401,19,122386,1,0,0:0:0:0:
401,19,122506,1,0,0:0:0:0:
401,19,123226,5,4,0:2:0:0:
401,19,123346,1,0,0:0:0:0:
401,19,123466,1,0,0:0:0:0:
305,105,123706,2,0,P|305:119|295:145,1,22.5
231,63,123946,2,0,P|231:49|241:23,1,22.5
401,19,124186,5,4,0:2:0:0:
401,19,124306,1,0,0:0:0:0:
401,19,124426,1,0,0:0:0:0:
437,199,124666,2,0,P|437:213|447:239,1,22.5
511,157,124906,2,0,P|511:143|501:117,1,22.5
256,192,125146,12,0,125866,0:0:0:0:
463,269,126106,6,0,P|470:226|503:181,1,90,4|8,1:3|0:0,0:0:0:0:
397,4,126346,2,0,P|421:41|429:85,1,90,0|8,1:3|0:0,0:0:0:0:
271,166,126586,2,0,L|94:220,1,180,0|0,1:3|1:3,0:0:0:0:
93,247,126886,1,0,0:0:0:0:
93,247,126946,1,10,0:1:0:0:
0,100,127066,6,0,P|35:141|83:155,1,90,0|10,1:3|0:1,0:0:0:0:
163,84,127306,1,0,1:3:0:0:
163,84,127366,1,0,0:0:0:0:
163,84,127426,1,8,0:0:0:0:
203,219,127546,2,0,P|238:178|286:164,1,90,0|8,1:3|0:0,0:0:0:0:
366,235,127786,1,0,1:3:0:0:
366,235,127846,1,0,0:0:0:0:
366,235,127906,1,10,0:1:0:0:
479,175,128026,5,0,1:3:0:0:
479,175,128146,1,10,0:1:0:0:
388,108,128266,1,0,1:3:0:0:
381,86,128326,1,0,0:0:0:0:
375,64,128386,1,8,0:0:0:0:
264,6,128506,1,0,1:3:0:0:
264,6,128626,1,8,0:0:0:0:
173,73,128746,1,0,1:3:0:0:
166,95,128806,1,0,0:0:0:0:
160,117,128866,1,10,0:1:0:0:
30,175,128986,6,0,P|20:127|0:91,1,90,0|10,1:3|0:1,0:0:0:0:
79,273,129226,1,0,1:3:0:0:
79,273,129286,1,0,0:0:0:0:
79,273,129346,1,8,0:0:0:0:
203,222,129466,5,0,0:0:0:0:
235,231,129526,1,0,0:0:0:0:
260,253,129586,1,0,0:0:0:0:
275,283,129646,1,0,0:0:0:0:
277,316,129706,5,8,0:0:0:0:
298,277,129766,1,8,0:0:0:0:
332,246,129826,1,8,0:0:0:0:
373,229,129886,1,8,0:0:0:0:
418,227,129946,6,0,P|422:275|457:327,1,90,4|8,1:3|0:0,0:0:0:0:
393,117,130186,2,0,P|348:132|307:180,1,90,0|8,1:3|0:0,0:0:0:0:
512,88,130426,2,0,P|473:32|363:-1,1,180,0|0,1:3|1:3,0:0:0:0:
348,14,130726,1,0,0:0:0:0:
348,14,130786,1,10,0:1:0:0:
241,88,130906,6,0,B|217:60|217:60|232:4,1,90,0|10,1:3|0:1,0:0:0:0:
326,130,131146,1,0,1:3:0:0:
326,130,131206,1,0,0:0:0:0:
326,130,131266,1,8,0:0:0:0:
233,228,131386,2,0,B|257:256|257:256|242:312,1,90,0|8,1:3|0:0,0:0:0:0:
148,186,131626,1,0,1:3:0:0:
148,186,131686,1,0,0:0:0:0:
148,186,131746,1,10,0:1:0:0:
82,86,131866,5,0,1:3:0:0:
82,86,131986,1,10,0:1:0:0:
152,0,132106,1,0,1:3:0:0:
157,21,132166,1,0,0:0:0:0:
163,43,132226,1,8,0:0:0:0:
328,173,132346,1,0,1:3:0:0:
328,173,132466,1,8,0:0:0:0:
258,87,132586,1,0,1:3:0:0:
253,108,132646,1,0,0:0:0:0:
247,130,132706,1,10,0:1:0:0:
383,239,132826,6,0,P|424:216|504:208,1,90,0|10,1:3|0:1,0:0:0:0:
143,324,133066,2,0,P|102:301|22:293,1,90,0|8,1:3|0:0,0:0:0:0:
235,344,133306,6,0,B|256:346|271:377|271:377|254:327|279:265,1,161.999995056153,4|0,0:0|0:0,0:0:0:0:
308,177,133546,2,0,B|277:204|271:234|271:234|246:216|194:217,1,135,2|0,1:1|0:0,0:0:0:0:
230,127,133786,5,4,1:3:0:0:
89,210,133906,2,0,P|104:170|104:96,1,90,8|0,0:0|1:3,0:0:0:0:
198,14,134146,2,0,P|201:58|216:100,1,90,8|0,0:0|1:3,0:0:0:0:
360,111,134386,1,8,0:0:0:0:
446,11,134506,1,0,1:3:0:0:
446,11,134566,1,0,0:0:0:0:
446,11,134626,6,0,P|478:43|488:105,1,90,10|0,0:1|1:3,0:0:0:0:
316,185,134866,2,0,P|348:153|358:91,1,90,10|0,0:1|1:3,0:0:0:0:
290,7,135106,1,8,0:0:0:0:
262,106,135226,1,0,1:3:0:0:
290,7,135346,1,8,0:0:0:0:
183,38,135466,1,0,1:3:0:0:
183,38,135526,1,0,0:0:0:0:
183,38,135586,6,0,P|137:58|67:58,1,90,10|0,0:1|1:3,0:0:0:0:
3,163,135826,2,0,P|49:183|119:183,1,90,10|0,0:1|1:3,0:0:0:0:
196,145,136066,1,8,0:0:0:0:
271,238,136186,1,0,1:3:0:0:
183,303,136306,1,8,0:0:0:0:
315,157,136426,1,0,1:3:0:0:
315,157,136486,1,0,0:0:0:0:
315,157,136546,6,0,P|349:181|373:238,1,90,10|0,0:1|1:3,0:0:0:0:
408,75,136786,2,0,P|449:67|506:91,1,90,10|0,0:1|1:3,0:0:0:0:
485,193,137026,1,8,0:0:0:0:
425,320,137146,5,0,0:0:0:0:
391,318,137206,1,0,0:0:0:0:
359,328,137266,1,0,0:0:0:0:
332,348,137326,1,0,0:0:0:0:
315,377,137386,5,8,0:0:0:0:
297,336,137446,1,8,0:0:0:0:
266,303,137506,6,0,P|236:323|172:333,1,90,10|4,0:1|1:3,0:0:0:0:
103,208,137746,2,0,P|133:227|197:237,1,90,10|0,0:1|1:3,0:0:0:0:
305,187,137986,1,8,0:0:0:0:
240,92,138106,2,0,L|255:-9,1,90,0|8,1:3|0:0,0:0:0:0:
127,95,138346,1,0,1:3:0:0:
127,95,138406,1,0,0:0:0:0:
127,95,138466,6,0,P|80:124|25:130,1,90,10|0,0:1|1:3,0:0:0:0:
206,196,138706,2,0,P|253:225|308:231,1,90,10|0,0:1|1:3,0:0:0:0:
91,369,138946,1,8,0:0:0:0:
9,306,139066,2,0,B|-5:293|-5:293|12:222,1,90,0|8,1:3|0:0,0:0:0:0:
46,130,139306,1,0,1:3:0:0:
46,130,139366,1,0,0:0:0:0:
46,130,139426,6,0,P|80:167|86:211,1,90,10|0,0:1|1:3,0:0:0:0:
199,342,139666,2,0,P|208:298|239:267,1,90,10|0,0:1|1:3,0:0:0:0:
404,297,139906,1,8,0:0:0:0:
492,218,140026,2,0,P|483:174|452:143,1,90,0|8,1:3|0:0,0:0:0:0:
324,162,140266,1,0,1:3:0:0:
324,162,140326,1,0,0:0:0:0:
324,162,140386,6,0,B|301:132|301:132|323:57,1,90,10|0,0:1|1:3,0:0:0:0:
211,0,140626,2,0,B|234:30|234:30|212:105,1,90,10|0,0:1|1:3,0:0:0:0:
170,169,140866,1,8,0:0:0:0:
20,125,140986,5,4,0:0:0:0:
25,146,141046,1,0,0:0:0:0:
31,168,141106,1,0,0:0:0:0:
37,190,141166,1,0,0:0:0:0:
43,211,141226,1,0,1:3:0:0:
239,246,141466,5,4,1:3:0:0:
285,135,141586,2,0,P|254:94|196:77,1,90,8|0,0:0|1:3,0:0:0:0:
105,1,141826,1,8,0:0:0:0:
20,33,141946,1,0,1:3:0:0:
48,119,142066,1,8,0:0:0:0:
133,91,142186,1,0,1:3:0:0:
133,91,142246,1,0,0:0:0:0:
133,91,142306,6,0,P|173:98|209:151,1,90,10|0,0:2|1:3,0:0:0:0:
210,127,142546,2,0,P|181:93|138:84,1,90,10|0,0:2|1:3,0:0:0:0:
312,119,142786,1,8,0:0:0:0:
394,154,142906,1,0,1:3:0:0:
366,240,143026,1,8,0:0:0:0:
281,212,143146,1,0,1:3:0:0:
281,212,143206,1,0,0:0:0:0:
281,212,143266,6,0,B|255:235|255:235|268:296,1,90,10|0,0:2|1:3,0:0:0:0:
257,286,143506,2,0,B|246:232|246:232|272:209,1,90,10|0,0:2|1:3,0:0:0:0:
453,203,143746,1,8,0:0:0:0:
366,240,143866,1,0,1:3:0:0:
394,326,143986,1,8,0:0:0:0:
479,298,144106,1,0,1:3:0:0:
479,298,144166,1,0,0:0:0:0:
479,298,144226,6,0,P|439:347|436:387,1,90,10|0,0:2|1:3,0:0:0:0:
427,367,144466,2,0,P|439:324|471:293,1,90,10|0,0:2|1:3,0:0:0:0:
366,240,144706,1,8,0:0:0:0:
502,136,144826,5,0,0:0:0:0:
469,143,144886,1,0,0:0:0:0:
437,135,144946,1,0,0:0:0:0:
412,112,145006,1,0,0:0:0:0:
401,81,145066,5,8,0:0:0:0:
359,66,145126,1,8,0:0:0:0:
316,74,145186,1,8,0:0:0:0:
283,105,145246,1,8,0:0:0:0:
271,147,145306,6,0,P|234:124|222:75,1,90,4|8,1:3|0:0,0:0:0:0:
93,15,145546,2,0,P|56:38|44:86,1,90,0|8,1:3|0:0,0:0:0:0:
136,148,145786,1,0,1:3:0:0:
88,234,145906,1,8,0:0:0:0:
163,298,146026,1,0,1:3:0:0:
163,298,146086,1,0,0:0:0:0:
163,298,146146,6,0,P|209:310|245:340,1,90,10|0,0:2|1:3,0:0:0:0:
247,329,146386,2,0,P|211:301|168:290,1,90,10|0,0:2|1:3,0:0:0:0:
136,148,146626,1,8,0:0:0:0:
210,213,146746,1,0,1:3:0:0:
291,157,146866,1,8,0:0:0:0:
365,222,146986,1,0,1:3:0:0:
365,222,147046,1,0,0:0:0:0:
365,222,147106,6,0,B|372:188|372:188|387:173|387:173|397:123,1,90,10|0,0:2|1:3,0:0:0:0:
402,144,147346,2,0,B|395:178|395:178|380:193|380:193|370:243,1,90,10|0,0:2|1:3,0:0:0:0:
289,384,147586,1,8,0:0:0:0:
331,301,147706,1,0,1:3:0:0:
264,228,147826,1,8,0:0:0:0:
308,139,147946,1,0,1:3:0:0:
308,139,148006,1,0,0:0:0:0:
308,139,148066,1,8,0:0:0:0:
171,118,148186,6,0,L|191:-9,2,120,4|0|0,3:3|0:0|0:0,0:0:0:0:
407,270,148666,2,0,L|387:143,2,120,4|0|0,3:0|0:0|0:0,0:0:0:0:
183,342,149146,5,4,1:3:0:0:
0,223,149266,2,0,P|43:222|93:247,1,90,8|0,0:0|1:3,0:0:0:0:
62,70,149506,2,0,P|93:99|110:152,1,90,8|0,0:0|1:3,0:0:0:0:
264,228,149746,1,8,0:0:0:0:
367,130,149866,1,0,1:3:0:0:
367,130,149926,1,0,0:0:0:0:
367,130,149986,6,0,P|327:98|310:38,1,90,10|0,0:1|1:3,0:0:0:0:
479,148,150226,2,0,P|459:188|423:214,1,90,10|0,0:1|1:3,0:0:0:0:
432,326,150466,1,8,0:0:0:0:
340,289,150586,1,0,1:3:0:0:
289,374,150706,1,8,0:0:0:0:
197,337,150826,1,0,1:3:0:0:
197,337,150886,1,0,0:0:0:0:
197,337,150946,6,0,B|217:314|217:314|182:297|168:238,1,90,10|0,0:1|1:3,0:0:0:0:
230,162,151186,2,0,B|210:185|210:185|245:202|259:261,1,90,10|0,0:1|1:3,0:0:0:0:
75,315,151426,1,8,0:0:0:0:
85,216,151546,1,0,1:3:0:0:
95,117,151666,1,8,0:0:0:0:
105,18,151786,1,0,1:3:0:0:
105,18,151846,1,0,0:0:0:0:
105,18,151906,6,0,P|59:16|4:74,1,90,10|4,0:1|1:2,0:0:0:0:
230,162,152146,2,0,P|276:160|331:218,1,90,10|0,0:1|1:3,0:0:0:0:
171,277,152386,1,8,0:0:0:0:
0,248,152506,5,0,0:0:0:0:
3,214,152566,1,0,0:0:0:0:
20,185,152626,1,0,0:0:0:0:
47,166,152686,1,0,0:0:0:0:
80,160,152746,5,8,0:0:0:0:
74,204,152806,1,8,0:0:0:0:
91,245,152866,1,8,0:0:0:0:
127,272,152926,1,8,0:0:0:0:
171,277,152986,6,0,B|203:277|232:243|232:243|274:254|274:254|299:231|348:217,1,180,4|0,1:3|1:3,0:0:0:0:
488,296,153346,2,0,B|443:305|443:305|381:272,1,90,8|4,0:0|1:2,0:0:0:0:
428,128,153586,2,0,B|473:119|473:119|535:152,1,90,8|0,0:0|1:3,0:0:0:0:
329,222,153826,6,0,L|303:129,1,90,10|0,0:1|1:3,0:0:0:0:
270,32,154066,2,0,B|157:77|259:116|123:169,1,180,14|8,0:2|0:0,0:0:0:0:
1,212,154426,2,0,B|120:190|54:277|198:250,1,180,4|0,1:2|1:3,0:0:0:0:
241,348,154786,6,0,P|172:371|153:399,1,90,10|0,0:1|1:3,0:0:0:0:
281,239,155026,2,0,P|350:262|369:290,1,90,10|0,0:1|1:3,0:0:0:0:
459,200,155266,1,8,0:0:0:0:
512,116,155386,1,0,1:3:0:0:
466,31,155506,1,8,0:0:0:0:
366,32,155626,1,0,1:3:0:0:
360,42,155686,1,0,0:0:0:0:
355,52,155746,5,10,0:1:0:0:
342,55,155806,1,0,0:0:0:0:
329,59,155866,1,0,1:3:0:0:
316,63,155926,1,0,0:0:0:0:
303,67,155986,1,2,0:1:0:0:
290,70,156046,1,0,0:0:0:0:
277,74,156106,1,0,0:0:0:0:
264,78,156166,1,0,0:0:0:0:
251,82,156226,1,0,0:0:0:0:
238,86,156286,1,0,0:0:0:0:
225,89,156346,6,0,P|217:112|223:156,1,45,8|0,0:0|0:0,0:0:0:0:
105,179,156466,2,0,P|115:200|150:227,1,49.5000015106202,2|0,0:2|0:0,0:0:0:0:
153,322,156586,2,0,P|176:330|220:324,1,53.9999983520508,8|0,0:0|0:0,0:0:0:0:
329,382,156706,2,0,P|350:371|377:336,1,58.4999973220826,2|0,0:2|0:0,0:0:0:0:
402,245,156826,6,0,P|438:221|508:224,1,90,4|8,1:3|0:0,0:0:0:0:
306,117,157066,2,0,P|261:113|224:88,1,90,0|8,1:3|0:0,0:0:0:0:
420,61,157306,2,0,L|397:147,1,90,0|8,1:3|0:0,0:0:0:0:
287,272,157546,1,0,1:3:0:0:
287,272,157606,1,0,0:0:0:0:
287,272,157666,6,0,P|258:235|258:182,1,90,10|0,0:1|1:3,0:0:0:0:
157,24,157906,2,0,P|152:68|124:102,1,90,10|0,0:1|1:3,0:0:0:0:
40,131,158086,1,0,0:0:0:0:
40,131,158146,1,8,0:0:0:0:
173,222,158266,2,0,P|201:256|205:300,1,90,0|8,1:3|0:0,0:0:0:0:
113,369,158506,1,0,1:3:0:0:
113,369,158566,1,0,0:0:0:0:
113,369,158626,6,0,P|68:357|3:350,1,90,10|0,0:1|1:3,0:0:0:0:
205,300,158866,2,0,P|250:288|315:281,1,90,10|0,0:1|1:3,0:0:0:0:
366,335,159046,1,0,0:0:0:0:
366,335,159106,1,8,0:0:0:0:
474,269,159226,2,0,B|459:245|459:245|480:164,1,90,0|8,1:3|0:0,0:0:0:0:
434,93,159466,1,0,1:3:0:0:
434,93,159526,1,0,0:0:0:0:
434,93,159586,6,0,P|413:130|362:151,1,90,10|4,0:1|1:3,0:0:0:0:
191,160,159826,2,0,P|212:197|263:218,1,90,10|0,0:1|1:3,0:0:0:0:
348,70,160066,1,8,0:0:0:0:
184,4,160186,5,0,0:0:0:0:
151,11,160246,1,0,0:0:0:0:
118,18,160306,1,0,0:0:0:0:
85,25,160366,1,0,0:0:0:0:
52,32,160426,1,8,0:0:0:0:
14,290,160666,6,0,B|24:190|76:255|77:135,1,135,4|0,1:3|0:0,0:0:0:0:
74,174,160906,1,0,1:3:0:0:
221,364,161026,2,0,B|158:285|240:295|157:209,1,135,12|0,0:2|0:0,0:0:0:0:
182,239,161266,1,8,0:0:0:0:
351,340,161386,2,0,B|373:243|303:288|337:185,1,135,4|0,1:2|0:0,0:0:0:0:
329,212,161626,1,0,1:3:0:0:
495,192,161746,2,0,B|443:107|424:188|376:92,1,135,14|0,0:1|0:0,0:0:0:0:
390,116,161986,1,8,0:0:0:0:
224,75,162106,1,4,1:2:0:0:
248,196,162226,2,0,L|226:94,1,90,8|0,0:0|1:3,0:0:0:0:
456,4,162466,6,0,P|482:38|483:103,1,90,10|4,0:1|1:3,0:0:0:0:
410,156,162706,1,10,0:1:0:0:
306,103,162826,1,0,1:3:0:0:
310,124,162886,1,0,0:0:0:0:
315,146,162946,1,8,0:0:0:0:
347,250,163066,5,0,1:3:0:0:
243,197,163186,1,8,0:0:0:0:
247,218,163246,1,0,0:0:0:0:
252,240,163306,1,2,1:3:0:0:
276,329,163426,5,10,0:1:0:0:
172,276,163546,1,4,1:2:0:0:
176,297,163606,1,0,0:0:0:0:
181,319,163666,1,10,0:1:0:0:
8,243,163786,6,0,P|46:246|102:211,1,90,2|8,1:3|0:0,0:0:0:0:
75,58,164026,6,0,L|58:124,1,45
99,165,164146,2,0,L|88:209,1,45
186,39,164266,6,0,L|164:121,1,53.9999983520508,8|8,0:0|0:0,0:0:0:0:
215,172,164386,2,0,L|201:226,1,53.9999983520508,8|8,0:0|0:0,0:0:0:0:
306,89,164506,6,0,P|346:72|406:79,1,90,4|8,1:3|0:0,0:0:0:0:
483,182,164746,1,0,1:3:0:0:
483,182,164866,1,8,0:0:0:0:
394,243,164986,2,0,P|354:226|294:233,1,90,0|8,1:3|0:0,0:0:0:0:
217,336,165226,1,0,1:3:0:0:
217,336,165346,1,10,0:2:0:0:
163,249,165466,6,0,B|143:220|143:220|178:110,1,135,0|0,1:3|0:0,0:0:0:0:
238,58,165706,2,0,B|258:87|258:87|237:169,1,90,0|8,1:3|0:0,0:0:0:0:
81,133,165946,2,0,L|66:36,1,90,0|8,1:3|0:0,0:0:0:0:
289,10,166186,2,0,L|302:98,1,90,0|10,1:3|0:2,0:0:0:0:
470,322,166426,6,0,P|515:269|493:203,1,135,4|0,1:3|0:0,0:0:0:0:
414,187,166666,2,0,L|328:211,1,90,0|8,1:3|0:0,0:0:0:0:
237,344,166906,2,0,B|209:315|209:315|229:249,1,90,0|8,1:3|0:0,0:0:0:0:
170,65,167146,2,0,B|198:94|198:94|178:160,1,90,0|10,1:3|0:2,0:0:0:0:
37,289,167386,5,0,1:3:0:0:
19,275,167446,1,0,0:0:0:0:
6,256,167506,1,10,0:2:0:0:
0,235,167566,1,0,0:0:0:0:
0,213,167626,2,0,L|100:193,1,90,0|8,1:3|0:0,0:0:0:0:
239,174,167866,5,0,0:0:0:0:
272,174,167926,1,0,0:0:0:0:
301,190,167986,1,0,0:0:0:0:
317,219,168046,1,0,0:0:0:0:
317,253,168106,5,8,0:0:0:0:
306,258,168166,1,8,0:0:0:0:
298,265,168226,1,8,0:0:0:0:
291,273,168286,1,8,0:0:0:0:
285,283,168346,5,4,1:3:0:0:
256,192,168406,12,4,172186,0:0:0:0:
