osu file format v14

[General]
AudioFilename: audio.mp3
AudioLeadIn: 0
PreviewTime: 2756
Countdown: 0
SampleSet: Soft
StackLeniency: 0.7
Mode: 0
LetterboxInBreaks: 0
WidescreenStoryboard: 1

[Editor]
Bookmarks: 14756,20294,33217,36909
DistanceSpacing: 1.1
BeatDivisor: 2
GridSize: 16
TimelineZoom: 1.5

[Metadata]
Title:Falling Falls
TitleUnicode:Falling Falls
Artist:BLANKFIELD
ArtistUnicode:BLANKFIELD
Creator:tadahitotsu
Version:Normal
Source:東方風神録 ~ Mountain of Faith.
Tags:東方Project touhou project fuujinroku fall of fall フォールオブフォール ~ 秋めく滝 akimeku taki autumnal waterfall heavy metal at the termination of phantasm guitar drums rock instrumental zun momiji inubashiri video game Team Shanghai Alice featured artist fa th10 nao tomori
BeatmapID:3140319
BeatmapSetID:1535708

[Difficulty]
HPDrainRate:2
CircleSize:3
OverallDifficulty:4.5
ApproachRate:5.5
SliderMultiplier:1.1
SliderTickRate:1

[Events]
//Background and Video events
0,0,"ds.jpg",0,0
//Break Periods
//Storyboard Layer 0 (Background)
//Storyboard Layer 1 (Fail)
//Storyboard Layer 2 (Pass)
//Storyboard Layer 3 (Foreground)
//Storyboard Layer 4 (Overlay)
//Storyboard Sound Samples

[TimingPoints]
1833,230.769230769231,4,2,1,50,1,0
1833,-142.857142857143,4,2,1,50,0,0
2756,-142.857142857143,4,2,1,50,0,0
3679,-125,4,2,1,70,0,1
5871,-125,4,2,1,70,0,1
6563,-125,4,2,1,70,0,1
9563,-125,4,2,1,70,0,1
10486,-125,4,2,1,70,0,1
10948,-125,4,2,1,70,0,1
13256,-125,4,2,1,70,0,1
14756,-142.857142857143,4,2,1,60,0,0
15909,-142.857142857143,4,2,1,60,0,0
16602,-142.857142857143,4,2,1,60,0,0
20294,-133.333333333333,4,2,1,70,0,0
33217,-133.333333333333,4,2,1,50,0,0
36909,-166.666666666667,4,2,1,70,0,0

[Colours]
Combo1 : 240,240,240
Combo2 : 255,107,36
Combo3 : 196,196,196

[HitObjects]
198,347,1833,6,0,P|112:364|83:305,1,153.999995300293,2|2,0:2|0:2,0:0:0:0:
70,184,2756,2,0,L|57:64,2,115.49999647522,6|10|8,3:2|0:2|0:2,0:0:0:0:
147,242,3679,6,0,P|197:197|290:215,1,132,6|10,3:2|0:2,0:0:0:0:
326,265,4256,1,10,0:2:0:0:
415,301,4486,2,0,P|435:242|441:182,1,88,10|10,0:2|0:2,0:0:0:0:
415,173,4833,1,2,3:2:0:0:
270,44,5294,2,0,B|232:73|232:73|182:67,1,88,0|2,3:2|3:2,0:0:0:0:
51,29,5871,5,10,0:2:0:0:
55,125,6102,1,10,0:2:0:0:
58,219,6333,2,0,B|88:260|69:300|69:300|174:226|163:331|286:241,1,308,10|0,0:2|3:2,0:0:0:0:
326,330,7371,6,0,P|364:296|361:208,1,132,6|10,3:2|0:2,0:0:0:0:
293,156,7948,1,10,0:2:0:0:
368,95,8179,2,0,B|335:62|335:62|202:42|202:42|157:64,1,220,10|0,0:2|3:2,0:0:0:0:
130,149,8986,1,2,3:2:0:0:
217,199,9217,6,0,L|201:337,1,132,6|14,3:2|0:2,0:0:0:0:
110,361,9794,2,0,P|45:356|29:316,1,88,14|14,0:2|0:2,0:0:0:0:
52,296,10140,2,0,L|36:164,1,132,2|14,3:2|0:2,0:0:0:0:
109,100,10717,1,10,0:2:0:0:
241,40,11063,6,0,L|409:64,1,132,6|10,3:2|0:2,0:0:0:0:
416,144,11640,1,10,0:2:0:0:
339,203,11871,2,0,P|348:249|351:297,1,88,10|10,0:2|0:2,0:0:0:0:
320,328,12217,1,2,3:2:0:0:
128,354,12679,5,2,3:2:0:0:
147,259,12910,1,2,3:2:0:0:
33,168,13256,2,0,P|75:138|124:134,1,88,10|10,0:2|0:2,0:0:0:0:
186,72,13717,2,0,P|207:134|348:107,1,220,10|8,0:2|0:3,0:0:0:0:
474,242,14756,5,6,3:2:0:0:
376,323,15102,2,0,L|286:340,2,76.9999976501466,6|6|2,3:2|3:2|0:2,0:0:0:0:
474,242,15909,2,0,L|452:143,1,76.9999976501466,0|0,3:2|3:2,0:0:0:0:
388,116,16371,1,2,3:2:0:0:
324,60,16602,6,0,P|283:64|189:116,1,115.49999647522,6|12,3:2|0:2,0:0:0:0:
179,170,17179,1,12,0:2:0:0:
108,216,17409,2,0,L|92:328,1,76.9999976501466,12|14,0:2|0:2,0:0:0:0:
162,346,17871,2,0,P|219:337|236:298,1,76.9999976501466,14|14,0:2|0:2,0:0:0:0:
305,222,18448,6,0,P|354:248|445:317,2,153.999995300293,14|0|8,0:2|3:2|0:3,0:0:0:0:
138,252,19833,1,4,0:3:0:0:
50,93,20294,6,0,B|117:29|127:103|207:44,2,165.000006294251,6|0|0,3:2|3:2|3:2,0:0:0:0:
42,183,21448,2,0,L|61:293,1,82.5000031471254,2|2,3:2|3:2,0:0:0:0:
136,307,21909,1,2,3:2:0:0:
214,352,22140,6,0,P|289:333|287:232,1,165.000006294251,0|0,3:2|3:2,0:0:0:0:
232,197,22833,1,0,3:2:0:0:
168,132,23063,2,0,B|187:87|187:87|243:80|305:35,1,165.000006294251,2|0,3:2|3:2,0:0:0:0:
438,151,23986,6,0,L|417:344,2,165.000006294251,6|0|0,3:2|3:2|3:2,0:0:0:0:
377,83,25140,2,0,P|326:54|275:59,1,82.5000031471254,2|2,3:2|3:2,0:0:0:0:
237,115,25602,1,2,3:2:0:0:
164,60,25833,6,0,P|92:79|82:142,2,123.750004720688,6|14|6,3:2|0:2|3:2,0:0:0:0:
237,115,26756,1,0,3:2:0:0:
284,289,27217,1,10,0:2:0:0:
116,360,27679,6,0,P|59:346|50:240,2,165.000006294251,6|0|0,3:2|3:2|0:0,0:0:0:0:
165,283,28833,2,0,B|174:251|174:251|137:176,1,82.5000031471254,2|2,3:2|3:2,0:0:0:0:
106,129,29294,1,2,3:2:0:0:
182,79,29525,6,0,P|214:120|314:92,1,165.000006294251,0|2,3:2|0:2,0:0:0:0:
348,12,30217,1,0,3:2:0:0:
428,54,30448,2,0,P|419:118|409:229,1,165.000006294251,0|0,3:2|3:2,0:0:0:0:
464,290,31140,1,0,3:2:0:0:
382,330,31371,6,0,B|301:361|301:361|215:295,2,165.000006294251,6|6|6,3:2|3:2|3:2,0:0:0:0:
256,99,33217,5,4,3:2:0:0:
256,192,33333,12,0,35986,0:0:0:0:
108,338,36909,6,0,L|102:255,1,65.9999979858399,6|14,3:2|0:2,0:0:0:0:
133,194,37371,1,2,3:2:0:0:
82,97,37717,2,0,P|115:87|165:91,1,65.9999979858399,6|14,3:2|0:2,0:0:0:0:
220,120,38179,1,2,3:2:0:0:
283,208,38525,1,14,0:2:0:0:
261,287,38756,2,0,P|328:302|397:316,2,131.99999597168,6|8|6,3:2|0:3|2:2,0:0:0:0:
