osu file format v14

[General]
AudioFilename: audio.mp3
AudioLeadIn: 0
PreviewTime: 2756
Countdown: 0
SampleSet: Soft
StackLeniency: 0.7
Mode: 0
LetterboxInBreaks: 0
WidescreenStoryboard: 1

[Editor]
Bookmarks: 14756,20294,33217,36909
DistanceSpacing: 1.2
BeatDivisor: 2
GridSize: 16
TimelineZoom: 1.3

[Metadata]
Title:Falling Falls
TitleUnicode:Falling Falls
Artist:BLANKFIELD
ArtistUnicode:BLANKFIELD
Creator:tadahitotsu
Version:Insane
Source:東方風神録 ~ Mountain of Faith.
Tags:東方Project touhou project fuujinroku fall of fall フォールオブフォール ~ 秋めく滝 akimeku taki autumnal waterfall heavy metal at the termination of phantasm guitar drums rock instrumental zun momiji inubashiri video game Team Shanghai Alice featured artist fa th10 nao tomori
BeatmapID:3140220
BeatmapSetID:1535708

[Difficulty]
HPDrainRate:4
CircleSize:4
OverallDifficulty:8
ApproachRate:9
SliderMultiplier:1.5
SliderTickRate:1

[Events]
//Background and Video events
0,0,"ds.jpg",0,0
//Break Periods
//Storyboard Layer 0 (Background)
//Storyboard Layer 1 (Fail)
//Storyboard Layer 2 (Pass)
//Storyboard Layer 3 (Foreground)
//Storyboard Layer 4 (Overlay)
//Storyboard Sound Samples

[TimingPoints]
1833,230.769230769231,4,2,1,50,1,0
3679,-90.9090909090909,4,2,1,70,0,1
5871,-90.9090909090909,4,2,1,70,0,1
6563,-90.9090909090909,4,2,1,70,0,1
9563,-90.9090909090909,4,2,1,70,0,1
10486,-90.9090909090909,4,2,1,70,0,1
10948,-90.9090909090909,4,2,1,70,0,1
13256,-90.9090909090909,4,2,1,70,0,1
14756,-100,4,2,1,60,0,0
15909,-100,4,2,1,60,0,0
16602,-111.111111111111,4,2,1,60,0,0
20294,-100,4,2,1,70,0,0
33217,-100,4,2,1,50,0,0
36909,-125,4,2,1,70,0,0

[Colours]
Combo1 : 240,240,240
Combo2 : 255,107,36
Combo3 : 196,196,196

[HitObjects]
60,49,1833,5,2,0:2:0:0:
150,136,2294,5,2,0:2:0:0:
42,212,2756,6,0,P|56:282|64:317,1,75,6|0,3:2|3:2,0:0:0:0:
35,364,2986,1,0,3:2:0:0:
35,364,3102,2,0,P|65:327|166:289,1,150,10|0,0:2|3:2,0:0:0:0:
198,357,3448,2,0,P|230:326|235:265,1,75,8|8,0:2|0:2,0:0:0:0:
252,202,3679,5,6,3:2:0:0:
336,267,3794,2,0,P|332:321|336:367,1,82.5000025177003,10|0,2:2|3:2,0:0:0:0:
408,221,4025,2,0,P|409:179|405:138,1,82.5000025177003,10|0,0:2|3:2,0:0:0:0:
254,58,4256,2,0,P|304:63|322:103,1,82.5000025177003,10|0,0:2|3:2,0:0:0:0:
282,163,4486,2,0,P|232:158|214:118,1,82.5000025177003,10|0,0:2|3:2,0:0:0:0:
165,49,4717,5,10,0:2:0:0:
56,104,4833,2,0,P|80:172|88:271,1,165.000005035401,2|0,3:2|3:2,0:0:0:0:
88,264,5294,1,0,3:2:0:0:
123,355,5409,1,10,0:2:0:0:
209,303,5525,5,2,3:2:0:0:
209,303,5640,2,0,P|250:339|282:340,1,82.5000025177003,10|0,0:2|3:2,0:0:0:0:
310,240,5871,2,0,L|277:149,1,82.5000025177003,10|0,0:2|3:2,0:0:0:0:
454,226,6102,2,0,L|400:289,1,82.5000025177003,10|0,0:2|3:2,0:0:0:0:
391,123,6333,6,0,B|386:67|366:7|366:7|337:4|303:24,2,165.000005035401,10|8|8,0:2|0:2|3:2,0:0:0:0:
281,162,6909,1,0,3:2:0:0:
281,162,7025,2,0,P|233:140|201:108,1,82.5000025177003,8|0,0:2|3:2,0:0:0:0:
137,35,7256,1,8,0:2:0:0:
168,146,7371,6,0,P|161:229|155:322,1,165.000005035401,6|0,3:2|3:2,0:0:0:0:
50,344,7717,2,0,P|96:325|134:299,1,82.5000025177003,10|0,0:2|3:2,0:0:0:0:
234,316,7948,2,0,P|269:337|307:352,1,82.5000025177003,10|0,0:2|3:2,0:0:0:0:
414,274,8179,6,0,P|340:262|259:213,1,165.000005035401,10|10,0:2|0:2,0:0:0:0:
372,138,8525,1,0,3:2:0:0:
372,138,8640,2,0,P|419:157|432:201,1,82.5000025177003,8|0,3:2|3:2,0:0:0:0:
286,95,8871,1,8,0:2:0:0:
215,154,8986,2,0,P|227:207|229:246,1,82.5000025177003,2|10,3:2|2:2,0:0:0:0:
147,296,9217,5,6,3:2:0:0:
48,360,9333,2,0,P|37:317|35:266,1,82.5000025177003,8|4,0:3|0:3,0:0:0:0:
29,155,9563,2,0,L|117:184,1,82.5000025177003,14|0,0:2|3:2,0:0:0:0:
225,270,9794,2,0,L|137:299,1,82.5000025177003,14|0,0:2|3:2,0:0:0:0:
215,154,10025,5,14,0:2:0:0:
306,255,10140,2,0,P|297:318|277:337,2,82.5000025177003,2|8|4,3:2|0:3|0:3,0:0:0:0:
385,205,10486,2,0,P|454:231|499:228,1,82.5000025177003,14|0,0:2|3:2,0:0:0:0:
486,78,10717,2,0,P|417:52|372:55,1,82.5000025177003,10|0,0:2|3:2,0:0:0:0:
286,95,10948,5,10,0:2:0:0:
306,255,11063,2,0,P|288:325|180:331,1,165.000005035401,6|0,3:2|3:2,0:0:0:0:
89,272,11409,2,0,P|104:326|109:372,1,82.5000025177003,10|0,0:2|3:2,0:0:0:0:
16,226,11640,2,0,P|22:185|34:145,1,82.5000025177003,10|0,0:2|3:2,0:0:0:0:
153,215,11871,2,0,P|198:214|251:205,1,82.5000025177003,10|0,0:2|3:2,0:0:0:0:
287,124,12102,5,10,0:2:0:0:
192,38,12217,2,0,B|200:12|223:0|223:0|342:17,1,165.000005035401,2|0,3:2|3:2,0:0:0:0:
494,216,12679,1,2,3:2:0:0:
424,130,12794,1,10,0:2:0:0:
368,229,12909,5,2,3:2:0:0:
368,229,13025,2,0,P|384:277|389:315,1,82.5000025177003,10|0,0:2|3:2,0:0:0:0:
318,371,13256,2,0,P|263:357|252:326,1,82.5000025177003,10|0,0:2|3:2,0:0:0:0:
162,331,13486,2,0,P|146:276|167:251,1,82.5000025177003,10|0,0:2|3:2,0:0:0:0:
253,215,13717,1,10,0:2:0:0:
253,215,13833,6,0,L|227:44,1,165.000005035401,8|0,0:2|3:2,0:0:0:0:
150,60,14179,1,8,0:2:0:0:
92,181,14294,2,0,L|118:10,1,165.000005035401,8|6,0:3|3:2,0:0:0:0:
202,147,14640,1,0,0:2:0:0:
202,147,14756,6,0,B|251:73|288:90|334:157|387:118|417:69,1,225,6|0,3:2|0:0,0:0:0:0:
401,83,15333,5,6,3:2:0:0:
488,152,15563,5,2,0:2:0:0:
417,238,15909,5,0,3:2:0:0:
421,251,16140,5,0,3:2:0:0:
425,264,16371,5,2,3:2:0:0:
366,345,16486,1,10,0:2:0:0:
283,305,16602,5,6,3:2:0:0:
283,305,16717,2,0,P|285:259|291:229,1,67.4999979400635,10|0,2:2|3:2,0:0:0:0:
186,338,16948,2,0,P|184:292|178:262,1,67.4999979400635,12|0,0:2|3:2,0:0:0:0:
296,291,17179,2,0,P|298:245|304:215,1,67.4999979400635,12|0,0:2|3:2,0:0:0:0:
171,350,17409,6,0,P|169:304|155:206,1,134.999995880127,12|14,0:2|0:2,0:0:0:0:
65,187,17756,1,0,3:2:0:0:
67,85,17871,2,0,P|114:87|135:108,1,67.4999979400635,14|0,0:2|3:2,0:0:0:0:
205,78,18102,2,0,P|233:95|266:91,1,67.4999979400635,14|0,0:2|3:2,0:0:0:0:
326,23,18333,1,10,0:2:0:0:
356,132,18448,5,14,0:2:0:0:
356,132,18563,1,14,2:2:0:0:
464,198,18794,1,14,0:2:0:0:
295,236,19025,1,14,0:2:0:0:
397,299,19256,1,10,0:2:0:0:
397,299,19371,6,0,P|355:323|308:359,2,89.999997253418,8|8|8,0:3|0:3|0:3,0:0:0:0:
261,243,19833,2,0,P|244:288|231:346,2,89.999997253418,4|4|4,0:3|0:3|0:3,0:0:0:0:
127,167,20294,6,0,P|142:255|144:321,1,150,6|0,3:2|3:2,0:0:0:0:
261,243,20640,1,8,2:2:0:0:
261,243,20756,2,0,P|293:204|287:176,1,75,0|8,3:2|0:2,0:0:0:0:
219,124,20986,2,0,P|228:86|243:39,1,75,0|8,3:2|0:2,0:0:0:0:
332,26,21217,1,0,3:2:0:0:
332,26,21448,6,0,L|412:54,1,75,2|10,3:2|3:2,0:0:0:0:
500,125,21679,2,0,L|420:153,1,75,2|10,3:2|0:2,0:0:0:0:
316,121,21909,2,0,P|336:152|349:200,1,75,2|8,3:2|0:2,0:0:0:0:
485,261,22140,6,0,P|392:267|326:304,1,150,0|0,3:2|3:2,0:0:0:0:
277,365,22486,1,8,3:2:0:0:
277,365,22602,2,0,P|249:342|210:327,1,75,0|8,3:2|0:2,0:0:0:0:
127,363,22833,2,0,P|108:341|102:294,1,75,0|10,3:2|0:2,0:0:0:0:
208,250,23063,6,0,P|164:181|86:203,1,150,2|0,3:2|3:2,0:0:0:0:
32,228,23409,1,8,0:2:0:0:
97,175,23525,2,0,P|103:133|108:83,1,75,0|8,3:2|0:2,0:0:0:0:
54,41,23756,1,0,3:0:0:0:
48,29,23871,1,8,3:2:0:0:
170,55,23986,6,0,P|249:46|280:124,1,150,6|0,3:2|3:2,0:0:0:0:
279,182,24333,1,8,0:2:0:0:
279,182,24448,2,0,P|232:197|201:220,1,75,0|8,3:2|0:2,0:0:0:0:
306,104,24679,2,0,P|353:89|384:66,1,75,0|8,3:2|0:2,0:0:0:0:
457,132,24909,1,0,3:2:0:0:
457,132,25140,6,0,L|443:231,1,75,2|10,3:2|0:2,0:0:0:0:
369,215,25371,2,0,L|383:314,1,75,2|10,3:2|0:2,0:0:0:0:
426,365,25602,2,0,P|459:341|469:304,1,75,2|8,3:2|3:2,0:0:0:0:
328,349,25833,6,0,P|243:335|176:294,1,150,6|0,3:2|3:2,0:0:0:0:
83,362,26179,2,0,P|155:303|163:223,1,150,14|8,0:2|2:2,0:0:0:0:
111,188,26525,1,6,3:2:0:0:
262,226,26756,5,0,3:2:0:0:
262,226,26871,1,2,0:2:0:0:
380,180,27102,5,0,3:2:0:0:
380,180,27217,2,0,P|374:224|373:272,1,75,10|10,0:2|0:2,0:0:0:0:
448,130,27448,2,0,P|446:92|440:55,1,75,10|10,0:2|0:2,0:0:0:0:
313,112,27679,6,0,B|228:137|248:69|162:91,1,150,6|0,3:2|3:2,0:0:0:0:
105,30,28025,1,8,0:2:0:0:
105,30,28140,2,0,P|56:51|31:84,1,75,0|8,3:2|0:2,0:0:0:0:
159,105,28371,2,0,P|183:152|180:193,1,75,0|8,3:2|0:2,0:0:0:0:
87,229,28602,1,0,3:2:0:0:
87,229,28833,6,0,L|-2:189,1,75,2|10,3:2|0:2,0:0:0:0:
161,286,29063,2,0,L|81:343,1,75,2|10,3:2|0:2,0:0:0:0:
230,336,29294,2,0,P|267:320|274:281,1,75,2|0,3:2|0:0,0:0:0:0:
250,185,29525,6,0,P|281:258|364:264,1,150,0|0,3:2|3:2,0:0:0:0:
391,192,29871,1,8,0:2:0:0:
444,266,29986,2,0,L|495:191,1,75,2|8,0:2|0:2,0:0:0:0:
477,123,30217,1,0,3:2:0:0:
468,109,30333,1,10,3:2:0:0:
412,45,30448,6,0,B|397:51|383:72|383:72|331:95|254:87,1,150,0|0,3:2|3:2,0:0:0:0:
210,17,30794,1,8,0:2:0:0:
125,27,30909,2,0,P|155:106|168:187,1,150,0|0,3:2|3:2,0:0:0:0:
241,205,31256,1,10,0:2:0:0:
172,262,31371,6,0,P|239:306|304:280,1,150,6|8,3:2|0:2,0:0:0:0:
241,205,31717,1,0,3:2:0:0:
315,151,31833,6,0,P|248:107|183:133,1,150,6|8,3:2|0:2,0:0:0:0:
241,205,32179,1,8,2:2:0:0:
372,222,32294,1,6,3:2:0:0:
37,192,33217,5,4,3:2:0:0:
256,192,33333,12,0,36794,0:0:0:0:
455,358,36909,6,0,L|459:281,1,60,6|0,3:2|3:2,0:0:0:0:
392,248,37140,2,0,L|388:171,1,60,14|0,0:2|0:2,0:0:0:0:
319,138,37371,1,2,3:2:0:0:
319,138,37486,2,0,P|356:147|405:153,1,60,14|0,0:2|3:2,0:0:0:0:
278,210,37717,6,0,P|236:170|229:154,1,60,6|0,3:2|3:2,0:0:0:0:
168,117,37948,2,0,P|181:60|191:46,1,60,14|0,0:2|3:2,0:0:0:0:
112,184,38179,1,2,3:2:0:0:
112,184,38294,2,0,L|101:271,1,60,14|0,0:2|3:2,0:0:0:0:
94,320,38525,1,14,0:2:0:0:
94,320,38756,6,0,L|30:331,2,60,6|0|2,3:2|3:2|3:2,0:0:0:0:
228,301,39217,1,8,0:3:0:0:
228,301,39333,1,4,0:3:0:0:
354,279,39563,2,0,L|426:266,1,60,4|6,0:3|2:2,0:0:0:0:
