osu file format v14

[General]
AudioFilename: audio.mp3
AudioLeadIn: 0
PreviewTime: 2756
Countdown: 0
SampleSet: Soft
StackLeniency: 0.7
Mode: 0
LetterboxInBreaks: 0
WidescreenStoryboard: 1

[Editor]
Bookmarks: 14756,20294,33217,36909
DistanceSpacing: 1.2
BeatDivisor: 2
GridSize: 16
TimelineZoom: 1.3

[Metadata]
Title:Falling Falls
TitleUnicode:Falling Falls
Artist:BLANKFIELD
ArtistUnicode:BLANKFIELD
Creator:tadahitotsu
Version:Hard
Source:東方風神録 ~ Mountain of Faith.
Tags:東方Project touhou project fuujinroku fall of fall フォールオブフォール ~ 秋めく滝 akimeku taki autumnal waterfall heavy metal at the termination of phantasm guitar drums rock instrumental zun momiji inubashiri video game Team Shanghai Alice featured artist fa th10 nao tomori
BeatmapID:3140318
BeatmapSetID:1535708

[Difficulty]
HPDrainRate:3
CircleSize:3.5
OverallDifficulty:6
ApproachRate:8
SliderMultiplier:1.3
SliderTickRate:1

[Events]
//Background and Video events
0,0,"ds.jpg",0,0
//Break Periods
//Storyboard Layer 0 (Background)
//Storyboard Layer 1 (Fail)
//Storyboard Layer 2 (Pass)
//Storyboard Layer 3 (Foreground)
//Storyboard Layer 4 (Overlay)
//Storyboard Sound Samples

[TimingPoints]
1833,230.769230769231,4,2,1,50,1,0
2756,-125,4,2,1,50,0,0
3679,-111.111111111111,4,2,1,70,0,1
5871,-111.111111111111,4,2,1,70,0,1
6563,-111.111111111111,4,2,1,70,0,1
9563,-111.111111111111,4,2,1,70,0,1
10486,-111.111111111111,4,2,1,70,0,1
10948,-111.111111111111,4,2,1,70,0,1
13256,-111.111111111111,4,2,1,70,0,1
14756,-125,4,2,1,60,0,0
15909,-125,4,2,1,60,0,0
16602,-125,4,2,1,60,0,0
20294,-117.647058823529,4,2,1,70,0,0
33217,-117.647058823529,4,2,1,50,0,0
36909,-142.857142857143,4,2,1,70,0,0

[Colours]
Combo1 : 240,240,240
Combo2 : 255,107,36
Combo3 : 196,196,196

[HitObjects]
63,49,1833,5,2,0:2:0:0:
63,49,2294,1,2,0:2:0:0:
63,49,2756,2,0,P|77:129|169:133,2,156,6|10|8,3:2|0:2|0:2,0:0:0:0:
21,195,3679,6,0,B|10:229|10:229|33:322,1,116.999996429443,6|0,3:2|3:2,0:0:0:0:
96,343,4025,2,0,P|168:339|194:289,1,116.999996429443,10|10,0:2|0:2,0:0:0:0:
339,340,4486,2,0,P|327:261|326:218,1,116.999996429443,10|10,0:2|0:2,0:0:0:0:
393,187,4833,6,0,B|397:126|397:126|341:86,1,116.999996429443,2|0,3:2|3:2,0:0:0:0:
281,60,5179,1,8,0:2:0:0:
281,60,5294,2,0,P|240:60|222:74,1,58.4999982147217,0|10,3:2|0:2,0:0:0:0:
190,137,5525,2,0,P|159:126|104:97,1,58.4999982147217,2|10,3:2|0:2,0:0:0:0:
28,223,5871,5,10,0:2:0:0:
97,345,6102,1,10,0:2:0:0:
245,344,6333,2,0,B|216:346|190:323|190:323|204:263|248:192,1,175.499994644165,10|0,0:2|3:2,0:0:0:0:
289,165,6794,1,8,3:2:0:0:
419,351,7140,2,0,P|384:327|376:306,1,58.4999982147217,0|8,3:2|0:2,0:0:0:0:
427,255,7371,6,0,L|401:101,1,116.999996429443,6|0,3:2|3:2,0:0:0:0:
457,81,7717,2,0,P|425:57|401:49,1,58.4999982147217,10|0,0:2|3:2,0:0:0:0:
337,19,7948,2,0,P|300:34|281:51,1,58.4999982147217,10|0,0:2|3:2,0:0:0:0:
210,56,8179,6,0,P|189:141|174:293,1,233.999992858887,10|8,0:2|3:2,0:0:0:0:
325,302,8871,2,0,P|336:331|343:359,2,58.4999982147217,8|2|10,0:2|3:2|2:2,0:0:0:0:
363,236,9217,5,6,3:2:0:0:
363,236,9333,2,0,P|362:197|372:165,1,58.4999982147217,8|4,0:3|0:3,0:0:0:0:
418,123,9563,1,14,0:2:0:0:
298,29,9794,2,0,L|155:67,1,116.999996429443,14|14,0:2|0:2,0:0:0:0:
109,69,10140,5,2,3:2:0:0:
109,69,10256,2,0,P|85:98|74:121,1,58.4999982147217,8|0,0:3|0:0,0:0:0:0:
97,189,10486,1,14,0:2:0:0:
52,334,10717,2,0,P|84:337|108:320,1,58.4999982147217,10|0,0:2|3:2,0:0:0:0:
165,276,10948,1,10,0:2:0:0:
226,319,11063,6,0,P|287:352|357:333,1,116.999996429443,6|0,3:2|3:2,0:0:0:0:
403,318,11409,2,0,L|413:251,1,58.4999982147217,10|0,0:2|3:2,0:0:0:0:
360,202,11640,2,0,L|356:129,1,58.4999982147217,10|0,0:2|3:2,0:0:0:0:
404,84,11871,1,10,0:2:0:0:
258,38,12102,5,10,0:2:0:0:
258,38,12217,2,0,P|239:128|223:177,1,116.999996429443,2|0,3:2|3:2,0:0:0:0:
91,91,12679,2,0,P|101:130|102:164,1,58.4999982147217,2|10,3:2|0:2,0:0:0:0:
35,184,12909,2,0,P|22:242|21:271,1,58.4999982147217,2|10,3:2|0:2,0:0:0:0:
113,348,13256,5,10,0:2:0:0:
216,253,13486,1,10,0:2:0:0:
325,355,13717,1,10,0:2:0:0:
325,355,13833,2,0,P|331:277|324:137,1,175.499994644165,8|8,0:2|0:2,0:0:0:0:
339,104,14294,1,8,0:3:0:0:
274,63,14409,1,4,0:3:0:0:
274,63,14525,2,0,P|249:69|225:92,1,58.4999982147217,6|0,3:2|0:2,0:0:0:0:
194,160,14756,5,6,3:2:0:0:
58,295,15102,2,0,L|36:157,2,104,6|6|2,3:2|3:2|0:2,0:0:0:0:
173,356,15909,1,0,3:2:0:0:
173,356,16140,1,0,3:2:0:0:
309,348,16371,2,0,L|321:286,1,52,2|10,3:2|0:2,0:0:0:0:
385,258,16602,5,6,3:2:0:0:
385,258,16717,2,0,L|376:181,1,52,10|0,2:2|3:2,0:0:0:0:
419,140,16948,2,0,P|376:90|302:114,1,104,12|12,0:2|0:2,0:0:0:0:
207,54,17409,2,0,L|234:164,1,104,12|14,0:2|0:2,0:0:0:0:
106,156,17871,1,14,0:2:0:0:
106,156,18102,1,14,0:2:0:0:
31,306,18333,5,10,0:2:0:0:
31,306,18448,2,0,L|93:277,1,52,14|14,0:2|2:2,0:0:0:0:
208,307,18794,2,0,L|181:167,2,104,14|14|10,0:2|0:2|0:2,0:0:0:0:
277,348,19371,6,0,P|336:369|391:286,1,173.333333333333,8|0,0:3|0:0,0:0:0:0:
350,265,19833,6,0,P|339:224|436:173,1,173.333333333333,4|0,0:3|0:0,0:0:0:0:
459,205,20294,6,0,P|468:110|346:74,2,221.000004215241,6|0|0,3:2|3:2|3:2,0:0:0:0:
381,326,21448,2,0,L|314:300,1,55.2500010538101,2|10,3:2|3:2,0:0:0:0:
257,335,21679,2,0,L|200:282,1,55.2500010538101,2|10,3:2|0:2,0:0:0:0:
214,222,21909,1,2,3:2:0:0:
75,283,22140,6,0,B|49:230|49:230|120:123|120:123|95:66,1,221.000004215241,0|0,3:2|3:2,0:0:0:0:
237,29,22833,2,0,P|270:38|292:62,1,55.2500010538101,0|10,3:2|0:2,0:0:0:0:
275,129,23063,2,0,P|349:148|439:75,1,165.75000316143,2|8,3:2|0:2,0:0:0:0:
423,28,23525,1,0,3:2:0:0:
461,270,23986,6,0,B|437:319|437:319|241:379,1,221.000004215241,6|0,3:2|3:2,0:0:0:0:
202,365,24563,1,8,0:2:0:0:
202,365,24679,2,0,B|176:353|176:353|151:311,1,55.2500010538101,0|8,3:2|0:2,0:0:0:0:
199,263,24909,1,0,3:2:0:0:
333,213,25140,2,0,P|317:190|282:170,1,55.2500010538101,2|10,3:2|0:2,0:0:0:0:
229,133,25371,2,0,P|191:146|175:168,1,55.2500010538101,2|10,3:2|0:2,0:0:0:0:
132,215,25602,1,2,3:2:0:0:
75,347,25833,6,0,P|93:263|90:156,2,165.75000316143,6|14|6,3:2|0:2|3:2,0:0:0:0:
215,327,26756,1,0,3:2:0:0:
215,327,26871,1,2,0:2:0:0:
351,351,27102,1,0,3:2:0:0:
351,351,27217,2,0,P|373:329|388:302,1,55.2500010538101,10|10,0:2|0:2,0:0:0:0:
458,278,27448,2,0,P|457:252|447:224,1,55.2500010538101,10|10,0:2|0:2,0:0:0:0:
374,203,27679,6,0,P|310:184|314:77,1,165.75000316143,6|8,3:2|0:2,0:0:0:0:
360,49,28140,2,0,P|287:69|153:77,1,165.75000316143,0|8,3:2|0:2,0:0:0:0:
133,36,28602,1,0,3:2:0:0:
27,142,28833,2,0,L|35:215,1,55.2500010538101,2|10,3:2|0:2,0:0:0:0:
98,241,29063,2,0,L|91:295,1,55.2500010538101,2|10,3:2|0:2,0:0:0:0:
38,355,29294,1,2,3:2:0:0:
181,357,29525,6,0,P|243:329|225:233,1,165.75000316143,0|8,3:2|0:2,0:0:0:0:
175,194,29986,2,0,L|302:161,1,110.50000210762,2|0,0:2|3:2,0:0:0:0:
338,225,30333,1,10,3:2:0:0:
338,225,30448,2,0,B|383:246|391:316|391:316|435:248|507:256,1,221.000004215241,0|0,3:2|3:2,0:0:0:0:
499,179,31025,1,8,0:2:0:0:
499,179,31140,2,0,P|481:148|436:130,1,55.2500010538101,0|10,3:2|0:2,0:0:0:0:
387,139,31371,1,6,3:2:0:0:
123,25,31833,5,6,3:2:0:0:
90,310,32294,1,6,3:2:0:0:
388,313,33217,5,4,3:2:0:0:
256,192,33333,12,0,36448,0:0:0:0:
59,348,36909,6,0,L|71:249,1,90.9999972229005,6|14,3:2|0:2,0:0:0:0:
135,158,37371,2,0,L|128:107,1,45.4999986114502,2|14,3:2|0:2,0:0:0:0:
223,42,37717,2,0,P|283:40|308:86,1,90.9999972229005,6|14,3:2|0:2,0:0:0:0:
349,168,38179,2,0,L|338:223,1,45.4999986114502,2|14,3:2|0:2,0:0:0:0:
226,245,38525,1,14,0:2:0:0:
226,245,38756,6,0,P|234:302|315:328,1,136.499995834351,6|0,3:2|3:2,0:0:0:0:
346,269,39217,2,0,P|402:253|451:311,1,136.499995834351,8|4,0:3|0:3,0:0:0:0:
424,378,39679,1,6,2:2:0:0:
