osu file format v14

[General]
AudioFilename: audio.mp3
AudioLeadIn: 0
PreviewTime: 2756
Countdown: 0
SampleSet: Soft
StackLeniency: 0.7
Mode: 0
LetterboxInBreaks: 0
WidescreenStoryboard: 1

[Editor]
Bookmarks: 14756,20294,33217,36909
DistanceSpacing: 1.2
BeatDivisor: 4
GridSize: 8
TimelineZoom: 1.9

[Metadata]
Title:Falling Falls
TitleUnicode:Falling Falls
Artist:BLANKFIELD
ArtistUnicode:BLANKFIELD
Creator:tadahitotsu
Version:Fuujinroku
Source:東方風神録 ~ Mountain of Faith.
Tags:東方Project touhou project fuujinroku fall of fall フォールオブフォール ~ 秋めく滝 akimeku taki autumnal waterfall heavy metal at the termination of phantasm guitar drums rock instrumental zun momiji inubashiri video game Team Shanghai Alice featured artist fa th10 nao tomori
BeatmapID:3140221
BeatmapSetID:1535708

[Difficulty]
HPDrainRate:6.2
CircleSize:4
OverallDifficulty:9.6
ApproachRate:9.8
SliderMultiplier:1.7
SliderTickRate:1

[Events]
//Background and Video events
0,0,"ds.jpg",0,0
//Break Periods
//Storyboard Layer 0 (Background)
//Storyboard Layer 1 (Fail)
//Storyboard Layer 2 (Pass)
//Storyboard Layer 3 (Foreground)
//Storyboard Layer 4 (Overlay)
//Storyboard Sound Samples

[TimingPoints]
1833,230.769230769231,4,2,1,50,1,0
3679,-62.5,4,2,1,70,0,1
5871,-57.1428571428571,4,2,1,70,0,1
6563,-62.5,4,2,1,70,0,1
9563,-57.1428571428571,4,2,1,70,0,1
10486,-52.6315789473684,4,2,1,70,0,1
10948,-62.5,4,2,1,70,0,1
13256,-57.1428571428571,4,2,1,70,0,1
14756,-52.6315789473684,4,2,1,60,0,0
15909,-52.6315789473684,4,2,1,60,0,0
16602,-66.6666666666667,4,2,1,60,0,0
20294,-66.6666666666667,4,2,1,70,0,0
33217,-1000,4,2,1,50,0,0
36909,-90.9090909090909,4,2,1,70,0,0

[Colours]
Combo1 : 240,240,240
Combo2 : 255,107,36
Combo3 : 196,196,196

[HitObjects]
52,49,1833,5,2,0:2:0:0:
288,28,2294,5,2,0:2:0:0:
75,215,2756,5,6,3:2:0:0:
82,237,2813,1,0,3:2:0:0:
89,259,2871,1,0,3:2:0:0:
95,282,2929,1,0,3:2:0:0:
100,304,2986,1,0,3:2:0:0:
105,327,3044,1,0,3:2:0:0:
108,345,3102,5,10,0:2:0:0:
145,331,3159,1,8,0:2:0:0:
183,322,3217,1,0,3:2:0:0:
222,315,3275,1,0,3:2:0:0:
259,311,3332,1,0,3:2:0:0:
304,308,3390,1,0,3:2:0:0:
372,349,3448,5,8,0:2:0:0:
425,337,3505,1,8,0:2:0:0:
461,295,3563,1,8,0:2:0:0:
464,240,3621,1,8,0:2:0:0:
435,194,3679,5,6,3:2:0:0:
327,42,3794,2,0,P|331:118|329:197,1,136,10|0,2:2|3:2,0:0:0:0:
241,218,3967,1,0,3:2:0:0:
241,218,4025,2,0,P|240:150|244:82,1,136,10|0,0:2|3:2,0:0:0:0:
62,32,4256,2,0,P|131:36|133:117,1,136,10|0,0:2|3:2,0:0:0:0:
75,145,4429,1,0,3:2:0:0:
75,145,4486,2,0,P|58:210|95:287,1,136,10|0,0:2|3:2,0:0:0:0:
241,218,4717,5,10,0:2:0:0:
156,375,4833,1,2,3:2:0:0:
152,361,4890,1,0,3:2:0:0:
154,347,4948,2,0,P|226:325|308:312,1,136,8|0,2:2|3:2,0:0:0:0:
139,207,5179,1,8,0:2:0:0:
312,165,5294,6,0,P|315:125|325:94,1,68,0|0,3:2|3:2,0:0:0:0:
377,215,5409,2,0,P|386:247|388:281,1,68,10|0,0:2|0:2,0:0:0:0:
398,76,5525,5,2,3:2:0:0:
208,85,5640,2,0,P|226:151|241:220,1,136,10|0,0:2|3:2,0:0:0:0:
291,295,5813,1,0,3:2:0:0:
291,295,5871,6,0,B|247:335|194:348|194:348|163:342|138:300,1,148.750001418591,10|0,0:2|3:2,0:0:0:0:
377,215,6102,2,0,B|421:175|474:162|474:162|505:168|530:210,1,148.750001418591,10|0,0:2|3:2,0:0:0:0:
285,194,6275,1,0,3:0:0:0:
285,194,6333,2,0,B|232:166|202:120|202:120|197:89|227:51,1,148.750001418591,10|0,0:2|3:2,0:0:0:0:
276,21,6563,5,8,0:2:0:0:
89,120,6679,1,0,3:2:0:0:
73,105,6736,1,0,3:2:0:0:
67,87,6794,1,8,3:2:0:0:
109,17,6909,5,0,3:2:0:0:
139,207,7025,1,8,0:2:0:0:
43,349,7140,5,0,3:2:0:0:
72,329,7197,1,0,3:2:0:0:
105,314,7255,1,8,0:2:0:0:
139,304,7313,1,8,0:0:0:0:
174,300,7370,5,6,3:2:0:0:
348,359,7486,1,8,0:0:0:0:
285,194,7602,1,0,3:2:0:0:
285,194,7659,1,0,3:0:0:0:
285,194,7717,2,0,P|288:110|283:45,1,136,10|0,0:2|3:2,0:0:0:0:
414,76,7948,5,10,0:2:0:0:
365,218,8063,1,0,3:2:0:0:
365,218,8120,1,0,3:2:0:0:
365,218,8178,2,0,P|362:302|366:364,1,136,10|0,0:2|3:2,0:0:0:0:
434,180,8409,1,10,0:2:0:0:
279,273,8525,5,0,3:2:0:0:
248,269,8582,1,0,3:0:0:0:
221,252,8640,1,8,3:2:0:0:
204,227,8698,1,0,3:2:0:0:
200,196,8755,1,0,3:2:0:0:
305,94,8871,1,8,0:2:0:0:
73,38,8986,5,2,3:2:0:0:
79,82,9043,1,0,3:2:0:0:
86,127,9101,1,10,2:2:0:0:
92,172,9159,1,8,2:2:0:0:
97,217,9217,6,0,P|52:204|45:179,1,68,6|0,3:2|0:0,0:0:0:0:
159,133,9333,1,8,0:3:0:0:
179,119,9390,1,0,0:0:0:0:
209,120,9448,1,4,0:3:0:0:
189,332,9563,6,0,B|207:288|207:288|183:221|183:221|212:178,1,148.750001418591,14|0,0:2|3:2,0:0:0:0:
386,353,9794,2,0,B|368:309|368:309|392:242|392:242|363:194,1,148.750001418591,14|0,0:2|3:2,0:0:0:0:
315,54,10025,1,14,0:2:0:0:
278,369,10140,5,2,3:2:0:0:
284,314,10197,1,0,3:2:0:0:
290,259,10255,1,8,0:3:0:0:
296,204,10313,1,8,0:3:0:0:
303,150,10370,1,4,0:3:0:0:
505,200,10486,6,0,P|451:119|335:142,1,161.499995687485,14|0,0:2|3:2,0:0:0:0:
122,19,10717,2,0,P|176:100|292:77,1,161.499995687485,10|0,0:2|3:2,0:0:0:0:
57,113,10890,1,0,0:0:0:0:
57,113,10948,2,0,P|90:134|98:181,1,68,10|8,0:2|0:2,0:0:0:0:
31,303,11063,6,0,P|107:268|193:256,1,136,6|10,3:2|0:2,0:0:0:0:
337,351,11294,1,0,3:2:0:0:
337,351,11352,1,0,3:2:0:0:
337,351,11409,2,0,B|306:347|261:360|261:360|226:330|214:272,1,136,10|0,0:2|3:2,0:0:0:0:
376,196,11640,2,0,P|457:207|459:290,1,136,10|0,0:2|3:2,0:0:0:0:
316,259,11813,1,0,3:2:0:0:
316,259,11871,2,0,P|329:186|329:122,1,136,10|0,0:2|3:2,0:0:0:0:
200,129,12102,5,10,0:2:0:0:
417,80,12217,1,2,3:2:0:0:
417,80,12275,1,0,3:2:0:0:
417,80,12333,2,0,P|363:25|281:58,1,136,8|0,0:2|3:2,0:0:0:0:
204,142,12563,1,10,0:2:0:0:
79,22,12679,6,0,P|109:29|145:53,1,68,2|0,3:2|3:2,0:0:0:0:
233,209,12794,2,0,P|204:190|171:182,1,68,10|8,0:2|0:2,0:0:0:0:
37,150,12909,5,2,3:2:0:0:
125,357,13025,2,0,P|115:275|100:210,1,136,10|0,0:2|3:2,0:0:0:0:
221,288,13198,1,0,3:2:0:0:
221,288,13256,2,0,P|306:255|316:196,1,148.750001418591,10|0,0:2|3:2,0:0:0:0:
506,179,13486,2,0,P|434:121|378:142,1,148.750001418591,10|0,0:2|3:2,0:0:0:0:
268,86,13717,5,10,0:2:0:0:
429,211,13833,1,8,0:2:0:0:
433,241,13890,1,8,0:2:0:0:
437,272,13948,1,8,0:2:0:0:
441,303,14006,1,8,0:2:0:0:
445,334,14063,1,0,3:2:0:0:
417,80,14179,1,8,0:2:0:0:
242,284,14294,5,8,0:3:0:0:
248,234,14351,1,8,0:3:0:0:
255,185,14409,1,4,0:3:0:0:
262,135,14467,1,4,0:3:0:0:
268,86,14525,2,0,L|258:4,1,74.3750007092953,6|0,3:2|0:0,0:0:0:0:
124,92,14640,2,0,L|133:165,1,74.3750007092953,0|0,0:2|0:0,0:0:0:0:
201,366,14756,5,6,3:2:0:0:
8,337,14871,1,8,0:2:0:0:
27,303,14928,1,8,0:2:0:0:
57,280,14986,1,8,0:2:0:0:
94,269,15044,1,8,0:2:0:0:
132,275,15101,5,6,3:2:0:0:
29,44,15333,5,6,3:2:0:0:
364,68,15563,5,2,0:2:0:0:
442,294,15909,5,0,3:2:0:0:
438,284,16140,1,0,3:2:0:0:
434,273,16371,5,2,3:2:0:0:
490,157,16486,1,10,0:2:0:0:
368,92,16602,1,6,3:2:0:0:
296,215,16717,2,0,P|306:273|323:347,1,127.500004863739,10|0,2:2|3:2,0:0:0:0:
234,154,16948,2,0,P|248:91|259:29,1,127.500004863739,12|0,0:2|3:2,0:0:0:0:
170,0,17121,1,0,3:2:0:0:
170,0,17179,2,0,P|107:48|99:126,1,127.500004863739,12|0,0:2|3:2,0:0:0:0:
22,187,17409,6,0,B|33:171|57:170|57:170|87:196|121:256,1,127.500004863739,12|0,0:2|3:2,0:0:0:0:
11,321,17640,1,14,0:2:0:0:
9,335,17756,1,0,3:2:0:0:
121,355,17871,6,0,B|144:367|172:351|172:351|185:316|237:276,1,127.500004863739,14|0,0:2|3:2,0:0:0:0:
320,359,18102,2,0,B|298:345|297:312|297:312|321:284|330:219,1,127.500004863739,14|0,0:2|3:2,0:0:0:0:
341,228,18275,1,0,3:2:0:0:
351,215,18333,1,10,0:2:0:0:
434,205,18448,5,14,0:2:0:0:
234,154,18563,2,0,P|233:82|240:28,1,127.500004863739,14|0,2:2|3:2,0:0:0:0:
205,238,18794,2,0,P|142:235|146:182,1,127.500004863739,14|0,0:2|3:2,0:0:0:0:
44,103,19025,2,0,P|102:107|105:49,1,127.500004863739,14|0,0:2|3:2,0:0:0:0:
199,36,19256,1,10,0:2:0:0:
367,74,19371,5,8,0:3:0:0:
323,188,19525,1,8,0:3:0:0:
381,347,19679,1,8,0:3:0:0:
418,277,19833,5,4,0:3:0:0:
290,114,19986,1,4,0:3:0:0:
443,20,20140,1,4,0:3:0:0:
326,206,20294,6,0,P|249:216|185:234,1,127.500004863739,6|8,3:2|0:2,0:0:0:0:
92,352,20525,1,0,3:2:0:0:
92,352,20583,1,0,3:2:0:0:
92,352,20640,2,0,P|169:355|182:306,1,127.500004863739,8|0,2:2|3:2,0:0:0:0:
44,219,20871,1,8,0:2:0:0:
192,167,20986,1,0,3:2:0:0:
206,178,21044,1,0,3:2:0:0:
214,197,21102,1,8,0:2:0:0:
102,31,21217,6,0,P|109:99|111:163,1,127.500004863739,0|8,3:2|0:2,0:0:0:0:
68,274,21448,1,2,3:2:0:0:
54,263,21506,1,0,3:0:0:0:
46,244,21564,1,10,3:2:0:0:
202,277,21679,1,2,3:2:0:0:
302,344,21794,1,10,0:2:0:0:
415,273,21909,6,0,P|463:266|492:256,1,63.7500024318696,2|0,3:2|3:2,0:0:0:0:
374,358,22025,2,0,P|326:365|297:375,1,63.7500024318696,8|0,0:2|3:2,0:0:0:0:
312,241,22140,6,0,P|310:158|316:102,1,127.500004863739,0|10,3:2|0:2,0:0:0:0:
427,42,22371,1,0,3:2:0:0:
427,42,22429,1,0,3:0:0:0:
427,42,22486,2,0,P|429:125|423:181,1,127.500004863739,8|0,3:2|3:2,0:0:0:0:
266,44,22717,1,8,0:2:0:0:
159,124,22833,1,0,3:2:0:0:
159,124,22890,1,0,3:2:0:0:
159,124,22948,2,0,P|171:148|180:188,1,63.7500024318696,10|0,0:2|0:0,0:0:0:0:
234,285,23063,6,0,P|196:228|125:238,1,127.500004863739,2|10,3:2|2:2,0:0:0:0:
85,356,23294,1,0,3:2:0:0:
101,354,23352,1,0,3:2:0:0:
114,345,23409,1,8,0:2:0:0:
19,276,23525,2,0,P|13:206|24:149,1,127.500004863739,0|8,3:2|0:2,0:0:0:0:
159,124,23756,1,0,3:0:0:0:
159,124,23813,1,0,3:0:0:0:
159,124,23871,1,8,3:2:0:0:
231,24,23986,5,6,3:2:0:0:
214,197,24102,1,8,0:2:0:0:
357,129,24217,1,0,3:2:0:0:
353,118,24275,1,0,3:2:0:0:
349,108,24333,1,8,0:2:0:0:
415,53,24448,5,0,3:2:0:0:
466,263,24563,1,8,0:2:0:0:
296,220,24679,1,0,3:2:0:0:
300,209,24737,1,0,3:2:0:0:
304,199,24795,1,8,0:2:0:0:
390,355,24909,6,0,B|352:360|338:330|338:330|314:306|235:308,1,127.500004863739,0|8,3:2|0:2,0:0:0:0:
137,314,25140,6,0,P|166:332|184:368,1,63.7500024318696,2|0,3:2|3:2,0:0:0:0:
68,262,25256,2,0,P|39:280|21:316,1,63.7500024318696,10|8,0:2|0:2,0:0:0:0:
199,244,25371,6,0,P|200:209|206:164,1,63.7500024318696,2|0,3:2|0:0,0:0:0:0:
51,185,25486,2,0,P|50:150|44:105,1,63.7500024318696,10|0,0:2|0:0,0:0:0:0:
140,40,25602,5,2,3:2:0:0:
158,44,25659,1,0,3:0:0:0:
173,57,25717,1,8,3:2:0:0:
324,116,25833,6,0,P|157:96|145:149,1,255.000009727478,6|0,3:2|3:2,0:0:0:0:
304,199,26179,2,0,P|471:219|483:166,1,255.000009727478,14|8,0:2|2:2,0:0:0:0:
434,67,26525,1,6,3:2:0:0:
434,67,26756,5,0,3:2:0:0:
473,163,26871,1,2,0:2:0:0:
473,163,27102,5,0,3:2:0:0:
443,274,27217,1,10,0:2:0:0:
335,337,27333,1,10,0:2:0:0:
198,241,27448,1,10,0:2:0:0:
68,359,27564,1,10,0:2:0:0:
231,347,27679,6,0,P|224:255|217:190,1,127.500004863739,6|8,3:2|0:2,0:0:0:0:
66,195,27909,1,0,3:2:0:0:
52,206,27967,1,0,3:2:0:0:
42,224,28025,1,8,0:2:0:0:
101,43,28140,1,0,3:2:0:0:
142,185,28256,1,8,0:2:0:0:
246,75,28371,5,0,3:2:0:0:
274,63,28428,1,0,3:2:0:0:
304,56,28486,1,8,0:2:0:0:
334,53,28544,1,0,3:2:0:0:
365,54,28601,5,0,3:2:0:0:
312,203,28717,1,10,0:2:0:0:
475,153,28833,1,2,3:2:0:0:
470,139,28890,1,0,3:0:0:0:
462,128,28948,1,10,0:2:0:0:
442,238,29063,6,0,P|445:275|454:311,1,63.7500024318696,2|0,3:2|0:0,0:0:0:0:
331,371,29179,2,0,P|339:335|341:308,1,63.7500024318696,10|0,0:2|0:0,0:0:0:0:
312,203,29294,2,0,P|233:182|190:294,1,191.250007295609,2|0,3:2|0:0,0:0:0:0:
179,263,29525,5,0,3:2:0:0:
64,144,29640,1,10,0:2:0:0:
21,284,29756,1,0,3:2:0:0:
26,298,29813,1,0,3:2:0:0:
32,313,29871,1,8,0:2:0:0:
106,355,29986,5,2,0:2:0:0:
258,260,30102,1,8,0:2:0:0:
50,192,30217,1,0,3:2:0:0:
55,177,30275,1,0,3:0:0:0:
60,163,30333,1,10,3:2:0:0:
258,260,30448,6,0,P|249:176|241:123,1,127.500004863739,0|10,3:2|0:2,0:0:0:0:
187,46,30679,1,0,3:2:0:0:
187,46,30736,1,0,3:2:0:0:
187,46,30794,2,0,P|235:99|297:66,1,127.500004863739,8|0,0:2|3:2,0:0:0:0:
400,33,31025,1,8,0:2:0:0:
381,184,31140,1,0,3:2:0:0:
363,180,31198,1,0,3:2:0:0:
351,165,31256,1,10,0:2:0:0:
473,247,31371,5,6,3:2:0:0:
474,273,31428,1,0,0:2:0:0:
466,298,31486,1,8,0:2:0:0:
449,319,31544,1,8,0:2:0:0:
426,331,31601,1,8,0:2:0:0:
399,334,31659,1,8,0:2:0:0:
373,327,31717,1,0,3:2:0:0:
352,311,31774,1,0,3:2:0:0:
302,252,31833,5,6,3:2:0:0:
256,224,31890,1,0,0:2:0:0:
203,233,31948,1,8,0:2:0:0:
170,275,32006,1,8,0:2:0:0:
153,324,32063,5,8,0:2:0:0:
119,366,32121,1,8,0:2:0:0:
67,375,32179,1,8,2:2:0:0:
21,347,32236,1,8,2:2:0:0:
1,300,32294,5,6,3:2:0:0:
27,69,33217,6,0,B|93:104|105:171|105:171|140:115|215:99,1,267.75,4|0,3:2|0:0,0:0:0:0:
214,99,36909,5,6,3:2:0:0:
276,163,37025,1,0,3:2:0:0:
377,116,37140,2,0,P|377:68|373:21,1,93.5000028533936,14|0,0:2|0:2,0:0:0:0:
422,180,37371,1,2,3:2:0:0:
346,267,37486,2,0,P|346:315|350:362,1,93.5000028533936,14|0,0:2|3:2,0:0:0:0:
149,310,37717,6,0,P|200:324|238:352,1,93.5000028533936,6|0,3:2|3:2,0:0:0:0:
83,258,37948,2,0,P|44:283|0:294,1,93.5000028533936,14|0,0:2|3:2,0:0:0:0:
194,235,38179,1,2,3:2:0:0:
90,158,38294,2,0,P|94:102|93:49,1,93.5000028533936,14|0,0:2|3:2,0:0:0:0:
227,125,38525,2,0,P|223:78|223:31,1,93.5000028533936,14|0,0:2|3:2,0:2:0:0:
194,235,38756,6,0,L|189:284,1,46.7500014266968,6|0,3:2|0:0,0:0:0:0:
265,289,38871,2,0,L|270:338,1,46.7500014266968,0|0,3:2|0:0,0:0:0:0:
324,229,38986,1,2,3:2:0:0:
324,229,39044,1,0,3:2:0:0:
324,229,39102,1,0,3:2:0:0:
443,137,39217,5,8,0:3:0:0:
445,157,39274,1,0,0:3:0:0:
447,176,39332,1,4,0:3:0:0:
450,196,39390,1,4,0:3:0:0:
452,215,39447,1,4,0:3:0:0:
393,287,39563,1,4,0:3:0:0:
312,121,39679,5,6,2:2:0:0:
