osu file format v14

[General]
AudioFilename: audio.mp3
AudioLeadIn: 0
PreviewTime: 2756
Countdown: 0
SampleSet: Soft
StackLeniency: 0.7
Mode: 0
LetterboxInBreaks: 0
WidescreenStoryboard: 1

[Editor]
Bookmarks: 14756,20294,33217,36909
DistanceSpacing: 1.2
BeatDivisor: 4
GridSize: 16
TimelineZoom: 2.4

[Metadata]
Title:Falling Falls
TitleUnicode:Falling Falls
Artist:BLANKFIELD
ArtistUnicode:BLANKFIELD
Creator:tadahitotsu
Version:Extra
Source:東方風神録 ~ Mountain of Faith.
Tags:東方Project touhou project fuujinroku fall of fall フォールオブフォール ~ 秋めく滝 akimeku taki autumnal waterfall heavy metal at the termination of phantasm guitar drums rock instrumental zun momiji inubashiri video game Team Shanghai Alice featured artist fa th10 nao tomori
BeatmapID:3141505
BeatmapSetID:1535708

[Difficulty]
HPDrainRate:4.5
CircleSize:4
OverallDifficulty:8.5
ApproachRate:9.2
SliderMultiplier:1.6
SliderTickRate:1

[Events]
//Background and Video events
0,0,"ds.jpg",0,0
//Break Periods
//Storyboard Layer 0 (Background)
//Storyboard Layer 1 (Fail)
//Storyboard Layer 2 (Pass)
//Storyboard Layer 3 (Foreground)
//Storyboard Layer 4 (Overlay)
//Storyboard Sound Samples

[TimingPoints]
1833,230.769230769231,4,2,1,50,1,0
1833,-100,4,2,1,50,0,0
3679,-83.3333333333333,4,2,1,70,0,1
5871,-83.3333333333333,4,2,1,70,0,1
6563,-83.3333333333333,4,2,1,70,0,1
9563,-83.3333333333333,4,2,1,70,0,1
10486,-83.3333333333333,4,2,1,70,0,1
10948,-83.3333333333333,4,2,1,70,0,1
13256,-83.3333333333333,4,2,1,70,0,1
14756,-100,4,2,1,60,0,0
15909,-100,4,2,1,60,0,0
16602,-99.9999999999999,4,2,1,60,0,0
20294,-90.9090909090909,4,2,1,70,0,0
33217,-1000,4,2,1,50,0,0
36909,-111.111111111111,4,2,1,70,0,0

[Colours]
Combo1 : 240,240,240
Combo2 : 255,107,36
Combo3 : 196,196,196

[HitObjects]
481,228,1833,5,2,0:2:0:0:
418,56,2294,1,2,0:2:0:0:
296,158,2756,6,0,L|304:218,5,40,6|0|0|0|0|0,3:2|3:2|3:2|3:2|3:2|3:2,0:0:0:0:
236,110,3102,2,0,L|241:70,5,40,10|8|0|0|0|0,0:2|0:2|3:2|3:2|3:2|3:2,0:0:0:0:
165,145,3448,6,0,P|152:137|122:129,1,40,8|8,0:2|0:2,0:0:0:0:
76,78,3563,2,0,P|62:85|40:107,1,40,8|8,0:2|0:2,0:0:0:0:
20,177,3679,5,6,3:2:0:0:
81,237,3794,2,0,P|66:305|62:358,1,95.9999970703126,10|0,2:2|3:2,0:0:0:0:
235,328,4025,2,0,P|213:361|153:373,1,95.9999970703126,10|0,0:2|3:2,0:0:0:0:
245,239,4256,2,0,P|267:206|327:194,1,95.9999970703126,10|0,0:2|3:2,0:0:0:0:
342,209,4429,1,0,3:2:0:0:
356,224,4487,2,0,P|409:242|465:247,1,95.9999970703126,10|0,0:2|3:2,0:0:0:0:
502,135,4717,5,10,0:2:0:0:
455,24,4833,2,0,P|370:1|333:96,1,191.999994140625,2|0,3:2|3:2,0:0:0:0:
328,80,5179,1,8,0:2:0:0:
236,122,5294,2,0,L|242:172,2,47.9999985351563,0|0|10,3:2|3:2|0:2,0:0:0:0:
198,32,5525,5,2,3:2:0:0:
142,154,5640,2,0,L|152:262,1,95.9999970703126,10|0,0:2|3:2,0:0:0:0:
100,368,5871,2,0,P|69:324|14:303,1,95.9999970703126,10|0,0:2|3:2,0:0:0:0:
209,313,6102,2,0,P|231:264|222:206,1,95.9999970703126,10|0,0:2|3:2,0:0:0:0:
228,223,6275,1,0,3:0:0:0:
228,223,6333,2,0,P|264:165|317:166,1,95.9999970703126,10|0,0:2|3:2,0:0:0:0:
367,224,6563,6,0,L|353:343,1,95.9999970703126,8|0,0:2|3:2,0:0:0:0:
487,155,6794,2,0,L|501:274,1,95.9999970703126,8|0,3:2|3:2,0:0:0:0:
417,98,7025,1,8,0:2:0:0:
324,34,7140,2,0,L|369:19,2,47.9999985351563,0|0|8,3:2|3:2|0:2,0:0:0:0:
287,159,7371,6,0,L|96:113,1,191.999994140625,6|0,3:2|3:2,0:0:0:0:
65,228,7717,2,0,B|12:221|12:221|-3:159,1,95.9999970703126,10|0,0:2|3:2,0:0:0:0:
169,230,7948,2,0,P|163:279|135:322,1,95.9999970703126,10|0,0:2|3:2,0:0:0:0:
138,318,8121,1,0,3:2:0:0:
138,318,8179,2,0,P|191:337|245:351,1,95.9999970703126,10|0,0:2|3:2,0:0:0:0:
303,278,8409,5,10,0:2:0:0:
287,159,8525,2,0,P|253:169|237:179,2,47.9999985351563,0|0|8,3:2|3:0|3:2,0:0:0:0:
425,211,8756,1,0,3:2:0:0:
475,79,8871,2,0,P|416:104|371:111,1,95.9999970703126,8|2,0:2|3:2,0:0:0:0:
384,109,9044,1,0,3:2:0:0:
384,109,9102,1,10,2:2:0:0:
238,90,9217,5,6,3:2:0:0:
287,159,9333,2,0,P|275:226|271:260,1,95.9999970703126,8|4,0:3|0:3,0:0:0:0:
343,347,9563,2,0,P|389:313|396:271,1,95.9999970703126,14|0,0:2|3:2,0:0:0:0:
195,339,9794,2,0,P|149:305|142:263,1,95.9999970703126,14|0,0:2|3:2,0:0:0:0:
271,253,10025,5,14,0:2:0:0:
238,90,10140,1,2,3:2:0:0:
238,90,10198,1,0,3:2:0:0:
238,90,10256,1,8,0:3:0:0:
238,90,10313,1,8,0:3:0:0:
238,90,10371,1,4,0:3:0:0:
124,76,10486,6,0,P|125:130|123:180,1,95.9999970703126,14|0,0:2|3:2,0:0:0:0:
352,111,10717,2,0,P|350:63|351:15,1,95.9999970703126,10|0,0:2|3:2,0:0:0:0:
453,167,10948,2,0,P|432:188|427:210,1,47.9999985351563,10|8,0:2|0:2,0:0:0:0:
485,304,11063,6,0,B|467:328|437:345|437:345|384:293|320:271,1,191.999994140625,6|0,3:2|3:2,0:0:0:0:
314,282,11352,1,0,3:2:0:0:
297,296,11409,2,0,P|266:324|212:344,1,95.9999970703126,10|0,0:2|3:2,0:0:0:0:
81,345,11640,2,0,P|115:296|119:237,1,95.9999970703126,10|0,0:2|3:2,0:0:0:0:
121,261,11813,1,0,3:2:0:0:
121,261,11871,2,0,P|105:204|101:152,1,95.9999970703126,10|0,0:2|3:2,0:0:0:0:
24,140,12102,5,10,0:2:0:0:
166,106,12217,2,0,P|229:119|234:240,1,191.999994140625,2|0,3:2|3:2,0:0:0:0:
243,230,12563,1,10,0:2:0:0:
342,223,12679,2,0,P|344:249|355:279,2,47.9999985351563,2|0|10,3:2|3:2|0:2,0:0:0:0:
424,133,12909,5,2,3:2:0:0:
311,29,13025,2,0,P|326:86|333:140,1,95.9999970703126,10|0,0:2|3:2,0:0:0:0:
466,266,13256,2,0,L|368:240,1,95.9999970703126,10|0,0:2|3:2,0:0:0:0:
247,356,13486,2,0,L|345:330,1,95.9999970703126,10|0,0:2|3:2,0:0:0:0:
178,289,13717,1,10,0:2:0:0:
81,323,13833,6,0,L|88:377,4,47.9999985351563,8|8|8|8|0,0:2|0:2|0:2|0:2|3:2,0:0:0:0:
70,225,14179,1,8,0:2:0:0:
57,122,14294,5,8,0:3:0:0:
57,122,14352,1,8,0:3:0:0:
57,122,14409,2,0,P|85:115|110:123,1,47.9999985351563,4|4,0:3|0:3,0:0:0:0:
162,171,14525,2,0,P|202:133|282:108,1,95.9999970703126,6|0,3:2|0:2,0:0:0:0:
325,151,14756,6,0,P|353:127|362:108,6,40,6|0|8|0|8|8|0,3:2|0:0|0:2|0:0|0:2|0:2|0:0,0:0:0:0:
278,46,15333,1,6,3:2:0:0:
450,83,15563,1,2,0:2:0:0:
408,262,15909,5,0,3:2:0:0:
412,279,16140,5,0,3:2:0:0:
418,296,16371,5,2,3:2:0:0:
351,353,16486,1,10,0:2:0:0:
248,298,16602,5,6,3:2:0:0:
248,298,16717,2,0,P|197:320|171:347,1,80,10|0,2:2|3:2,0:0:0:0:
100,297,16948,2,0,L|83:190,1,80,12|0,0:2|3:2,0:0:0:0:
225,224,17179,2,0,L|242:117,1,80,12|0,0:2|3:2,0:0:0:0:
150,80,17409,5,12,0:2:0:0:
342,149,17640,1,14,0:2:0:0:
35,158,17871,5,14,0:2:0:0:
383,65,18102,1,14,0:2:0:0:
330,270,18333,5,10,0:2:0:0:
411,348,18448,5,14,0:2:0:0:
411,348,18563,2,0,P|409:303|420:256,1,80,14|0,2:2|3:2,0:0:0:0:
285,329,18794,2,0,P|287:284|276:237,1,80,14|0,0:2|3:2,0:0:0:0:
395,195,19025,2,0,P|362:150|322:156,1,80,14|0,0:2|3:2,0:0:0:0:
243,169,19256,1,10,0:2:0:0:
190,101,19371,5,8,0:3:0:0:
197,53,19525,1,8,0:3:0:0:
160,25,19679,1,8,0:3:0:0:
66,73,19833,5,4,0:3:0:0:
110,146,19986,1,4,0:3:0:0:
54,227,20140,1,4,0:3:0:0:
84,346,20294,6,0,P|132:305|269:298,1,176.000005371094,6|0,3:2|3:2,0:0:0:0:
240,289,20583,1,0,3:2:0:0:
240,289,20640,1,8,2:2:0:0:
307,349,20756,1,0,3:2:0:0:
388,298,20871,1,8,0:2:0:0:
338,215,20986,2,0,L|241:190,1,88.000002685547,0|8,3:2|0:2,0:0:0:0:
427,163,21217,5,0,3:2:0:0:
427,163,21448,2,0,P|421:112|422:73,1,88.000002685547,2|10,3:2|3:2,0:0:0:0:
303,13,21679,2,0,P|303:56|297:100,1,88.000002685547,2|10,3:2|0:2,0:0:0:0:
201,144,21909,2,0,P|200:160|210:193,2,44.0000013427735,2|0|8,3:2|3:2|0:2,0:0:0:0:
123,24,22140,6,0,P|100:108|88:196,1,176.000005371094,0|0,3:2|3:2,0:0:0:0:
88,196,22429,1,0,3:0:0:0:
88,196,22486,2,0,P|99:253|101:297,1,88.000002685547,8|0,3:2|3:2,0:0:0:0:
37,348,22717,1,8,0:2:0:0:
173,318,22833,2,0,P|165:347|163:372,2,44.0000013427735,0|0|10,3:2|3:2|0:2,0:0:0:0:
245,265,23063,6,0,P|236:220|231:172,1,88.000002685547,2|10,3:2|2:2,0:0:0:0:
337,332,23294,2,0,P|351:288|371:244,1,88.000002685547,0|8,3:2|0:2,0:0:0:0:
228,260,23525,2,0,P|219:215|214:167,1,88.000002685547,0|8,3:2|0:2,0:0:0:0:
358,347,23756,2,0,P|372:303|392:259,1,88.000002685547,0|8,3:0|3:2,0:0:0:0:
492,188,23986,6,0,B|466:174|460:152|460:152|402:120|310:132,1,176.000005371094,6|0,3:2|3:2,0:0:0:0:
337,129,24275,1,0,3:2:0:0:
337,129,24333,1,8,0:2:0:0:
278,48,24448,1,0,3:2:0:0:
200,108,24563,1,8,0:2:0:0:
259,189,24679,1,0,3:2:0:0:
259,189,24736,1,0,3:2:0:0:
259,189,24794,2,0,P|270:215|274:240,1,44.0000013427735,8|0,0:2|0:0,0:0:0:0:
183,324,24909,6,0,P|193:277|192:225,1,88.000002685547,0|8,3:2|0:2,0:0:0:0:
120,214,25140,1,2,3:2:0:0:
48,268,25256,1,10,0:2:0:0:
14,171,25371,1,2,3:2:0:0:
91,119,25486,2,0,P|142:91|168:64,1,88.000002685547,10|2,0:2|3:2,0:0:0:0:
162,70,25659,1,0,3:0:0:0:
162,70,25717,1,8,3:2:0:0:
270,120,25833,6,0,P|336:96|446:94,1,176.000005371094,6|0,3:2|3:2,0:0:0:0:
466,232,26179,2,0,P|400:256|290:258,1,176.000005371094,14|8,0:2|2:2,0:0:0:0:
373,176,26525,1,6,3:2:0:0:
373,176,26756,5,0,3:2:0:0:
361,295,26871,1,2,0:2:0:0:
361,295,27102,5,0,3:2:0:0:
295,352,27217,2,0,P|245:336|213:307,1,88.000002685547,10|10,0:2|0:2,0:0:0:0:
145,251,27448,1,10,0:2:0:0:
112,355,27563,1,10,0:2:0:0:
148,235,27679,6,0,P|95:211|53:182,1,88.000002685547,6|8,3:2|0:2,0:0:0:0:
55,107,27909,2,0,L|44:55,2,44.0000013427735,0|0|8,3:2|3:2|0:2,0:0:0:0:
156,55,28140,1,0,3:2:0:0:
208,141,28256,2,0,P|265:111|289:78,1,88.000002685547,8|0,0:2|3:2,0:0:0:0:
279,93,28429,1,0,3:2:0:0:
279,93,28486,1,8,0:2:0:0:
270,227,28602,5,0,3:2:0:0:
270,227,28833,2,0,P|258:276|252:322,1,88.000002685547,2|10,3:2|0:2,0:0:0:0:
368,360,29063,2,0,P|361:316|350:273,1,88.000002685547,2|10,3:2|0:2,0:0:0:0:
443,226,29294,2,0,P|441:251|442:277,2,44.0000013427735,2|0|0,3:2|3:2|3:2,0:0:0:0:
512,142,29525,6,0,P|440:113|343:166,1,176.000005371094,0|0,3:2|3:2,0:0:0:0:
354,150,29813,1,0,3:2:0:0:
354,150,29871,2,0,P|305:134|288:101,1,88.000002685547,8|2,0:2|0:2,0:0:0:0:
321,31,30102,1,8,0:2:0:0:
210,61,30217,2,0,L|200:17,2,44.0000013427735,0|0|10,3:2|3:0|3:2,0:0:0:0:
140,138,30448,6,0,P|193:158|233:270,1,176.000005371094,0|0,3:2|3:2,0:0:0:0:
170,347,30794,1,8,0:2:0:0:
58,354,30909,2,0,P|54:304|44:255,1,88.000002685547,0|8,3:2|0:2,0:0:0:0:
140,138,31140,2,0,P|132:181|128:225,1,88.000002685547,0|10,3:2|0:2,0:0:0:0:
234,262,31371,6,0,L|280:242,7,44.0000013427735,6|0|8|8|8|8|0|0,3:2|0:2|0:2|0:2|0:2|0:2|3:2|3:2,0:0:0:0:
329,299,31833,5,6,3:2:0:0:
329,299,31890,1,0,0:2:0:0:
329,299,31948,2,0,L|377:288,1,44.0000013427735,8|8,0:2|0:2,0:0:0:0:
466,222,32063,2,0,L|408:207,1,44.0000013427735,8|8,0:2|0:2,0:0:0:0:
347,319,32179,2,0,L|395:308,1,44.0000013427735,8|8,2:2|2:2,0:0:0:0:
328,187,32294,1,6,3:2:0:0:
466,173,33217,6,0,P|479:128|334:95,1,248,4|0,3:2|0:0,0:0:0:0:
334,93,36909,6,0,P|285:81|259:60,1,71.9999978027344,6|0,3:2|3:2,0:0:0:0:
116,43,37140,2,0,P|151:37|182:18,1,71.9999978027344,14|0,0:2|0:2,0:0:0:0:
190,111,37371,1,2,3:2:0:0:
147,188,37486,2,0,L|158:273,1,71.9999978027344,14|0,0:2|3:2,0:0:0:0:
110,335,37717,6,0,P|62:329|48:281,1,71.9999978027344,6|0,3:2|3:2,0:0:0:0:
223,304,37948,2,0,P|271:310|285:358,1,71.9999978027344,14|0,0:2|3:2,0:0:0:0:
317,232,38179,1,2,3:2:0:0:
388,329,38294,2,0,P|389:288|397:238,1,71.9999978027344,14|0,0:2|3:2,0:0:0:0:
451,200,38525,1,14,0:2:0:0:
451,200,38756,5,6,3:2:0:0:
408,120,38871,1,0,3:2:0:0:
408,120,38986,2,0,L|415:78,2,35.9999989013672,2|0|0,3:2|3:2|3:2,0:0:0:0:
321,77,39217,1,8,0:3:0:0:
321,77,39332,2,0,L|314:35,2,35.9999989013672,4|4|4,0:3|0:3|0:3,0:0:0:0:
255,140,39563,1,4,0:3:0:0:
332,186,39679,5,6,2:2:0:0:
