osu file format v14

[General]
AudioFilename: audio.mp3
AudioLeadIn: 0
PreviewTime: 2756
Countdown: 0
SampleSet: Soft
StackLeniency: 0.7
Mode: 0
LetterboxInBreaks: 0
WidescreenStoryboard: 1

[Editor]
Bookmarks: 14756,20294,33217,36909
DistanceSpacing: 1.2
BeatDivisor: 4
GridSize: 32
TimelineZoom: 1.7

[Metadata]
Title:Falling Falls
TitleUnicode:Falling Falls
Artist:BLANKFIELD
ArtistUnicode:BLANKFIELD
Creator:tadahitotsu
Version:Expert
Source:東方風神録 ~ Mountain of Faith.
Tags:東方Project touhou project fuujinroku fall of fall フォールオブフォール ~ 秋めく滝 akimeku taki autumnal waterfall heavy metal at the termination of phantasm guitar drums rock instrumental zun momiji inubashiri video game Team Shanghai Alice featured artist fa th10 nao tomori
BeatmapID:3141504
BeatmapSetID:1535708

[Difficulty]
HPDrainRate:5
CircleSize:4
OverallDifficulty:9
ApproachRate:9.4
SliderMultiplier:1.7
SliderTickRate:1

[Events]
//Background and Video events
0,0,"ds.jpg",0,0
//Break Periods
//Storyboard Layer 0 (Background)
//Storyboard Layer 1 (Fail)
//Storyboard Layer 2 (Pass)
//Storyboard Layer 3 (Foreground)
//Storyboard Layer 4 (Overlay)
//Storyboard Sound Samples

[TimingPoints]
1833,230.769230769231,4,2,1,50,1,0
1833,-100,4,2,1,50,0,0
3679,-76.9230769230769,4,2,1,70,0,1
5871,-76.9230769230769,4,2,1,70,0,1
6563,-76.9230769230769,4,2,1,70,0,1
9563,-76.9230769230769,4,2,1,70,0,1
10486,-76.9230769230769,4,2,1,70,0,1
10948,-76.9230769230769,4,2,1,70,0,1
13256,-76.9230769230769,4,2,1,70,0,1
14756,-90.9090909090909,4,2,1,60,0,0
15909,-90.9090909090909,4,2,1,60,0,0
16602,-90.9090909090909,4,2,1,60,0,0
20294,-83.3333333333333,4,2,1,70,0,0
33217,-1000,4,2,1,50,0,0
36909,-99.9999999999999,4,2,1,70,0,0

[Colours]
Combo1 : 240,240,240
Combo2 : 255,107,36
Combo3 : 196,196,196

[HitObjects]
178,357,1833,5,2,0:2:0:0:
299,244,2294,1,2,0:2:0:0:
46,231,2756,5,6,3:2:0:0:
49,210,2813,1,0,3:2:0:0:
52,190,2871,1,0,3:2:0:0:
56,170,2929,1,0,3:2:0:0:
59,150,2986,1,0,3:2:0:0:
62,130,3044,1,0,3:2:0:0:
66,110,3102,6,0,P|88:99|119:95,5,42.5,10|8|0|0|0|0,0:2|0:2|3:2|3:2|3:2|3:2,0:0:0:0:
184,152,3448,5,8,0:2:0:0:
215,152,3505,1,8,0:2:0:0:
243,139,3563,1,8,0:2:0:0:
262,114,3621,1,8,0:2:0:0:
269,84,3678,5,6,3:2:0:0:
348,51,3794,2,0,P|421:37|459:20,1,110.499994941712,10|0,2:2|3:2,0:0:0:0:
471,28,3967,1,0,3:2:0:0:
488,44,4025,2,0,B|492:78|492:78|450:173,1,110.499994941712,10|0,0:2|3:2,0:0:0:0:
370,198,4256,2,0,B|366:232|366:232|408:327,1,110.499994941712,10|0,0:2|3:2,0:0:0:0:
412,313,4429,1,0,3:2:0:0:
428,323,4486,1,10,0:2:0:0:
310,363,4602,6,0,L|184:332,1,110.499994941712,0|10,3:2|0:2,0:0:0:0:
241,199,4833,1,2,3:2:0:0:
243,211,4890,1,0,3:2:0:0:
245,222,4948,1,8,2:2:0:0:
90,217,5063,1,0,3:2:0:0:
118,351,5179,1,8,0:2:0:0:
142,153,5294,6,0,L|119:94,1,55.2499974708558,0|0,3:2|3:2,0:0:0:0:
33,135,5409,2,0,L|12:186,1,55.2499974708558,10|0,0:2|0:2,0:0:0:0:
57,50,5525,5,2,3:2:0:0:
182,36,5640,2,0,L|292:71,1,110.499994941712,10|0,0:2|3:2,0:0:0:0:
313,67,5813,1,0,3:2:0:0:
333,64,5871,2,0,P|386:93|389:154,1,110.499994941712,10|0,0:2|3:2,0:0:0:0:
339,257,6102,2,0,P|390:271|434:241,1,110.499994941712,10|0,0:2|3:2,0:0:0:0:
434,241,6275,1,0,3:0:0:0:
434,241,6333,6,0,P|421:306|266:300,1,220.999989883423,10|8,0:2|0:2,0:0:0:0:
253,207,6679,1,0,3:2:0:0:
253,207,6736,1,0,3:2:0:0:
253,207,6794,1,8,3:2:0:0:
210,326,6909,1,0,3:2:0:0:
210,326,7025,1,8,0:2:0:0:
91,257,7140,1,0,3:2:0:0:
92,276,7198,1,0,3:2:0:0:
93,295,7256,1,8,0:2:0:0:
43,367,7371,6,0,L|82:139,1,220.999989883423,6|0,3:2|3:2,0:0:0:0:
72,132,7659,1,0,3:0:0:0:
63,112,7717,2,0,P|112:71|170:80,1,110.499994941712,10|0,0:2|3:2,0:0:0:0:
187,247,7948,2,0,P|219:196|233:146,1,110.499994941712,10|0,0:2|3:2,0:0:0:0:
227,131,8121,1,0,3:2:0:0:
223,119,8179,1,10,0:2:0:0:
210,326,8294,5,0,3:2:0:0:
321,282,8409,1,10,0:2:0:0:
423,357,8525,1,0,3:2:0:0:
423,357,8583,1,0,3:0:0:0:
423,357,8640,1,8,3:2:0:0:
484,305,8756,1,0,3:2:0:0:
398,204,8871,6,0,L|408:265,1,55.2499974708558,8|0,0:2|0:0,0:0:0:0:
333,130,8986,2,0,L|311:187,1,55.2499974708558,2|0,3:2|3:2,0:0:0:0:
421,185,9102,2,0,L|431:246,1,55.2499974708558,10|8,2:2|2:2,0:0:0:0:
413,93,9217,5,6,3:2:0:0:
288,56,9333,2,0,P|219:75|154:113,1,110.499994941712,8|4,0:3|0:3,0:0:0:0:
151,245,9563,2,0,P|222:215|218:161,1,110.499994941712,14|0,0:2|3:2,0:0:0:0:
139,77,9794,2,0,P|68:107|72:161,1,110.499994941712,14|0,0:2|3:2,0:0:0:0:
146,160,10025,1,14,0:2:0:0:
72,334,10140,5,2,3:2:0:0:
68,307,10197,1,0,3:2:0:0:
65,281,10255,1,8,0:3:0:0:
62,255,10313,1,8,0:3:0:0:
59,228,10370,1,4,0:3:0:0:
176,348,10486,6,0,P|230:322|319:299,1,110.499994941712,14|0,0:2|3:2,0:0:0:0:
463,351,10717,2,0,P|410:334|360:309,1,110.499994941712,10|0,0:2|3:2,0:0:0:0:
322,217,10948,1,10,0:2:0:0:
489,187,11063,6,0,P|478:106|345:82,1,220.999989883423,6|0,3:2|3:2,0:0:0:0:
344,87,11352,1,0,3:2:0:0:
331,106,11409,2,0,P|274:92|222:64,1,110.499994941712,10|0,0:2|3:2,0:0:0:0:
202,167,11640,2,0,P|152:191|99:204,1,110.499994941712,10|0,0:2|3:2,0:0:0:0:
83,192,11813,1,0,3:2:0:0:
67,181,11871,1,10,0:2:0:0:
148,61,11986,5,0,3:2:0:0:
148,61,12102,1,10,0:2:0:0:
202,167,12217,1,2,3:2:0:0:
199,190,12274,1,0,3:2:0:0:
197,213,12332,1,8,0:2:0:0:
194,236,12390,1,0,0:0:0:0:
192,259,12447,1,0,0:0:0:0:
111,315,12563,1,10,0:2:0:0:
236,351,12679,6,0,P|260:335|288:328,1,55.2499974708558,2|0,3:2|3:2,0:0:0:0:
315,233,12794,2,0,P|340:245|360:266,1,55.2499974708558,10|8,0:2|0:2,0:0:0:0:
383,349,12909,5,2,3:2:0:0:
487,272,13025,2,0,P|471:195|416:165,1,110.499994941712,10|0,0:2|3:2,0:0:0:0:
434,178,13198,1,0,3:2:0:0:
415,185,13256,2,0,L|427:65,1,110.499994941712,10|0,0:2|3:2,0:0:0:0:
273,12,13486,2,0,L|283:121,1,110.499994941712,10|0,0:2|3:2,0:0:0:0:
351,29,13717,1,10,0:2:0:0:
223,174,13833,5,8,0:2:0:0:
223,174,13890,1,8,0:2:0:0:
223,174,13948,1,8,0:2:0:0:
223,174,14006,1,8,0:2:0:0:
223,174,14063,1,0,3:2:0:0:
129,99,14179,1,8,0:2:0:0:
236,263,14294,5,8,0:3:0:0:
209,266,14351,1,8,0:3:0:0:
184,259,14409,1,4,0:3:0:0:
163,244,14467,1,4,0:3:0:0:
149,221,14524,1,6,3:2:0:0:
311,197,14640,1,0,0:2:0:0:
302,339,14756,5,6,3:2:0:0:
329,353,14813,1,0,0:0:0:0:
360,356,14871,1,8,0:2:0:0:
390,346,14929,1,8,0:2:0:0:
413,325,14986,1,8,0:2:0:0:
426,297,15044,1,8,0:2:0:0:
428,267,15102,5,6,3:2:0:0:
223,174,15333,1,6,3:2:0:0:
492,57,15563,1,2,0:2:0:0:
85,28,15909,5,0,3:2:0:0:
87,43,16140,5,0,3:2:0:0:
88,58,16371,5,2,3:2:0:0:
130,171,16486,1,10,0:2:0:0:
17,218,16602,5,6,3:2:0:0:
96,276,16717,2,0,L|87:375,1,93.5000028533936,10|0,2:2|3:2,0:0:0:0:
193,219,16948,2,0,P|161:171|115:178,1,93.5000028533936,12|0,0:2|3:2,0:0:0:0:
227,299,17179,2,0,P|259:347|305:340,1,93.5000028533936,12|0,0:2|3:2,0:0:0:0:
358,200,17409,6,0,P|356:262|358:312,1,93.5000028533936,12|0,0:2|3:2,0:0:0:0:
403,135,17640,2,0,P|405:73|403:23,1,93.5000028533936,14|0,0:2|3:2,0:0:0:0:
193,219,17871,2,0,P|191:281|193:331,1,93.5000028533936,14|0,0:2|3:2,0:0:0:0:
265,112,18102,2,0,P|267:50|265:0,1,93.5000028533936,14|0,0:2|3:2,0:0:0:0:
138,25,18333,1,10,0:2:0:0:
54,103,18448,5,14,0:2:0:0:
169,136,18563,1,14,2:2:0:0:
5,223,18794,5,14,0:2:0:0:
265,189,19025,1,14,0:2:0:0:
93,345,19256,1,10,0:2:0:0:
126,268,19371,5,8,0:3:0:0:
230,313,19525,1,8,0:3:0:0:
345,283,19679,1,8,0:3:0:0:
308,358,19833,5,4,0:3:0:0:
440,309,19986,1,4,0:3:0:0:
461,183,20140,1,4,0:3:0:0:
343,71,20294,6,0,P|350:141|350:200,1,101.999996887207,6|8,3:2|0:2,0:0:0:0:
264,21,20525,1,0,3:2:0:0:
264,21,20583,1,0,3:2:0:0:
264,21,20640,1,8,2:2:0:0:
133,166,20756,2,0,P|126:236|126:295,1,101.999996887207,0|8,3:2|0:2,0:0:0:0:
204,127,20987,1,0,3:2:0:0:
204,127,21045,1,0,3:2:0:0:
204,127,21102,1,8,0:2:0:0:
253,255,21217,5,0,3:2:0:0:
253,255,21448,2,0,P|230:310|183:313,1,101.999996887207,2|10,3:2|3:2,0:0:0:0:
343,359,21679,2,0,P|341:304|345:251,1,101.999996887207,2|10,3:2|0:2,0:0:0:0:
448,213,21909,1,2,3:2:0:0:
453,225,21967,1,0,3:2:0:0:
455,239,22025,1,8,0:2:0:0:
411,112,22140,6,0,P|353:148|274:145,1,101.999996887207,0|10,3:2|0:2,0:0:0:0:
176,39,22371,2,0,P|126:50|85:79,1,101.999996887207,0|8,3:2|3:2,0:0:0:0:
125,159,22602,1,0,3:2:0:0:
266,90,22717,1,8,0:2:0:0:
253,255,22833,1,0,3:2:0:0:
253,255,22890,1,0,3:2:0:0:
253,255,22948,1,10,0:2:0:0:
132,348,23063,6,0,L|161:130,1,203.999993774414,2|0,3:2|3:2,0:0:0:0:
170,134,23352,1,0,3:2:0:0:
181,123,23409,1,8,0:2:0:0:
26,236,23525,1,0,3:2:0:0:
132,348,23640,2,0,P|188:336|243:344,1,101.999996887207,8|0,0:2|3:0,0:0:0:0:
232,340,23813,1,0,3:0:0:0:
232,340,23871,1,8,3:2:0:0:
445,339,23986,6,0,P|371:334|359:214,1,203.999993774414,6|0,3:2|3:2,0:0:0:0:
369,213,24275,1,0,3:2:0:0:
385,208,24333,1,8,0:2:0:0:
499,274,24448,1,0,3:2:0:0:
459,155,24563,2,0,P|454:95|455:47,1,101.999996887207,8|0,0:2|3:2,0:0:0:0:
466,40,24736,1,0,3:2:0:0:
477,28,24794,1,8,0:2:0:0:
312,99,24909,5,0,3:2:0:0:
312,99,25140,2,0,L|290:46,1,50.9999984436036,2|0,3:2|3:2,0:0:0:0:
192,54,25256,2,0,L|214:1,1,50.9999984436036,10|8,0:2|0:2,0:0:0:0:
255,171,25371,2,0,L|233:118,1,50.9999984436036,2|0,3:2|0:0,0:0:0:0:
98,92,25487,2,0,L|120:39,1,50.9999984436036,10|0,0:2|0:0,0:0:0:0:
159,166,25602,1,2,3:2:0:0:
159,166,25659,1,0,3:0:0:0:
159,166,25717,1,8,3:2:0:0:
19,232,25833,6,0,B|48:210|79:217|79:217|130:274|213:301,1,203.999993774414,6|0,3:2|3:2,0:0:0:0:
69,313,26179,2,0,B|98:335|129:328|129:328|180:271|263:244,1,203.999993774414,14|8,0:2|2:2,0:0:0:0:
245,251,26525,1,6,3:2:0:0:
245,251,26756,5,0,3:2:0:0:
325,322,26871,1,2,0:2:0:0:
325,322,27102,5,0,3:2:0:0:
425,314,27217,1,10,0:2:0:0:
451,215,27333,1,10,0:2:0:0:
364,157,27448,1,10,0:2:0:0:
346,58,27563,1,10,0:2:0:0:
472,94,27679,6,0,P|369:139|246:154,1,203.999993774414,6|0,3:2|3:2,0:0:0:0:
260,137,27967,1,0,3:2:0:0:
245,124,28025,1,8,0:2:0:0:
190,26,28140,1,0,3:2:0:0:
173,212,28256,2,0,P|159:159|126:119,1,101.999996887207,8|0,0:2|3:2,0:0:0:0:
112,116,28429,1,0,3:2:0:0:
88,111,28486,1,8,0:2:0:0:
123,280,28602,5,0,3:2:0:0:
123,280,28833,2,0,L|13:247,1,101.999996887207,2|10,3:2|0:2,0:0:0:0:
246,351,29063,2,0,L|148:380,1,101.999996887207,2|10,3:2|0:2,0:0:0:0:
302,264,29294,1,2,3:2:0:0:
292,241,29352,1,0,3:2:0:0:
271,231,29409,1,0,3:2:0:0:
366,338,29525,6,0,P|431:309|453:251,1,101.999996887207,0|10,3:2|0:2,0:0:0:0:
403,191,29756,1,0,3:2:0:0:
403,191,29813,1,0,3:2:0:0:
403,191,29871,1,8,0:2:0:0:
440,44,29986,2,0,P|375:73|353:131,1,101.999996887207,2|8,0:2|0:2,0:0:0:0:
403,191,30217,1,0,3:2:0:0:
403,191,30274,1,0,3:0:0:0:
403,191,30332,1,10,3:2:0:0:
176,82,30448,6,0,P|244:113|269:236,1,203.999993774414,0|0,3:2|3:2,0:0:0:0:
270,230,30736,1,0,3:2:0:0:
270,230,30794,1,8,0:2:0:0:
160,345,30909,2,0,P|227:339|255:302,1,101.999996887207,0|8,3:2|0:2,0:0:0:0:
99,278,31140,2,0,P|32:284|4:321,1,101.999996887207,0|10,3:2|0:2,0:0:0:0:
183,267,31371,5,6,3:2:0:0:
180,255,31428,1,0,0:2:0:0:
177,244,31486,1,8,0:2:0:0:
174,232,31544,1,8,0:2:0:0:
171,221,31601,1,8,0:2:0:0:
168,210,31659,1,8,0:2:0:0:
165,198,31717,1,0,3:2:0:0:
162,187,31774,1,0,3:2:0:0:
159,176,31833,6,0,L|110:160,1,50.9999984436036,6|0,3:2|0:2,0:0:0:0:
32,90,31948,2,0,L|81:74,1,50.9999984436036,8|8,0:2|0:2,0:0:0:0:
151,18,32063,2,0,L|214:53,1,50.9999984436036,8|8,0:2|0:2,0:0:0:0:
296,22,32179,2,0,L|317:79,1,50.9999984436036,8|8,2:2|2:2,0:0:0:0:
279,183,32294,5,6,3:2:0:0:
279,183,33217,6,0,B|316:222|365:246|365:246|301:204|213:216,1,263.5,4|0,3:2|0:0,0:0:0:0:
216,216,36909,6,0,L|200:320,1,85,6|0,3:2|3:2,0:0:0:0:
77,275,37140,2,0,L|90:358,1,85,14|0,0:2|0:2,0:0:0:0:
147,171,37371,1,2,3:2:0:0:
14,144,37486,1,14,0:2:0:0:
265,63,37717,5,6,3:2:0:0:
203,300,37948,1,14,0:2:0:0:
441,280,38179,1,2,3:2:0:0:
415,182,38294,1,14,0:2:0:0:
325,364,38525,1,14,0:2:0:0:
325,364,38756,5,6,3:2:0:0:
203,300,38871,2,0,L|207:254,3,42.5,0|0|2|0,3:2|0:0|3:2|3:2,0:0:0:0:
231,240,39102,1,0,3:2:0:0:
144,198,39217,2,0,L|148:152,3,42.5,8|0|4|4,0:3|0:3|0:3|0:3,0:0:0:0:
166,141,39448,1,4,0:3:0:0:
52,134,39563,1,4,0:3:0:0:
200,24,39679,5,6,2:2:0:0:
