osu file format v14

[General]
AudioFilename: audio.mp3
AudioLeadIn: 0
PreviewTime: 1765
Countdown: 0
SampleSet: Soft
StackLeniency: 0.7
Mode: 0
LetterboxInBreaks: 0
WidescreenStoryboard: 1

[Editor]
Bookmarks: 16592
DistanceSpacing: 1.2
BeatDivisor: 4
GridSize: 32
TimelineZoom: 2.6

[Metadata]
Title:Falling Falls
TitleUnicode:Falling Falls
Artist:BLANKFIELD
ArtistUnicode:BLANKFIELD
Creator:Nao Tomori
Version:Normal
Source:東方風神録 ~ Mountain of Faith.
Tags:lasse 東方Project touhou project fuujinroku fall of fall フォールオブフォール ~ 秋めく滝 akimeku taki autumnal waterfall heavy metal at the termination of phantasm guitar drums rock instrumental zun momiji inubashiri
BeatmapID:2341608
BeatmapSetID:1120635

[Difficulty]
HPDrainRate:3
CircleSize:3
OverallDifficulty:3.5
ApproachRate:6
SliderMultiplier:0.7
SliderTickRate:0.5

[Events]
//Background and Video events
0,0,"momiji bg.jpg",0,0
//Break Periods
2,33417,35859
//Storyboard Layer 0 (Background)
//Storyboard Layer 1 (Fail)
//Storyboard Layer 2 (Pass)
//Storyboard Layer 3 (Foreground)
//Storyboard Layer 4 (Overlay)
//Storyboard Sound Samples

[TimingPoints]
1833,230.769230769231,4,2,1,60,1,0
2756,-100,4,2,1,70,0,0
3448,-100,4,2,1,70,0,0
3679,-100,4,2,1,70,0,0
9563,-100,4,2,1,70,0,0
11063,-100,4,2,1,70,0,0
14525,-100,4,2,1,70,0,0
14756,-100,4,2,1,70,0,0
15102,-100,4,2,1,70,0,0
15563,-100,4,2,1,50,0,0
15909,-100,4,2,1,50,0,0
16602,-100,4,2,1,70,0,0
19371,-100,4,2,1,50,0,0
20294,-100,4,2,1,75,0,0
25833,-100,4,2,1,85,0,0
26179,-100,4,2,1,85,0,0
26525,-100,4,2,1,85,0,0
26871,-100,4,2,1,65,0,0
27679,-100,4,2,1,75,0,0
32294,-100,4,2,1,75,0,0
33217,-100,4,2,1,75,0,0
33275,-100,4,2,0,15,0,0
36909,-100,4,2,1,75,0,0
38756,-100,4,2,1,75,0,0
39679,-100,4,2,1,75,0,0
39794,-100,4,2,1,55,0,0
40486,-100,4,2,1,5,0,0

[Colours]
Combo1 : 214,192,248
Combo2 : 244,156,134
Combo3 : 184,245,227
Combo4 : 231,199,139

[HitObjects]
32,195,1833,6,0,P|73:177|156:230,1,140,2|2,0:2|0:2,0:0:0:0:
274,312,2756,2,0,B|322:296|322:296|384:315,2,105,6|10|8,3:2|0:2|0:2,0:0:0:0:
214,252,3679,6,0,P|199:208|221:152,1,105,6|10,3:2|0:2,0:0:0:0:
292,115,4256,1,10,0:2:0:0:
366,153,4486,1,10,0:2:0:0:
442,118,4717,2,0,L|424:3,2,105,10|0|10,0:2|3:2|0:2,0:0:0:0:
501,176,5640,5,10,0:2:0:0:
437,231,5871,1,10,0:2:0:0:
484,300,6102,1,10,0:2:0:0:
422,357,6333,2,0,P|337:313|180:329,1,245,10|0,0:2|3:2,0:0:0:0:
118,282,7371,6,0,L|126:175,1,105,6|10,3:2|0:2,0:0:0:0:
72,112,7948,1,10,0:2:0:0:
123,45,8179,2,0,B|150:42|172:26|172:26|240:53|240:53|297:21|360:52,1,245,10|2,0:2|3:2,0:0:0:0:
427,90,9217,6,0,P|417:116|411:204,1,105,6|14,3:2|0:2,0:0:0:0:
465,255,9794,1,14,0:2:0:0:
432,332,10025,1,14,0:2:0:0:
348,342,10256,2,0,P|303:339|276:349,1,70,8|14,0:3|0:2,0:0:0:0:
206,306,10717,2,0,P|172:315|137:310,1,70,10|10,0:2|0:2,0:0:0:0:
108,340,11063,6,0,P|115:298|103:221,1,105,6|10,3:2|0:2,0:0:0:0:
51,173,11640,1,10,0:2:0:0:
101,106,11871,1,10,0:2:0:0:
181,128,12102,2,0,P|225:140|293:120,1,105,10|0,0:2|3:2,0:0:0:0:
348,76,12679,1,2,3:2:0:0:
404,137,12909,6,0,P|413:187|421:251,1,105,2|10,3:2|0:2,0:0:0:0:
374,311,13486,1,10,0:2:0:0:
300,270,13717,2,0,B|163:242|163:242|109:269|136:347,1,245,10|6,0:2|3:2,0:0:0:0:
214,349,14756,6,0,P|229:308|210:250,1,105,6|0,3:2|0:0,0:0:0:0:
239,172,15333,1,6,3:2:0:0:
184,108,15563,2,0,B|29:85|29:85|60:112|68:173,1,245,2|2,0:2|3:2,0:0:0:0:
18,232,16602,6,0,P|-1:275|10:339,1,105,6|12,3:2|0:2,0:0:0:0:
85,359,17179,1,12,0:2:0:0:
153,310,17409,1,12,0:2:0:0:
234,329,17640,2,0,L|310:317,1,70,14|14,0:2|0:2,0:0:0:0:
366,262,18102,2,0,L|442:250,1,70,14|10,0:2|0:2,0:0:0:0:
462,219,18448,6,0,P|478:170|460:121,1,105,14|14,0:2|0:2,0:0:0:0:
396,67,19025,2,0,L|318:78,1,70,14|10,0:2|0:2,0:0:0:0:
297,107,19371,2,0,B|261:90|261:90|150:114,1,140,8|4,0:3|0:3,0:0:0:0:
53,229,20294,6,0,B|86:247|118:257|118:257|197:204|290:223,1,245,6|8,3:2|0:2,0:0:0:0:
362,252,21333,1,8,0:2:0:0:
441,226,21563,1,10,0:2:0:0:
490,293,21794,1,10,0:2:0:0:
441,360,22025,1,8,0:2:0:0:
359,340,22256,6,0,B|247:313|282:395|153:367,1,210,10|10,0:2|0:2,0:0:0:0:
100,305,23179,2,0,B|58:218|101:161|101:161|144:169|157:204,1,210,10|8,2:2|0:2,0:0:0:0:
188,175,23986,6,0,P|227:203|418:111,1,280,6|0,3:2|3:2,0:0:0:0:
374,48,25140,1,2,3:2:0:0:
299,86,25371,1,2,3:2:0:0:
227,41,25602,1,2,3:2:0:0:
160,92,25833,6,0,B|100:103|100:103|50:84,3,105,6|14|6|2,3:2|0:2|3:2|0:2,0:0:0:0:
23,208,27217,2,0,P|45:217|102:205,1,70,10|10,0:2|0:2,0:0:0:0:
161,257,27679,6,0,P|222:218|374:294,1,245,6|8,3:2|0:2,0:0:0:0:
444,315,28717,1,10,0:2:0:0:
506,258,28948,1,10,0:2:0:0:
472,180,29179,2,0,L|475:100,1,70,10|8,0:2|0:2,0:0:0:0:
406,60,29640,6,0,P|353:36|280:83,1,140,10|8,0:2|0:2,0:0:0:0:
251,149,30333,1,10,0:2:0:0:
209,221,30563,2,0,B|165:281|67:257|67:257|88:241|103:209,1,210,10|10,0:2|0:2,0:0:0:0:
75,181,31371,6,0,L|60:35,2,140,6|6|6,3:2|3:2|3:2,0:0:0:0:
75,181,33217,5,0,3:2:0:0:
75,181,36909,6,0,P|67:224|74:255,2,70,6|14|2,3:2|0:2|3:2,0:0:0:0:
102,148,37486,1,14,0:2:0:0:
176,187,37717,1,6,3:2:0:0:
255,159,37948,2,0,L|329:153,1,70,14|2,0:2|3:2,0:0:0:0:
355,124,38294,1,14,0:2:0:0:
316,49,38525,1,14,0:2:0:0:
391,12,38756,6,0,B|431:23|471:3|471:3|427:43|434:98|434:98|466:139|446:188,1,280,6|6,3:2|2:2,0:0:0:0:
