osu file format v14

[General]
AudioFilename: audio.mp3
AudioLeadIn: 0
PreviewTime: 1765
Countdown: 0
SampleSet: Soft
StackLeniency: 0.7
Mode: 0
LetterboxInBreaks: 0
WidescreenStoryboard: 1

[Editor]
Bookmarks: 16592
DistanceSpacing: 1.2
BeatDivisor: 4
GridSize: 16
TimelineZoom: 2.6

[Metadata]
Title:Falling Falls
TitleUnicode:Falling Falls
Artist:BLANKFIELD
ArtistUnicode:BLANKFIELD
Creator:Nao Tomori
Version:Insane
Source:東方風神録 ~ Mountain of Faith.
Tags:lasse 東方Project touhou project fuujinroku fall of fall フォールオブフォール ~ 秋めく滝 akimeku taki autumnal waterfall heavy metal at the termination of phantasm guitar drums rock instrumental zun momiji inubashiri
BeatmapID:2344118
BeatmapSetID:1120635

[Difficulty]
HPDrainRate:5
CircleSize:4
OverallDifficulty:7.5
ApproachRate:9
SliderMultiplier:1.3
SliderTickRate:1

[Events]
//Background and Video events
0,0,"momiji bg.jpg",0,0
//Break Periods
//Storyboard Layer 0 (Background)
//Storyboard Layer 1 (Fail)
//Storyboard Layer 2 (Pass)
//Storyboard Layer 3 (Foreground)
//Storyboard Layer 4 (Overlay)
//Storyboard Sound Samples

[TimingPoints]
1833,230.769230769231,4,2,1,60,1,0
2756,-100,4,2,1,70,0,0
3448,-100,4,2,1,70,0,0
3679,-100,4,2,1,70,0,0
9563,-100,4,2,1,70,0,0
11063,-100,4,2,1,70,0,0
14525,-100,4,2,1,70,0,0
14756,-100,4,2,1,70,0,0
15102,-100,4,2,1,70,0,0
15563,-133.333333333333,4,2,1,50,0,0
15909,-100,4,2,1,50,0,0
16602,-100,4,2,1,70,0,0
19371,-133.333333333333,4,2,1,50,0,0
20294,-100,4,2,1,75,0,0
25833,-100,4,2,1,85,0,0
26179,-100,4,2,1,85,0,0
26525,-100,4,2,1,85,0,0
26871,-100,4,2,1,65,0,0
27217,-100,4,2,1,65,0,0
27679,-100,4,2,1,75,0,0
32294,-133.333333333333,4,2,1,75,0,0
33217,-333.333333333333,4,2,1,75,0,0
33275,-333.333333333333,4,2,0,15,0,0
36909,-100,4,2,1,75,0,0
38756,-100,4,2,1,75,0,0
39679,-100,4,2,1,75,0,0
39794,-100,4,2,1,55,0,0
40486,-100,4,2,1,5,0,0

[Colours]
Combo1 : 214,192,248
Combo2 : 244,156,134
Combo3 : 184,245,227
Combo4 : 231,199,139

[HitObjects]
74,291,1833,5,2,0:2:0:0:
37,154,2294,5,2,0:2:0:0:
174,190,2756,6,0,P|215:189|255:175,1,65,6|0,3:2|3:2,0:0:0:0:
288,96,2986,1,0,3:2:0:0:
288,96,3102,2,0,P|268:132|260:173,1,65,10|0,0:2|3:2,0:0:0:0:
316,245,3333,1,0,3:2:0:0:
316,245,3449,2,0,P|294:209|262:182,1,65,8|0,0:2|0:0,0:0:0:0:
268,323,3679,5,6,3:2:0:0:
403,250,3794,2,0,L|494:243,1,65,10|0,2:2|3:2,0:0:0:0:
277,193,4025,2,0,L|186:200,1,65,10|0,0:2|3:2,0:0:0:0:
374,81,4256,2,0,P|384:123|380:156,1,65,10|0,0:2|3:2,0:0:0:0:
212,197,4486,6,0,P|198:168|210:59,1,130,10|10,0:2|0:2,0:0:0:0:
93,184,4833,1,2,3:2:0:0:
93,184,4948,2,0,P|107:213|95:322,1,130,8|8,2:2|0:2,0:0:0:0:
189,369,5294,1,0,3:2:0:0:
268,316,5409,1,10,0:2:0:0:
369,364,5525,5,2,3:2:0:0:
256,283,5640,2,0,P|247:236|242:207,1,65,10|0,0:2|3:2,0:0:0:0:
340,81,5871,2,0,P|335:113|329:145,1,65,10|0,0:2|3:2,0:0:0:0:
378,243,6102,2,0,P|431:236|461:234,1,65,10|0,0:2|3:2,0:0:0:0:
220,113,6333,2,0,P|164:106|134:102,1,65,10|0,0:2|3:2,0:0:0:0:
323,59,6563,2,0,P|380:57|458:43,2,130,8|8|8,0:2|3:2|0:2,0:0:0:0:
244,8,7140,1,0,3:2:0:0:
189,86,7256,1,8,0:2:0:0:
369,211,7371,6,0,P|417:177|507:201,1,130,6|0,3:2|3:2,0:0:0:0:
455,338,7717,2,0,P|448:302|442:256,1,65,10|0,0:2|3:2,0:0:0:0:
339,146,7948,2,0,P|345:203|349:241,1,65,10|0,0:2|3:2,0:0:0:0:
272,291,8179,2,0,P|230:283|190:279,1,65,10|0,0:2|3:2,0:0:0:0:
124,207,8409,2,0,B|76:216|26:217|26:217|0:174,2,130,10|8|8,0:2|0:2|0:2,0:0:0:0:
217,128,8986,1,2,3:2:0:0:
115,83,9102,1,10,2:2:0:0:
138,207,9217,5,6,3:2:0:0:
304,136,9333,2,0,P|347:129|395:142,1,65,8|4,0:3|0:3,0:0:0:0:
214,91,9563,2,0,L|198:16,1,65,14|0,0:2|3:2,0:0:0:0:
220,268,9794,2,0,L|236:343,1,65,14|0,0:2|3:2,0:0:0:0:
277,199,10025,1,14,0:2:0:0:
131,319,10140,5,2,3:2:0:0:
309,384,10256,2,0,P|354:377|384:368,1,65,8|0,0:3|0:0,0:0:0:0:
303,128,10486,2,0,L|290:217,1,65,14|0,0:2|3:2,0:0:0:0:
123,368,10717,2,0,L|110:279,1,65,10|0,0:2|3:2,0:0:0:0:
34,248,10948,1,10,0:2:0:0:
114,117,11063,5,6,3:2:0:0:
67,32,11179,2,0,P|26:22|-14:21,1,65,10|0,0:2|3:2,0:0:0:0:
134,136,11409,2,0,P|189:131|219:120,1,65,10|0,0:2|3:2,0:0:0:0:
304,18,11640,2,0,P|292:63|291:88,1,65,10|0,0:2|3:2,0:0:0:0:
415,217,11871,6,0,P|428:158|430:69,1,130,10|10,0:2|0:2,0:0:0:0:
295,230,12217,1,2,3:2:0:0:
295,229,12333,2,0,P|297:294|311:358,1,130,8|10,0:2|0:2,0:0:0:0:
209,310,12679,6,0,P|151:302|121:299,1,65,2|10,3:2|0:2,0:0:0:0:
319,372,12909,1,2,3:2:0:0:
394,255,13025,2,0,P|425:243|456:244,1,65,10|0,0:2|3:2,0:0:0:0:
263,128,13256,6,0,L|253:63,1,65,10|0,0:2|3:2,0:0:0:0:
213,203,13486,2,0,P|251:215|299:205,1,65,10|0,0:2|3:2,0:0:0:0:
64,110,13717,2,0,P|89:163|61:250,1,130,10|8,0:2|0:2,0:0:0:0:
174,344,14063,2,0,P|159:281|185:223,1,130,4|8,3:3|0:3,0:0:0:0:
344,287,14409,1,4,0:3:0:0:
252,288,14525,2,0,P|294:283|343:270,1,65,6|0,3:2|0:2,0:0:0:0:
493,191,14756,6,0,P|431:191|365:159,1,130,6|8,3:2|0:2,0:0:0:0:
405,10,15102,2,0,P|409:51|406:84,1,65,6|0,3:2|0:0,0:0:0:0:
279,197,15333,2,0,P|275:156|278:123,1,65,6|0,3:2|0:0,0:0:0:0:
207,72,15563,6,0,B|159:62|159:62|123:109|57:96,1,146.250005578995,2|0,0:2|3:2,0:0:0:0:
55,81,16140,1,0,3:2:0:0:
46,58,16371,1,2,3:2:0:0:
10,174,16486,1,10,0:2:0:0:
67,256,16602,6,0,P|124:248|204:233,1,130,6|0,3:2|3:2,0:0:0:0:
356,294,16948,2,0,P|309:291|279:282,1,65,12|0,0:2|3:2,0:0:0:0:
178,134,17179,2,0,P|225:137|255:146,1,65,12|0,0:2|3:2,0:0:0:0:
322,74,17409,2,0,P|324:35|327:-3,1,65,12|0,0:2|3:2,0:0:0:0:
436,225,17640,6,0,P|434:264|431:302,1,65,14|0,0:2|3:2,0:0:0:0:
264,275,17871,2,0,B|255:306|255:306|264:357,1,65,14|0,0:2|3:2,0:0:0:0:
345,219,18102,2,0,B|354:188|354:188|345:137,1,65,14|0,0:2|3:2,0:0:0:0:
308,43,18333,1,10,0:2:0:0:
199,138,18448,6,0,P|139:161|74:106,1,130,14|0,0:2|3:2,0:0:0:0:
190,43,18794,2,0,P|196:82|199:118,1,65,14|0,0:2|3:2,0:0:0:0:
57,209,19025,2,0,P|60:176|65:144,1,65,14|0,0:2|3:2,0:0:0:0:
134,266,19256,1,10,0:2:0:0:
85,338,19371,6,0,P|52:332|11:330,2,65.0000024795533,8|8|8,0:3|0:3|0:3,0:0:0:0:
155,282,19833,2,0,P|186:270|231:261,2,65.0000024795533,4|4|4,0:3|0:3|0:3,0:0:0:0:
285,347,20294,6,0,P|333:366|400:322,1,130,6|0,3:2|3:2,0:0:0:0:
491,372,20640,2,0,P|486:328|481:294,1,65,8|0,2:2|3:2,0:0:0:0:
430,172,20871,2,0,P|426:204|422:236,1,65,8|0,0:2|3:2,0:0:0:0:
325,203,21102,2,0,P|328:235|332:267,1,65,8|0,0:2|3:2,0:0:0:0:
360,116,21333,5,8,0:2:0:0:
274,83,21448,1,2,3:2:0:0:
274,83,21563,1,10,0:2:0:0:
228,159,21679,1,2,3:2:0:0:
228,159,21794,2,0,P|175:175|151:169,1,65,10|2,0:2|3:2,0:0:0:0:
41,95,22025,2,0,P|94:107|112:124,1,65,8|0,0:2|0:0,0:0:0:0:
217,255,22256,6,0,P|149:285|82:246,2,130,10|8|8,0:2|0:2|0:2,0:0:0:0:
300,300,22833,1,0,3:2:0:0:
233,371,22948,2,0,P|176:360|146:356,1,65,10|2,0:2|3:2,0:0:0:0:
371,225,23179,6,0,P|404:257|382:350,2,130,10|8|8,2:2|0:2|0:2,0:0:0:0:
412,140,23756,2,0,L|418:51,1,65,0|8,3:2|0:2,0:0:0:0:
270,168,23986,6,0,L|282:315,1,130,6|0,3:2|3:2,0:0:0:0:
203,359,24333,2,0,P|165:373|122:362,1,65,8|0,0:2|3:2,0:0:0:0:
0,315,24563,2,0,P|38:301|81:312,1,65,8|0,0:2|3:2,0:0:0:0:
123,165,24794,2,0,P|137:203|126:246,1,65,8|0,0:2|3:2,0:0:0:0:
60,104,25025,5,8,0:2:0:0:
174,76,25140,2,0,L|248:85,1,65,2|10,3:2|0:2,0:0:0:0:
67,81,25371,2,0,L|-7:90,1,65,2|10,3:2|0:2,0:0:0:0:
131,4,25602,1,2,3:2:0:0:
183,96,25717,1,8,0:2:0:0:
183,96,25833,6,0,P|233:120|309:94,1,130,6|0,3:2|3:2,0:0:0:0:
263,223,26179,2,0,P|217:254|201:333,1,130,14|8,0:2|2:2,0:0:0:0:
113,228,26525,2,0,P|108:172|48:119,1,130,6|0,3:2|3:2,0:0:0:0:
263,223,26871,6,0,P|313:247|389:221,1,130,2|0,0:2|3:2,0:0:0:0:
445,155,27217,1,10,0:2:0:0:
445,155,27333,1,10,0:2:0:0:
389,81,27448,2,0,L|318:92,1,65,10|10,0:2|0:2,0:0:0:0:
173,22,27679,6,0,B|130:12|130:12|87:57|28:34,1,130,6|0,3:2|3:2,0:0:0:0:
12,145,28025,2,0,P|51:136|96:142,1,65,8|0,0:2|3:2,0:0:0:0:
161,198,28256,2,0,P|170:237|164:282,1,65,8|0,0:2|3:2,0:0:0:0:
108,347,28486,2,0,P|69:356|24:350,1,65,8|0,0:2|3:2,0:0:0:0:
195,276,28717,6,0,P|256:264|280:257,1,65,10|2,0:2|3:2,0:0:0:0:
325,200,28948,1,10,0:2:0:0:
325,200,29063,1,2,3:2:0:0:
397,265,29179,2,0,P|409:307|413:351,1,65,10|2,0:2|3:2,0:0:0:0:
340,183,29409,2,0,P|348:149|358:120,1,65,8|0,0:2|3:2,0:0:0:0:
238,7,29640,6,0,P|244:49|260:144,2,130,10|8|8,0:2|0:2|0:2,0:0:0:0:
163,65,30217,1,0,3:2:0:0:
163,65,30333,2,0,P|122:58|91:52,1,65,10|0,0:2|3:2,0:0:0:0:
40,136,30563,2,0,P|81:143|112:149,1,65,10|0,0:2|3:2,0:0:0:0:
113,265,30794,2,0,P|172:251|252:241,2,130,8|8|10,0:2|0:2|0:2,0:0:0:0:
314,176,31371,6,0,B|349:214|349:214|308:368,1,195,6|0,3:2|3:2,0:0:0:0:
456,363,31833,2,0,B|421:325|421:325|462:171,1,195,6|8,3:2|2:2,0:0:0:0:
492,91,32294,1,6,3:2:0:0:
60,331,33217,5,0,3:2:0:0:
51,337,36909,5,6,3:2:0:0:
51,337,37025,1,0,3:2:0:0:
114,222,37140,2,0,P|119:276|124:297,1,65,14|0,0:2|0:2,0:0:0:0:
211,354,37371,1,2,3:2:0:0:
295,296,37486,2,0,P|348:289|376:286,1,65,14|0,0:2|3:2,0:0:0:0:
125,198,37717,6,0,P|83:192|49:203,1,65,6|0,3:2|3:2,0:0:0:0:
200,121,37948,2,0,P|242:127|276:116,1,65,14|0,0:2|3:2,0:0:0:0:
131,49,38179,1,2,3:2:0:0:
275,217,38294,2,0,P|343:208|363:207,1,65,14|0,0:2|3:2,0:0:0:0:
216,293,38525,2,0,P|148:302|128:303,1,65,14|0,0:2|3:2,0:0:0:0:
290,360,38756,5,6,3:2:0:0:
290,360,38871,1,0,3:2:0:0:
365,314,38986,2,0,P|404:309|465:381,1,130,2|8,3:2|0:3,0:0:0:0:
282,252,39333,1,4,0:3:0:0:
282,252,39448,2,0,P|274:213|265:162,1,65,4|4,0:3|0:3,0:0:0:0:
107,377,39679,5,6,2:2:0:0:
