osu file format v14

[General]
AudioFilename: audio.mp3
AudioLeadIn: 0
PreviewTime: 1765
Countdown: 0
SampleSet: Soft
StackLeniency: 0.7
Mode: 0
LetterboxInBreaks: 0
WidescreenStoryboard: 1

[Editor]
Bookmarks: 16592
DistanceSpacing: 1.2
BeatDivisor: 4
GridSize: 16
TimelineZoom: 2.6

[Metadata]
Title:Falling Falls
TitleUnicode:Falling Falls
Artist:BLANKFIELD
ArtistUnicode:BLANKFIELD
Creator:Nao Tomori
Version:Hard
Source:東方風神録 ~ Mountain of Faith.
Tags:lasse 東方Project touhou project fuujinroku fall of fall フォールオブフォール ~ 秋めく滝 akimeku taki autumnal waterfall heavy metal at the termination of phantasm guitar drums rock instrumental zun momiji inubashiri
BeatmapID:2342693
BeatmapSetID:1120635

[Difficulty]
HPDrainRate:4.5
CircleSize:3.5
OverallDifficulty:6.5
ApproachRate:8
SliderMultiplier:1.1
SliderTickRate:1

[Events]
//Background and Video events
0,0,"momiji bg.jpg",0,0
//Break Periods
//Storyboard Layer 0 (Background)
//Storyboard Layer 1 (Fail)
//Storyboard Layer 2 (Pass)
//Storyboard Layer 3 (Foreground)
//Storyboard Layer 4 (Overlay)
//Storyboard Sound Samples

[TimingPoints]
1833,230.769230769231,4,2,1,60,1,0
1833,-100,4,2,1,60,0,0
2756,-100,4,2,1,70,0,0
3448,-100,4,2,1,70,0,0
3679,-100,4,2,1,70,0,0
9563,-100,4,2,1,70,0,0
11063,-100,4,2,1,70,0,0
14525,-100,4,2,1,70,0,0
14756,-100,4,2,1,70,0,0
15102,-100,4,2,1,70,0,0
15563,-100,4,2,1,50,0,0
15909,-100,4,2,1,50,0,0
16602,-100,4,2,1,70,0,0
19371,-100,4,2,1,50,0,0
20294,-100,4,2,1,75,0,0
25833,-100,4,2,1,85,0,0
26179,-100,4,2,1,85,0,0
26525,-100,4,2,1,85,0,0
26871,-100,4,2,1,65,0,0
27217,-100,4,2,1,65,0,0
27679,-100,4,2,1,75,0,0
32294,-133.333333333333,4,2,1,75,0,0
32352,-133.333333333333,4,2,0,25,0,0
33217,-333.333333333333,4,2,1,75,0,0
33275,-333.333333333333,4,2,0,15,0,0
36909,-100,4,2,1,75,0,0
38756,-100,4,2,1,75,0,0
39679,-100,4,2,1,75,0,0
39794,-100,4,2,1,55,0,0
40486,-100,4,2,1,5,0,0

[Colours]
Combo1 : 214,192,248
Combo2 : 244,156,134
Combo3 : 184,245,227
Combo4 : 231,199,139

[HitObjects]
137,20,1833,5,2,0:2:0:0:
80,284,2294,5,2,0:2:0:0:
338,202,2756,6,0,P|387:192|452:198,1,110,6|0,3:2|3:2,0:0:0:0:
375,295,3102,2,0,P|326:305|261:299,1,110,10|0,0:2|3:2,0:0:0:0:
204,241,3448,1,8,0:2:0:0:
193,222,3563,1,8,0:2:0:0:
184,206,3679,6,0,L|191:135,2,55,6|10|0,3:2|2:2|3:2,0:0:0:0:
100,234,4025,2,0,L|109:299,1,55,10|0,0:2|3:2,0:0:0:0:
22,283,4256,2,0,L|15:229,1,55,10|0,0:2|3:2,0:0:0:0:
63,148,4486,2,0,P|80:120|52:35,1,110,10|10,0:2|0:2,0:0:0:0:
168,119,4833,2,0,P|207:136|274:103,1,110,2|0,3:2|3:2,0:0:0:0:
489,153,5294,5,0,3:2:0:0:
480,129,5409,1,10,0:2:0:0:
470,109,5525,2,0,L|486:33,2,55,2|10|0,3:2|0:2|3:2,0:0:0:0:
386,112,5871,2,0,P|375:148|385:185,1,55,10|0,0:2|3:2,0:0:0:0:
434,239,6102,2,0,P|434:266|424:291,1,55,10|0,0:2|3:2,0:0:0:0:
352,360,6333,2,0,P|291:318|242:325,1,110,10|8,0:2|0:2,0:0:0:0:
94,307,6794,2,0,P|147:302|188:266,1,110,8|8,3:2|0:2,0:0:0:0:
231,95,7256,1,8,0:2:0:0:
211,72,7371,6,0,P|218:126|228:180,1,110,6|0,3:2|3:2,0:0:0:0:
308,223,7717,2,0,P|354:209|382:205,1,55,10|0,0:2|3:2,0:0:0:0:
432,238,7948,2,0,P|405:231|379:222,1,55,10|0,0:2|3:2,0:0:0:0:
499,182,8179,2,0,B|525:221|525:221|504:297,1,110,10|10,0:2|0:2,0:0:0:0:
316,370,8640,2,0,B|290:331|290:331|311:255,1,110,8|8,0:2|0:2,0:0:0:0:
258,195,8986,1,2,3:2:0:0:
248,179,9102,1,10,2:2:0:0:
235,159,9217,6,0,P|182:154|158:154,2,55,6|8|4,3:2|0:3|0:3,0:0:0:0:
122,83,9563,2,0,P|106:105|90:127,1,55,14|0,0:2|3:2,0:0:0:0:
210,60,9794,2,0,P|198:36|188:11,1,55,14|0,0:2|3:2,0:0:0:0:
301,97,10025,5,14,0:2:0:0:
324,76,10140,2,0,P|374:69|404:64,2,55,2|8|4,3:2|0:3|0:3,0:0:0:0:
392,159,10486,2,0,P|443:169|512:162,2,110,14|10|10,0:2|0:2|0:2,0:0:0:0:
333,217,11063,5,6,3:2:0:0:
303,201,11179,2,0,P|256:196|230:198,1,55,10|0,0:2|3:2,0:0:0:0:
181,256,11409,2,0,P|176:303|178:329,1,55,10|0,0:2|3:2,0:0:0:0:
239,375,11640,2,0,P|266:379|293:379,1,55,10|0,0:2|3:2,0:0:0:0:
374,329,11871,6,0,B|421:317|421:317|488:331,1,110,10|10,0:2|0:2,0:0:0:0:
512,223,12217,2,0,B|465:235|465:235|398:221,1,110,2|0,3:2|3:2,0:0:0:0:
341,156,12563,1,10,0:2:0:0:
329,133,12679,2,0,P|324:93|331:63,1,55,2|10,3:2|0:2,0:0:0:0:
241,17,12909,6,0,L|177:11,2,55,2|10|0,3:2|0:2|3:2,0:0:0:0:
197,105,13256,2,0,L|142:110,1,55,10|0,0:2|3:2,0:0:0:0:
149,202,13486,2,0,P|111:194|81:191,1,55,10|0,0:2|3:2,0:0:0:0:
20,240,13717,2,0,P|13:278|117:314,1,165,10|0,0:2|3:2,0:0:0:0:
185,358,14179,2,0,P|236:340|288:353,1,110,8|4,0:2|0:3,0:0:0:0:
309,339,14525,1,6,3:2:0:0:
502,360,14756,6,0,P|479:305|472:248,1,110,6|8,3:2|0:2,0:0:0:0:
387,223,15102,2,0,P|398:182|398:161,1,55,6|0,3:2|0:0,0:0:0:0:
311,149,15333,2,0,P|300:190|300:211,1,55,6|0,3:2|0:0,0:0:0:0:
227,259,15563,2,0,B|184:271|184:270|184:270|107:255,1,110,2|0,0:2|0:2,0:0:0:0:
93,276,15909,5,0,3:2:0:0:
51,125,16140,1,0,3:2:0:0:
198,170,16371,2,0,P|225:170|252:172,1,55,2|10,3:2|0:2,0:0:0:0:
324,120,16602,6,0,P|356:142|424:130,1,110,6|0,3:2|3:2,0:0:0:0:
492,186,16948,2,0,P|500:224|495:265,1,55,12|0,0:2|3:2,0:0:0:0:
432,289,17179,2,0,P|419:325|395:358,1,55,12|0,0:2|3:2,0:0:0:0:
332,318,17409,2,0,P|303:343|265:360,1,55,12|0,0:2|3:2,0:0:0:0:
211,323,17640,6,0,P|181:312|138:312,1,55,14|0,0:2|3:2,0:0:0:0:
73,269,17871,2,0,P|97:248|119:211,1,55,14|0,0:2|3:2,0:0:0:0:
180,178,18102,2,0,P|185:209|206:246,1,55,14|0,0:2|3:2,0:0:0:0:
266,185,18333,1,10,0:2:0:0:
290,163,18448,6,0,L|281:46,1,110,14|0,0:2|3:2,0:0:0:0:
377,93,18794,2,0,L|386:210,2,110,14|14|10,0:2|0:2|0:2,0:0:0:0:
431,28,19371,2,0,B|465:20|465:20|508:36,2,73.3333333333333,8|8|8,0:3|0:3|0:3,0:0:0:0:
348,107,19833,2,0,B|314:115|314:115|266:101,2,73.3333333333333,4|4|4,0:3|0:3|0:3,0:0:0:0:
429,171,20294,6,0,B|473:184|510:158|510:158|452:218|475:309|475:309|403:275|341:309|341:309|370:316|392:340,1,440,6|0,3:2|3:2,0:0:0:0:
291,375,21333,1,8,0:2:0:0:
264,359,21448,1,2,3:2:0:0:
236,344,21563,2,0,P|194:354|177:355,1,55,10|2,0:2|3:2,0:0:0:0:
188,271,21794,2,0,P|178:229|177:212,1,55,10|2,0:2|3:2,0:0:0:0:
93,249,22025,2,0,P|103:291|104:308,1,55,8|0,0:2|0:0,0:0:0:0:
28,347,22256,6,0,B|-3:153|-3:153|51:78,1,275,10|0,0:2|3:2,0:0:0:0:
129,64,22948,1,10,0:2:0:0:
134,92,23063,1,2,3:2:0:0:
140,120,23179,2,0,B|280:167|226:48|420:119,1,275,10|0,2:2|3:2,0:0:0:0:
422,135,23871,1,8,0:2:0:0:
441,155,23986,6,0,B|492:241|464:341|407:380|407:380|333:342|369:258,1,385,14|8,3:2|0:2,0:0:0:0:
254,99,25025,2,0,P|217:98|186:104,1,55,8|2,0:2|3:2,0:0:0:0:
149,173,25256,2,0,P|121:176|94:174,1,55,10|2,0:2|3:2,0:0:0:0:
20,136,25486,1,10,0:2:0:0:
2,115,25602,2,0,L|11:42,1,55,2|8,3:2|0:2,0:0:0:0:
82,195,25833,6,0,P|92:224|39:297,1,110,6|0,3:2|3:2,0:0:0:0:
122,360,26179,2,0,P|142:336|231:346,1,110,14|8,0:2|2:2,0:0:0:0:
245,243,26525,2,0,P|214:237|178:154,1,110,6|0,3:2|3:2,0:0:0:0:
218,90,26871,2,0,B|270:73|270:73|336:91,1,110,2|0,0:2|3:2,0:0:0:0:
408,131,27217,1,10,0:2:0:0:
434,120,27333,1,10,0:2:0:0:
460,112,27448,2,0,P|456:157|454:190,1,55,10|10,0:2|0:2,0:0:0:0:
491,265,27679,6,0,B|259:191|334:385|69:320,1,440,6|0,3:2|3:2,0:0:0:0:
8,259,28717,1,10,0:2:0:0:
17,233,28833,1,2,3:2:0:0:
20,206,28948,2,0,P|18:164|12:131,1,55,10|2,0:2|3:2,0:0:0:0:
99,87,29179,2,0,P|101:129|107:162,1,55,10|2,0:2|3:2,0:0:0:0:
183,206,29409,2,0,P|230:195|261:192,1,55,8|0,0:2|3:2,0:0:0:0:
323,240,29640,6,0,B|382:232|425:277|425:277|354:171|418:73,1,330,10|10,0:2|0:2,0:0:0:0:
439,58,30448,1,0,3:2:0:0:
464,65,30563,2,0,B|453:113|429:122|429:122|322:66|209:107,1,275,10|0,0:2|3:2,0:0:0:0:
163,153,31256,1,10,0:2:0:0:
135,135,31371,6,0,B|86:166|25:148|25:148|49:181|50:215,1,165,6|0,3:2|3:2,0:0:0:0:
19,289,31833,2,0,B|75:306|122:260|122:260|139:282|168:285,1,165,6|8,3:2|2:2,0:0:0:0:
269,271,32294,6,0,B|433:241|433:241|502:278|479:345,1,288.750011014939,6|0,3:2|0:0,0:0:0:0:
390,383,33217,6,0,B|319:321|341:214|362:164|362:164|321:40|321:40|407:92|464:80,1,511.499984390259,0|0,3:2|0:2,0:0:0:0:
497,168,36909,6,0,P|504:207|501:238,1,55,6|0,3:2|3:2,0:0:0:0:
434,302,37140,2,0,P|427:262|430:231,1,55,14|0,0:2|0:2,0:0:0:0:
359,188,37371,1,2,3:2:0:0:
333,203,37486,2,0,L|274:213,1,55,14|0,0:2|3:2,0:0:0:0:
191,191,37717,2,0,L|132:201,1,55,6|0,3:2|3:2,0:0:0:0:
52,162,37948,6,0,L|42:103,1,55,14|0,0:2|3:2,0:0:0:0:
2,236,38179,1,2,3:2:0:0:
25,253,38294,2,0,L|35:312,1,55,14|0,0:2|3:2,0:0:0:0:
128,303,38525,2,0,L|118:362,1,55,14|0,0:2|3:2,0:0:0:0:
216,346,38756,5,6,3:2:0:0:
232,336,38871,1,0,3:2:0:0:
247,328,38986,2,0,P|282:319|353:352,1,110,2|8,3:2|0:3,0:0:0:0:
443,364,39333,2,0,L|428:248,1,110,4|4,0:3|0:3,0:0:0:0:
477,177,39679,5,6,2:2:0:0:
