osu file format v14

[General]
AudioFilename: audio.mp3
AudioLeadIn: 0
PreviewTime: 1765
Countdown: 0
SampleSet: Soft
StackLeniency: 0.7
Mode: 0
LetterboxInBreaks: 0
WidescreenStoryboard: 0

[Editor]
Bookmarks: 16592
DistanceSpacing: 1.2
BeatDivisor: 4
GridSize: 32
TimelineZoom: 2.6

[Metadata]
Title:Falling Falls
TitleUnicode:Falling Falls
Artist:BLANKFIELD
ArtistUnicode:BLANKFIELD
Creator:Nao Tomori
Version:Extreme
Source:東方風神録 ~ Mountain of Faith.
Tags:lasse 東方Project touhou project fuujinroku fall of fall フォールオブフォール ~ 秋めく滝 akimeku taki autumnal waterfall heavy metal at the termination of phantasm guitar drums rock instrumental zun momiji inubashiri
BeatmapID:2341586
BeatmapSetID:1120635

[Difficulty]
HPDrainRate:6
CircleSize:4.4
OverallDifficulty:9.2
ApproachRate:10
SliderMultiplier:1.6
SliderTickRate:1

[Events]
//Background and Video events
0,0,"momiji bg.jpg",0,0
//Break Periods
//Storyboard Layer 0 (Background)
//Storyboard Layer 1 (Fail)
//Storyboard Layer 2 (Pass)
//Storyboard Layer 3 (Foreground)
//Storyboard Layer 4 (Overlay)
//Storyboard Sound Samples

[TimingPoints]
1833,230.769230769231,4,2,1,60,1,0
1833,-100,4,2,1,60,0,0
2756,-100,4,2,1,70,0,0
3448,-66.6666666666667,4,2,1,70,0,0
3679,-100,4,2,1,70,0,0
9563,-76.9230769230769,4,2,1,70,0,0
11063,-100,4,2,1,70,0,0
14525,-51.2820512820513,4,2,1,70,0,0
14756,-100,4,2,1,70,0,0
15102,-166.666666666667,4,2,1,70,0,0
15563,-166.666666666667,4,2,1,50,0,0
15909,-178.571428571429,4,2,1,50,0,0
16602,-100,4,2,1,70,0,0
19371,-100,4,2,1,50,0,0
20294,-83.3333333333333,4,2,1,75,0,0
25833,-83.3333333333333,4,2,1,85,0,0
26179,-90.9090909090909,4,2,1,85,0,0
26525,-100,4,2,1,85,0,0
26871,-133.333333333333,4,2,1,65,0,0
27679,-83.3333333333333,4,2,1,75,0,0
32294,-222.222222222222,4,2,1,75,0,0
32352,-222.222222222222,4,2,0,23,0,0
33217,-476.190476190476,4,2,1,75,0,0
33275,-476.190476190476,4,2,0,15,0,0
36909,-74.6268656716418,4,2,1,75,0,0
38756,-100,4,2,1,75,0,0
39679,-133.333333333333,4,2,1,75,0,0
39794,-133.333333333333,4,2,1,55,0,0
40486,-133.333333333333,4,2,1,5,0,0

[Colours]
Combo1 : 214,192,248
Combo2 : 244,156,134
Combo3 : 184,245,227
Combo4 : 231,199,139

[HitObjects]
133,337,1833,5,2,0:2:0:0:
99,86,2294,5,2,0:2:0:0:
372,177,2756,6,0,P|352:179|333:182,1,40,6|0,3:2|0:2,0:2:0:0:
169,278,2871,1,0,3:2:0:0:
205,262,2928,1,0,3:2:0:0:
245,261,2986,1,0,3:2:0:0:
281,276,3044,1,0,3:2:0:0:
310,304,3102,6,0,P|313:336|313:363,1,40,10|8,0:2|0:2,0:2:0:0:
199,162,3217,1,0,3:2:0:0:
205,122,3274,1,0,3:2:0:0:
211,83,3332,1,0,3:2:0:0:
216,43,3390,1,0,3:2:0:0:
220,3,3448,6,0,P|191:12|157:19,1,60.0000022888184,8|8,0:2|0:2,0:2:0:0:
352,140,3563,2,0,P|322:131|288:124,1,60.0000022888184,8|8,0:2|0:2,0:2:0:0:
443,46,3679,5,6,3:2:0:0:
289,253,3794,2,0,P|295:307|304:369,1,80,10|0,2:2|3:2,0:2:0:0:
213,211,3967,1,0,3:2:0:0:
213,211,4025,2,0,P|206:265|198:326,1,80,10|0,0:2|3:2,0:2:0:0:
70,132,4256,2,0,P|110:136|149:146,1,80,10|0,0:2|3:2,0:2:0:0:
286,85,4429,1,0,3:2:0:0:
286,85,4486,6,0,P|247:94|207:98,1,80,10|0,0:2|3:2,0:2:0:0:
342,137,4717,1,10,0:2:0:0:
415,100,4833,1,2,3:2:0:0:
415,100,4890,1,0,3:2:0:0:
415,100,4948,2,0,B|424:138|424:138|408:195,1,80,8|0,2:2|3:2,0:2:0:0:
251,304,5179,5,8,0:2:0:0:
218,281,5236,1,8,0:2:0:0:
179,276,5294,1,0,3:2:0:0:
142,290,5352,1,0,3:2:0:0:
116,320,5409,2,0,P|102:280|98:269,1,40,10|0,0:2|0:2,0:2:0:0:
39,118,5525,5,2,3:2:0:0:
0,211,5640,1,10,0:2:0:0:
0,211,5698,1,8,0:2:0:0:
0,211,5756,2,0,P|28:207|56:201,1,40,0|0,3:2|0:2,0:2:0:0:
206,142,5871,6,0,P|259:150|312:158,1,80,10|0,0:2|3:2,0:2:0:0:
168,328,6102,2,0,P|148:278|123:223,1,80,10|0,0:2|3:2,0:2:0:0:
353,289,6333,2,0,P|319:330|285:380,1,80,10|0,0:2|3:2,0:2:0:0:
253,250,6563,1,8,0:2:0:0:
253,250,6621,1,8,0:2:0:0:
253,250,6679,6,0,P|285:244|327:241,1,40,0|0,3:2|3:2,0:2:0:0:
471,316,6794,1,8,3:2:0:0:
425,251,6909,1,0,3:2:0:0:
366,105,7025,2,0,P|359:166|359:208,1,80,8|0,0:2|3:2,0:2:0:0:
358,184,7198,1,0,3:2:0:0:
358,184,7256,1,8,0:2:0:0:
418,25,7371,6,0,P|349:20|298:73,1,120,6|0,3:2|3:2,0:2:0:0:
291,44,7602,1,0,3:2:0:0:
153,201,7717,2,0,P|162:151|165:116,1,80,10|0,0:2|3:2,0:2:0:0:
131,45,7948,1,10,0:2:0:0:
45,54,8063,1,0,3:2:0:0:
45,54,8121,1,0,3:2:0:0:
45,54,8179,2,0,P|36:104|33:139,1,80,10|0,0:2|3:2,0:2:0:0:
100,343,8409,6,0,B|108:302|108:302|84:246,1,80,10|0,0:2|3:2,0:2:0:0:
22,312,8640,1,8,0:2:0:0:
183,363,8756,1,0,3:2:0:0:
248,316,8871,1,8,0:2:0:0:
248,316,8929,1,8,0:2:0:0:
248,315,8986,2,0,P|250:295|253:275,1,40,2|0,3:2|3:2,0:2:0:0:
299,119,9102,2,0,P|302:139|305:159,1,40,10|8,2:2|2:2,0:2:0:0:
383,220,9217,5,6,3:2:0:0:
239,57,9333,2,0,P|203:97|215:143,1,80,8|4,0:3|0:3,0:2:0:0:
305,185,9563,6,0,B|355:171|355:171|413:198,1,103.999995239258,14|0,0:2|3:2,0:2:0:0:
97,307,9794,2,0,B|47:321|47:321|-11:294,1,103.999995239258,14|0,0:2|3:2,0:2:0:0:
51,226,10025,1,14,0:2:0:0:
185,357,10140,1,2,3:2:0:0:
200,349,10197,1,0,3:2:0:0:
216,343,10255,1,8,0:3:0:0:
233,338,10313,1,8,0:3:0:0:
250,333,10370,1,4,0:3:0:0:
267,330,10428,1,4,0:3:0:0:
286,326,10486,6,0,P|291:275|297:207,1,103.999995239258,14|0,0:2|3:2,0:2:0:0:
200,20,10717,2,0,P|195:71|189:139,1,103.999995239258,10|0,0:2|3:2,0:2:0:0:
108,188,10948,2,0,P|72:197|43:199,1,51.999997619629,10|8,0:2|0:2,0:2:0:0:
167,248,11063,5,6,3:2:0:0:
316,127,11179,1,10,0:2:0:0:
328,125,11236,1,8,0:2:0:0:
341,124,11294,1,0,3:2:0:0:
354,121,11352,1,0,3:2:0:0:
370,120,11409,6,0,P|382:164|373:214,1,80,10|0,0:2|3:2,0:2:0:0:
245,384,11640,2,0,P|242:344|253:306,1,80,10|0,0:2|3:2,0:2:0:0:
266,299,11813,1,0,3:2:0:0:
279,298,11871,2,0,P|333:307|389:315,1,80,10|0,0:2|3:2,0:2:0:0:
431,259,12102,1,10,0:2:0:0:
217,234,12217,1,2,3:2:0:0:
217,234,12275,1,0,3:2:0:0:
217,234,12333,2,0,P|169:238|107:250,1,80,8|0,0:2|3:2,0:2:0:0:
14,139,12563,5,10,0:2:0:0:
132,263,12679,2,0,P|81:273|61:277,1,40,2|0,3:2|3:2,0:2:0:0:
163,121,12794,2,0,P|214:111|234:107,1,40,10|8,0:2|0:2,0:2:0:0:
279,163,12909,5,2,3:2:0:0:
141,44,13025,2,0,P|79:42|32:40,1,80,10|0,0:2|3:2,0:2:0:0:
44,37,13198,1,0,3:2:0:0:
29,28,13256,2,0,P|14:67|30:116,1,80,10|0,0:2|3:2,0:2:0:0:
174,294,13486,2,0,B|189:262|189:262|177:208,1,80,10|0,0:2|3:2,0:2:0:0:
60,379,13717,6,0,P|56:344|53:327,1,40,10|0,0:2|0:2,0:2:0:0:
186,101,13833,5,8,0:2:0:0:
234,92,13890,1,8,0:2:0:0:
275,118,13948,1,8,0:2:0:0:
288,166,14006,1,8,0:2:0:0:
264,209,14063,1,0,3:2:0:0:
178,200,14179,1,8,0:2:0:0:
331,262,14294,5,8,0:3:0:0:
335,283,14351,1,8,0:3:0:0:
339,305,14409,1,4,0:3:0:0:
342,327,14467,1,4,0:3:0:0:
345,349,14525,2,0,B|393:340|393:340|419:360|419:360|512:342,1,156.000000595093,6|0,3:2|0:2,0:2:0:0:
248,286,14756,6,0,P|208:283|180:278,1,40,6|0,3:2|0:2,0:2:0:0:
25,344,14871,1,8,0:2:0:0:
58,322,14928,1,8,0:2:0:0:
97,318,14986,1,8,0:2:0:0:
134,333,15044,1,8,0:2:0:0:
161,362,15101,5,6,3:2:0:0:
398,196,15333,5,6,3:2:0:0:
136,74,15563,6,0,P|147:135|152:188,1,95.9999970703126,2|0,0:2|0:2,0:2:0:0:
107,239,15909,2,0,P|82:256|60:281,1,44.800000546875,0|0,3:2|0:2,0:2:0:0:
226,202,16140,2,0,P|253:215|285:221,1,44.800000546875,0|0,3:2|0:2,0:2:0:0:
487,67,16371,5,2,3:2:0:0:
316,154,16486,1,10,0:2:0:0:
470,92,16602,6,0,P|481:122|494:147,1,40,6|0,3:2|0:0,0:0:0:0:
418,162,16717,2,0,P|424:201|433:240,1,80,10|0,2:2|3:2,0:2:0:0:
332,349,16948,2,0,P|337:309|343:270,1,80,12|0,0:2|3:2,0:2:0:0:
245,90,17179,2,0,P|250:129|255:169,1,80,12|0,0:2|3:2,0:2:0:0:
168,285,17409,2,0,P|163:324|157:364,1,80,12|0,0:2|3:2,0:2:0:0:
72,142,17640,6,0,P|20:129|-15:123,1,80,14|0,0:2|3:2,0:2:0:0:
250,196,17871,2,0,P|198:209|163:215,1,80,14|0,0:2|3:2,0:2:0:0:
377,99,18102,2,0,B|414:85|414:85|465:96,1,80,14|0,0:2|3:2,0:2:0:0:
453,94,18275,1,0,3:2:0:0:
453,94,18333,1,10,0:2:0:0:
203,321,18448,6,0,P|208:298|217:259,1,40,14|0,0:2|0:2,0:2:0:0:
294,368,18563,2,0,P|289:323|277:263,1,80,14|0,2:2|3:2,0:2:0:0:
73,117,18794,2,0,P|114:135|172:154,1,80,14|0,0:2|3:2,0:2:0:0:
402,66,19025,2,0,P|365:92|319:133,1,80,14|0,0:2|3:2,0:2:0:0:
307,187,19256,1,10,0:2:0:0:
345,254,19371,5,8,0:3:0:0:
238,157,19525,1,8,0:3:0:0:
101,202,19679,1,8,0:3:0:0:
40,157,19833,5,4,0:3:0:0:
177,202,19987,1,4,0:3:0:0:
284,105,20141,1,4,0:3:0:0:
148,75,20294,5,6,3:2:0:0:
190,177,20409,2,0,P|201:247|207:312,1,95.9999970703126,8|0,0:2|3:2,0:2:0:0:
203,271,20583,1,0,3:2:0:0:
203,271,20640,1,8,2:2:0:0:
117,216,20756,1,0,3:2:0:0:
266,177,20871,6,0,P|271:129|279:82,1,95.9999970703126,8|0,0:2|3:2,0:2:0:0:
279,82,21044,1,0,3:2:0:0:
279,82,21102,1,8,0:2:0:0:
350,31,21217,1,0,3:2:0:0:
426,57,21333,1,8,0:2:0:0:
196,110,21448,5,2,3:2:0:0:
233,31,21563,1,10,0:2:0:0:
364,219,21679,2,0,P|314:214|259:213,1,95.9999970703126,2|10,3:2|0:2,0:2:0:0:
438,153,21909,5,2,3:2:0:0:
459,181,21966,1,0,3:2:0:0:
470,215,22024,1,8,0:2:0:0:
468,251,22082,1,0,3:2:0:0:
453,283,22139,1,0,3:2:0:0:
510,355,22256,6,0,P|449:370|409:379,1,95.9999970703126,10|0,0:2|3:2,0:2:0:0:
218,293,22486,2,0,P|265:304|311:316,1,95.9999970703126,8|0,0:2|3:2,0:2:0:0:
220,377,22717,1,8,0:2:0:0:
190,217,22833,1,0,3:2:0:0:
190,217,22890,1,0,3:2:0:0:
190,217,22948,1,10,0:2:0:0:
114,281,23063,1,2,3:2:0:0:
284,226,23179,6,0,P|334:215|395:193,1,95.9999970703126,10|0,2:2|3:2,0:2:0:0:
375,200,23352,1,0,3:2:0:0:
375,200,23409,2,0,P|359:250|349:303,1,95.9999970703126,8|0,0:2|3:2,0:2:0:0:
441,265,23640,1,8,0:2:0:0:
296,111,23756,1,0,3:2:0:0:
296,111,23813,1,0,3:2:0:0:
296,111,23871,2,0,P|302:153|306:187,1,47.9999985351563,8|8,0:2|0:2,0:2:0:0:
152,55,23986,6,0,P|139:123|134:168,1,95.9999970703126,6|8,3:2|0:2,0:2:0:0:
174,292,24217,1,0,3:2:0:0:
174,292,24275,1,0,3:2:0:0:
174,292,24333,1,8,0:2:0:0:
82,250,24448,1,0,3:2:0:0:
221,200,24563,2,0,P|285:210|340:221,1,95.9999970703126,8|0,0:2|3:2,0:2:0:0:
285,130,24736,1,0,3:2:0:0:
285,130,24794,2,0,P|220:120|166:109,1,95.9999970703126,8|0,0:2|3:2,0:2:0:0:
333,59,25025,5,8,0:2:0:0:
447,213,25140,1,2,3:2:0:0:
447,213,25198,1,0,3:2:0:0:
447,213,25256,2,0,P|494:201|530:191,1,47.9999985351563,10|8,0:2|0:2,0:2:0:0:
390,288,25371,1,2,3:2:0:0:
421,131,25486,1,10,0:2:0:0:
494,336,25602,5,2,3:2:0:0:
422,108,25717,1,8,0:2:0:0:
262,279,25833,6,0,B|245:297|244:316|244:316|319:351|375:273,1,191.999994140625,6|0,3:2|3:2,0:2:0:0:
427,87,26179,2,0,B|419:65|404:54|404:54|342:99|378:179,1,176.000005371094,14|8,0:2|2:2,0:2:0:0:
496,315,26525,2,0,B|516:318|530:311|530:311|523:240|442:233,1,160,6|0,3:2|3:2,0:2:0:0:
262,279,26871,6,0,B|286:301|305:299|305:299|343:277|394:274,1,120.000004577637,2|0,0:2|3:2,0:2:0:0:
452,184,27217,5,10,0:2:0:0:
341,165,27333,1,10,0:2:0:0:
398,265,27448,1,10,0:2:0:0:
374,63,27563,1,10,0:2:0:0:
175,265,27679,6,0,P|127:265|80:269,1,95.9999970703126,6|8,3:2|0:2,0:2:0:0:
136,154,27909,1,0,3:2:0:0:
136,154,27967,1,0,3:2:0:0:
136,154,28025,2,0,P|184:157|232:158,1,95.9999970703126,8|0,0:2|3:2,0:2:0:0:
427,203,28256,2,0,P|379:203|332:207,1,95.9999970703126,8|0,0:2|3:2,0:2:0:0:
399,288,28429,1,0,3:2:0:0:
399,288,28486,2,0,P|446:287|494:284,1,95.9999970703126,8|0,0:2|3:2,0:2:0:0:
364,113,28717,5,10,0:2:0:0:
312,338,28833,1,2,3:2:0:0:
253,272,28948,1,10,0:2:0:0:
339,316,29063,1,2,3:2:0:0:
163,369,29179,5,10,0:2:0:0:
240,138,29294,1,2,3:2:0:0:
236,120,29352,1,0,3:2:0:0:
230,97,29409,2,0,P|215:153|214:217,1,95.9999970703126,8|0,0:2|3:2,0:2:0:0:
103,261,29640,6,0,B|59:245|59:245|-27:264,1,95.9999970703126,10|0,0:2|3:2,0:2:0:0:
11,255,29813,1,0,3:2:0:0:
11,255,29871,1,8,0:2:0:0:
33,157,29986,1,2,0:2:0:0:
194,215,30102,2,0,P|145:240|97:232,1,95.9999970703126,8|0,0:2|3:2,0:2:0:0:
266,99,30333,5,10,0:2:0:0:
279,132,30390,1,8,0:2:0:0:
288,167,30448,1,0,3:2:0:0:
296,202,30506,1,0,3:2:0:0:
301,238,30563,6,0,P|311:185|332:135,1,95.9999970703126,10|0,0:2|3:2,0:2:0:0:
487,199,30736,1,0,3:2:0:0:
487,199,30794,2,0,P|477:252|456:302,1,95.9999970703126,8|0,0:2|3:2,0:2:0:0:
396,216,31025,1,8,0:2:0:0:
487,110,31140,1,0,3:2:0:0:
487,110,31198,1,0,3:2:0:0:
487,110,31256,1,10,0:2:0:0:
338,319,31371,6,0,P|289:324|262:327,1,47.9999985351563,6|0,3:2|0:2,0:2:0:0:
91,209,31486,1,8,0:2:0:0:
138,207,31543,1,8,0:2:0:0:
181,227,31601,1,8,0:2:0:0:
210,265,31659,1,8,0:2:0:0:
217,311,31717,2,0,P|210:356|206:368,1,47.9999985351563,0|0,3:2|3:2,0:2:0:0:
133,283,31833,6,0,P|140:238|144:226,1,47.9999985351563,6|0,3:2|0:2,0:2:0:0:
261,104,31948,1,8,0:2:0:0:
298,134,32005,1,8,0:2:0:0:
345,144,32063,1,8,0:2:0:0:
391,132,32121,1,8,0:2:0:0:
427,102,32179,2,0,L|431:37,1,47.9999985351563,8|8,2:2|2:2,0:2:0:0:
352,22,32294,6,0,P|333:155|336:290,1,269.999991760254,6|0,3:2|0:2,0:2:0:0:
433,303,33217,6,0,P|406:257|51:352,1,520.799984106446,0|0,3:2|0:2,0:2:0:0:
56,369,36909,6,0,B|76:322|76:322|57:269,1,107.199994929199,6|0,3:2|3:2,0:2:0:0:
146,77,37140,2,0,B|127:125|127:125|146:178,1,107.199994929199,14|0,0:2|0:2,0:2:0:0:
320,179,37371,5,2,3:2:0:0:
248,261,37486,2,0,P|189:255|112:256,1,107.199994929199,14|0,0:2|3:2,0:2:0:0:
355,282,37717,2,0,P|379:336|418:402,1,107.199994929199,6|0,3:2|3:2,0:2:0:0:
320,179,37948,2,0,P|354:130|392:63,1,107.199994929199,14|0,0:2|3:2,0:2:0:0:
332,13,38179,5,2,3:2:0:0:
509,217,38294,2,0,B|481:239|460:233|460:233|430:213|387:215,1,107.199994929199,14|0,0:2|3:2,0:2:0:0:
69,150,38525,2,0,B|100:150|124:137|124:137|148:137|173:153,1,107.199994929199,14|0,0:2|3:2,0:2:0:0:
241,216,38756,5,6,3:2:0:0:
191,280,38871,1,0,3:2:0:0:
267,121,38986,5,2,3:2:0:0:
300,99,39043,1,0,3:2:0:0:
340,98,39101,1,0,3:2:0:0:
374,118,39159,1,0,3:2:0:0:
394,152,39217,2,0,L|392:197,1,40,8|0,0:3|0:3,0:2:0:0:
481,145,39333,5,4,0:3:0:0:
473,170,39390,1,4,0:3:0:0:
466,196,39448,1,4,0:3:0:0:
460,222,39506,1,4,0:3:0:0:
455,248,39563,1,4,0:3:0:0:
452,274,39621,1,4,0:3:0:0:
449,301,39679,5,6,2:2:0:0:
403,351,39794,2,0,P|370:343|339:338,1,60.0000022888184,2|0,0:2|0:2,0:2:0:0:
290,270,40025,1,2,0:2:0:0:
281,280,40140,2,0,P|248:288|217:293,1,60.0000022888184,2|0,0:2|0:2,0:2:0:0:
142,256,40371,6,0,P|130:251|146:268,1,60.0000022888184,2|0,0:2|0:2,0:2:0:0:
