osu file format v14

[General]
AudioFilename: audio.mp3
AudioLeadIn: 0
PreviewTime: 3661
Countdown: 0
SampleSet: Normal
StackLeniency: 0.7
Mode: 1
LetterboxInBreaks: 0
WidescreenStoryboard: 0

[Editor]
Bookmarks: 27669
DistanceSpacing: 0.5
BeatDivisor: 4
GridSize: 32
TimelineZoom: 2.999999

[Metadata]
Title:Falling Falls
TitleUnicode:Falling Falls
Artist:BLANKFIELD
ArtistUnicode:BLANKFIELD
Creator:Jaltzu
Version:Muzukashii
Source:東方風神録 ~ Mountain of Faith.
Tags:metal video game cover instrumental at the termination of phantasm touhou project toho 10 momiji inubashiri stage 4 boss zun autumnal waterfall mappers guild mg featured artist fa
BeatmapID:2544782
BeatmapSetID:1223215

[Difficulty]
HPDrainRate:8
CircleSize:2
OverallDifficulty:5
ApproachRate:10
SliderMultiplier:1.4
SliderTickRate:1

[Events]
//Background and Video events
0,0,"60683976_p0.jpg",0,95
//Break Periods
//Storyboard Layer 0 (Background)
//Storyboard Layer 1 (Fail)
//Storyboard Layer 2 (Pass)
//Storyboard Layer 3 (Foreground)
//Storyboard Layer 4 (Overlay)
//Storyboard Sound Samples

[TimingPoints]
27,230.769230769231,4,1,0,70,1,0
27,-111.111111111111,4,1,0,70,0,0
2767,-111.111111111111,4,1,0,80,0,0
2897,-111.111111111111,4,1,0,80,0,0
3699,-111.111111111111,4,1,0,100,0,0
3719,-111.111111111111,4,1,0,100,0,1
15834,-111.111111111111,4,1,0,80,0,1
16613,-111.111111111111,4,1,0,90,0,1
16642,-111.111111111111,4,1,0,90,0,0
19382,-111.111111111111,4,1,0,80,0,0
20305,-111.111111111111,4,1,0,90,0,0
25844,-111.111111111111,4,1,0,90,0,0
27084,-111.111111111111,4,1,0,80,0,0
27690,-111.111111111111,4,1,0,90,0,0
32507,-111.111111111111,4,1,0,80,0,0
33228,-111.111111111111,4,1,0,80,0,0
36892,-111.111111111111,4,1,0,90,0,0
38767,-111.111111111111,4,1,0,80,0,0
40007,-111.111111111111,4,1,0,70,0,0

[HitObjects]
256,192,1873,5,8,0:0:0:0:
256,192,2334,1,8,0:0:0:0:
256,192,2796,1,0,0:0:0:0:
256,192,2911,1,0,0:0:0:0:
256,192,3027,1,0,0:0:0:0:
256,192,3142,1,8,0:0:0:0:
256,192,3257,1,0,0:0:0:0:
256,192,3373,1,0,0:0:0:0:
256,192,3488,1,8,0:0:0:0:
256,192,3719,5,4,0:0:0:0:
256,192,3950,1,0,0:0:0:0:
256,192,4065,1,8,0:0:0:0:
256,192,4180,1,0,0:0:0:0:
256,192,4296,1,8,0:0:0:0:
256,192,4411,1,8,0:0:0:0:
256,192,4469,1,8,0:0:0:0:
256,192,4527,1,8,0:0:0:0:
256,192,4642,1,0,0:0:0:0:
256,192,4757,1,0,0:0:0:0:
256,192,4873,1,8,0:0:0:0:
256,192,5334,1,0,0:0:0:0:
256,192,5450,1,8,0:0:0:0:
256,192,5565,1,0,0:0:0:0:
256,192,5680,1,0,0:0:0:0:
256,192,5796,1,0,0:0:0:0:
256,192,5911,1,8,0:0:0:0:
256,192,6142,1,8,0:0:0:0:
256,192,6257,1,0,0:0:0:0:
256,192,6315,1,0,0:0:0:0:
256,192,6373,1,0,0:0:0:0:
256,192,6488,1,0,0:0:0:0:
256,192,6719,1,0,0:0:0:0:
256,192,6834,1,8,0:0:0:0:
256,192,6950,1,0,0:0:0:0:
256,192,7180,1,8,0:0:0:0:
256,192,7296,1,8,0:0:0:0:
256,192,7411,1,4,0:0:0:0:
256,192,7642,1,0,0:0:0:0:
256,192,7757,1,8,0:0:0:0:
256,192,7873,1,0,0:0:0:0:
256,192,7988,1,0,0:0:0:0:
256,192,8103,1,8,0:0:0:0:
256,192,8219,1,0,0:0:0:0:
256,192,8450,1,0,0:0:0:0:
256,192,8565,1,8,0:0:0:0:
256,192,9027,1,0,0:0:0:0:
256,192,9142,1,8,0:0:0:0:
256,192,9257,1,4,0:0:0:0:
256,192,9373,1,0,0:0:0:0:
256,192,9430,1,0,0:0:0:0:
256,192,9488,1,0,0:0:0:0:
256,192,9603,1,8,0:0:0:0:
256,192,9834,1,0,0:0:0:0:
256,192,9950,1,8,0:0:0:0:
256,192,10065,1,0,0:0:0:0:
256,192,10180,1,12,0:0:0:0:
256,192,10296,1,8,0:0:0:0:
256,192,10353,1,8,0:0:0:0:
256,192,10411,1,8,0:0:0:0:
256,192,10527,1,8,0:0:0:0:
256,192,10757,1,8,0:0:0:0:
256,192,10873,1,0,0:0:0:0:
256,192,10988,1,8,0:0:0:0:
256,192,11103,1,4,0:0:0:0:
256,192,11334,1,0,0:0:0:0:
256,192,11450,1,8,0:0:0:0:
256,192,11565,1,0,0:0:0:0:
256,192,11680,1,8,0:0:0:0:
256,192,11796,1,8,0:0:0:0:
256,192,11853,1,8,0:0:0:0:
256,192,11911,1,8,0:0:0:0:
256,192,12027,1,0,0:0:0:0:
256,192,12142,1,0,0:0:0:0:
256,192,12257,1,8,0:0:0:0:
256,192,12719,1,0,0:0:0:0:
256,192,12834,1,8,0:0:0:0:
256,192,12950,1,0,0:0:0:0:
256,192,13065,1,0,0:0:0:0:
256,192,13180,1,0,0:0:0:0:
256,192,13296,1,8,0:0:0:0:
256,192,13527,1,8,0:0:0:0:
256,192,13642,1,0,0:0:0:0:
256,192,13757,1,0,0:0:0:0:
256,192,13873,1,8,0:0:0:0:
256,192,13930,1,8,0:0:0:0:
256,192,13988,1,8,0:0:0:0:
256,192,14103,1,0,0:0:0:0:
256,192,14219,1,8,0:0:0:0:
256,192,14334,1,0,0:0:0:0:
256,192,14392,1,0,0:0:0:0:
256,192,14450,1,0,0:0:0:0:
256,192,14565,5,12,0:0:0:0:
256,192,14796,1,4,0:0:0:0:
256,192,14911,1,8,0:0:0:0:
256,192,15027,1,8,0:0:0:0:
256,192,15142,1,4,0:0:0:0:
256,192,15373,1,4,0:0:0:0:
256,192,15603,1,12,0:0:0:0:
256,192,15950,1,0,0:0:0:0:
256,192,16180,1,0,0:0:0:0:
256,192,16411,1,8,0:0:0:0:
256,192,16642,5,4,0:0:0:0:
256,192,16988,1,8,0:0:0:0:
256,192,17103,1,0,0:0:0:0:
256,192,17219,1,0,0:0:0:0:
256,192,17334,1,8,0:0:0:0:
256,192,17565,1,0,0:0:0:0:
256,192,17911,1,8,0:0:0:0:
256,192,18027,1,0,0:0:0:0:
256,192,18142,1,8,0:0:0:0:
256,192,18257,1,0,0:0:0:0:
256,192,18373,1,8,0:0:0:0:
256,192,18488,1,8,0:0:0:0:
256,192,18719,1,0,0:0:0:0:
256,192,18834,1,8,0:0:0:0:
256,192,19065,1,8,0:0:0:0:
256,192,19180,1,0,0:0:0:0:
256,192,19411,1,4,0:0:0:0:
256,192,19565,1,4,0:0:0:0:
256,192,19719,1,4,0:0:0:0:
256,192,19873,1,4,0:0:0:0:
256,192,20334,5,12,0:0:0:0:
256,192,20565,1,8,0:0:0:0:
256,192,20680,1,8,0:0:0:0:
256,192,20796,1,0,0:0:0:0:
256,192,20911,1,8,0:0:0:0:
256,192,21027,1,0,0:0:0:0:
256,192,21257,1,8,0:0:0:0:
256,192,21488,1,8,0:0:0:0:
256,192,21603,1,0,0:0:0:0:
256,192,21719,1,8,0:0:0:0:
256,192,21834,1,8,0:0:0:0:
256,192,21950,1,0,0:0:0:0:
256,192,22180,1,8,0:0:0:0:
256,192,22411,1,8,0:0:0:0:
256,192,22527,1,8,0:0:0:0:
256,192,22642,1,0,0:0:0:0:
256,192,22757,1,8,0:0:0:0:
256,192,22873,1,0,0:0:0:0:
256,192,23103,1,0,0:0:0:0:
256,192,23219,1,0,0:0:0:0:
256,192,23334,1,8,0:0:0:0:
256,192,23565,1,0,0:0:0:0:
256,192,24027,1,12,0:0:0:0:
256,192,24257,1,0,0:0:0:0:
256,192,24373,1,8,0:0:0:0:
256,192,24488,1,0,0:0:0:0:
256,192,24603,1,0,0:0:0:0:
256,192,24719,1,8,0:0:0:0:
256,192,24950,1,0,0:0:0:0:
256,192,25180,1,0,0:0:0:0:
256,192,25238,1,0,0:0:0:0:
256,192,25296,1,0,0:0:0:0:
256,192,25411,1,0,0:0:0:0:
256,192,25527,1,8,0:0:0:0:
256,192,25642,1,8,0:0:0:0:
256,192,25757,1,0,0:0:0:0:
256,192,25873,1,12,0:0:0:0:
256,192,26219,1,12,0:0:0:0:
256,192,26565,1,12,0:0:0:0:
256,192,26911,1,12,0:0:0:0:
256,192,27257,1,0,0:0:0:0:
256,192,27488,1,8,0:0:0:0:
256,192,27603,1,8,0:0:0:0:
256,192,27719,5,4,0:0:0:0:
256,192,27950,1,8,0:0:0:0:
256,192,28065,1,8,0:0:0:0:
256,192,28180,1,0,0:0:0:0:
256,192,28296,1,8,0:0:0:0:
256,192,28411,1,0,0:0:0:0:
256,192,28642,1,8,0:0:0:0:
256,192,28873,1,8,0:0:0:0:
256,192,28988,1,0,0:0:0:0:
256,192,29103,1,0,0:0:0:0:
256,192,29219,1,8,0:0:0:0:
256,192,29334,1,0,0:0:0:0:
256,192,29565,1,0,0:0:0:0:
256,192,29796,1,0,0:0:0:0:
256,192,29911,1,8,0:0:0:0:
256,192,30027,1,0,0:0:0:0:
256,192,30142,1,0,0:0:0:0:
256,192,30257,1,8,0:0:0:0:
256,192,30488,1,0,0:0:0:0:
256,192,30603,5,8,0:0:0:0:
256,192,30719,1,0,0:0:0:0:
256,192,30950,1,0,0:0:0:0:
256,192,31411,1,4,0:0:0:0:
256,192,31527,1,8,0:0:0:0:
256,192,31584,1,8,0:0:0:0:
256,192,31642,1,8,0:0:0:0:
256,192,31757,1,8,0:0:0:0:
256,192,31873,1,0,0:0:0:0:
256,192,32103,1,0,0:0:0:0:
256,192,32219,1,8,0:0:0:0:
256,192,32334,1,0,0:0:0:0:
256,192,32565,1,0,0:0:0:0:
256,192,32796,1,0,0:0:0:0:
256,192,33027,1,8,0:0:0:0:
256,192,33257,1,12,0:0:0:0:
256,192,33373,12,0,36719,0:0:0:0:
256,192,36950,5,12,0:0:0:0:
256,192,37065,1,0,0:0:0:0:
256,192,37180,1,12,0:0:0:0:
256,192,37411,1,12,0:0:0:0:
256,192,37527,1,12,0:0:0:0:
256,192,37757,1,12,0:0:0:0:
256,192,37988,1,12,0:0:0:0:
256,192,38219,1,12,0:0:0:0:
256,192,38334,1,12,0:0:0:0:
256,192,38450,1,0,0:0:0:0:
256,192,38565,1,12,0:0:0:0:
256,192,38796,1,8,0:0:0:0:
256,192,38911,1,0,0:0:0:0:
256,192,38969,1,0,0:0:0:0:
256,192,39027,1,0,0:0:0:0:
256,192,39257,1,8,0:0:0:0:
256,192,39373,1,0,0:0:0:0:
256,192,39603,1,0,0:0:0:0:
256,192,39834,1,8,0:0:0:0:
256,192,40065,1,0,0:0:0:0:
256,192,40180,1,8,0:0:0:0:
256,192,40411,1,8,0:0:0:0:
