osu file format v14

[General]
AudioFilename: audio.mp3
AudioLeadIn: 0
PreviewTime: 3661
Countdown: 0
SampleSet: Normal
StackLeniency: 0.7
Mode: 1
LetterboxInBreaks: 0
WidescreenStoryboard: 1

[Editor]
Bookmarks: 27669
DistanceSpacing: 0.5
BeatDivisor: 4
GridSize: 32
TimelineZoom: 2.999999

[Metadata]
Title:Falling Falls
TitleUnicode:Falling Falls
Artist:BLANKFIELD
ArtistUnicode:BLANKFIELD
Creator:Jaltzu
Version:Futsuu
Source:東方風神録 ~ Mountain of Faith.
Tags:metal video game cover instrumental at the termination of phantasm touhou project toho 10 momiji inubashiri stage 4 boss zun autumnal waterfall mappers guild mg featured artist fa
BeatmapID:2544728
BeatmapSetID:1223215

[Difficulty]
HPDrainRate:9
CircleSize:2
OverallDifficulty:4
ApproachRate:10
SliderMultiplier:1.4
SliderTickRate:1

[Events]
//Background and Video events
0,0,"60683976_p0.jpg",0,95
//Break Periods
//Storyboard Layer 0 (Background)
//Storyboard Layer 1 (Fail)
//Storyboard Layer 2 (Pass)
//Storyboard Layer 3 (Foreground)
//Storyboard Layer 4 (Overlay)
//Storyboard Sound Samples

[TimingPoints]
27,230.769230769231,4,1,0,70,1,0
27,-125,4,1,0,70,0,0
2767,-125,4,1,0,80,0,0
2897,-125,4,1,0,80,0,0
3699,-125,4,1,0,100,0,0
3719,-125,4,1,0,100,0,1
16296,-125,4,1,0,80,0,1
16613,-125,4,1,0,90,0,1
16642,-125,4,1,0,90,0,0
19382,-125,4,1,0,80,0,0
20305,-125,4,1,0,90,0,0
25844,-125,4,1,0,90,0,0
27084,-125,4,1,0,80,0,0
27690,-125,4,1,0,90,0,0
32507,-125,4,1,0,80,0,0
33228,-125,4,1,0,80,0,0
36892,-125,4,1,0,90,0,0
38767,-125,4,1,0,80,0,0
40007,-125,4,1,0,70,0,0

[HitObjects]
256,192,1873,5,8,0:0:0:0:
256,192,2334,1,8,0:0:0:0:
256,192,2796,1,0,0:0:0:0:
256,192,3027,1,0,0:0:0:0:
256,192,3142,1,8,0:0:0:0:
256,192,3257,1,0,0:0:0:0:
256,192,3488,1,8,0:0:0:0:
256,192,3719,5,4,0:0:0:0:
256,192,4065,1,8,0:0:0:0:
256,192,4296,1,8,0:0:0:0:
256,192,4411,1,8,0:0:0:0:
256,192,4527,1,0,0:0:0:0:
256,192,4757,1,0,0:0:0:0:
256,192,4873,1,8,0:0:0:0:
256,192,5334,1,0,0:0:0:0:
256,192,5450,1,0,0:0:0:0:
256,192,5565,1,0,0:0:0:0:
256,192,5680,1,8,0:0:0:0:
256,192,5911,1,8,0:0:0:0:
256,192,6142,1,0,0:0:0:0:
256,192,6257,1,0,0:0:0:0:
256,192,6373,1,8,0:0:0:0:
256,192,6603,1,0,0:0:0:0:
256,192,6834,1,0,0:0:0:0:
256,192,6950,1,8,0:0:0:0:
256,192,7411,1,4,0:0:0:0:
256,192,7642,1,0,0:0:0:0:
256,192,7757,1,8,0:0:0:0:
256,192,7988,1,0,0:0:0:0:
256,192,8219,1,8,0:0:0:0:
256,192,8450,1,8,0:0:0:0:
256,192,8565,1,0,0:0:0:0:
256,192,9027,1,0,0:0:0:0:
256,192,9257,1,4,0:0:0:0:
256,192,9488,1,8,0:0:0:0:
256,192,9603,1,0,0:0:0:0:
256,192,9834,1,8,0:0:0:0:
256,192,9950,1,0,0:0:0:0:
256,192,10065,1,0,0:0:0:0:
256,192,10180,1,12,0:0:0:0:
256,192,10411,1,0,0:0:0:0:
256,192,10527,1,8,0:0:0:0:
256,192,10757,1,0,0:0:0:0:
256,192,10873,1,8,0:0:0:0:
256,192,10988,1,8,0:0:0:0:
256,192,11103,1,4,0:0:0:0:
256,192,11450,1,0,0:0:0:0:
256,192,11680,1,8,0:0:0:0:
256,192,11796,1,8,0:0:0:0:
256,192,11911,1,0,0:0:0:0:
256,192,12142,1,0,0:0:0:0:
256,192,12257,1,8,0:0:0:0:
256,192,12719,1,0,0:0:0:0:
256,192,12950,1,0,0:0:0:0:
256,192,13065,1,0,0:0:0:0:
256,192,13180,1,0,0:0:0:0:
256,192,13296,1,8,0:0:0:0:
256,192,13527,1,8,0:0:0:0:
256,192,13757,1,0,0:0:0:0:
256,192,13873,1,8,0:0:0:0:
256,192,13988,1,8,0:0:0:0:
256,192,14103,1,0,0:0:0:0:
256,192,14219,1,8,0:0:0:0:
256,192,14565,1,12,0:0:0:0:
256,192,14796,1,4,0:0:0:0:
256,192,15142,1,4,0:0:0:0:
256,192,15373,1,4,0:0:0:0:
256,192,15603,1,12,0:0:0:0:
256,192,16411,1,8,0:0:0:0:
256,192,16642,5,4,0:0:0:0:
256,192,16988,1,0,0:0:0:0:
256,192,17219,1,8,0:0:0:0:
256,192,17450,1,8,0:0:0:0:
256,192,17565,1,0,0:0:0:0:
256,192,17911,1,0,0:0:0:0:
256,192,18142,1,8,0:0:0:0:
256,192,18373,1,0,0:0:0:0:
256,192,18488,1,8,0:0:0:0:
256,192,18719,1,0,0:0:0:0:
256,192,18834,1,8,0:0:0:0:
256,192,19065,1,8,0:0:0:0:
256,192,19411,1,0,0:0:0:0:
256,192,19873,1,0,0:0:0:0:
256,192,20334,1,12,0:0:0:0:
256,192,20565,1,8,0:0:0:0:
256,192,20680,1,8,0:0:0:0:
256,192,20796,1,0,0:0:0:0:
256,192,21027,1,8,0:0:0:0:
256,192,21257,1,0,0:0:0:0:
256,192,21488,1,8,0:0:0:0:
256,192,21603,1,0,0:0:0:0:
256,192,21719,1,8,0:0:0:0:
256,192,21950,1,0,0:0:0:0:
256,192,22180,1,8,0:0:0:0:
256,192,22642,1,8,0:0:0:0:
256,192,22873,1,0,0:0:0:0:
256,192,23103,1,0,0:0:0:0:
256,192,23219,1,0,0:0:0:0:
256,192,23334,1,8,0:0:0:0:
256,192,23565,1,0,0:0:0:0:
256,192,24027,1,12,0:0:0:0:
256,192,24257,1,0,0:0:0:0:
256,192,24373,1,0,0:0:0:0:
256,192,24488,1,0,0:0:0:0:
256,192,24719,1,8,0:0:0:0:
256,192,24950,1,0,0:0:0:0:
256,192,25180,1,0,0:0:0:0:
256,192,25296,1,8,0:0:0:0:
256,192,25411,1,0,0:0:0:0:
256,192,25642,1,8,0:0:0:0:
256,192,25873,1,12,0:0:0:0:
256,192,26219,1,12,0:0:0:0:
256,192,26565,1,12,0:0:0:0:
256,192,27257,1,0,0:0:0:0:
256,192,27488,1,8,0:0:0:0:
256,192,27719,5,4,0:0:0:0:
256,192,27950,1,0,0:0:0:0:
256,192,28065,1,8,0:0:0:0:
256,192,28180,1,0,0:0:0:0:
256,192,28411,1,8,0:0:0:0:
256,192,28642,1,0,0:0:0:0:
256,192,28873,1,8,0:0:0:0:
256,192,28988,1,0,0:0:0:0:
256,192,29103,1,8,0:0:0:0:
256,192,29334,1,0,0:0:0:0:
256,192,29565,1,0,0:0:0:0:
256,192,30027,1,0,0:0:0:0:
256,192,30257,1,8,0:0:0:0:
256,192,30488,1,0,0:0:0:0:
256,192,30603,1,0,0:0:0:0:
256,192,30719,1,8,0:0:0:0:
256,192,30950,1,0,0:0:0:0:
256,192,31411,1,4,0:0:0:0:
256,192,31642,1,8,0:0:0:0:
256,192,31757,1,8,0:0:0:0:
256,192,31873,1,0,0:0:0:0:
256,192,32103,1,8,0:0:0:0:
256,192,32334,1,0,0:0:0:0:
256,192,32796,1,0,0:0:0:0:
256,192,33027,1,0,0:0:0:0:
256,192,33257,1,12,0:0:0:0:
256,192,33488,12,0,36488,0:0:0:0:
256,192,36950,5,12,0:0:0:0:
256,192,37180,1,12,0:0:0:0:
256,192,37411,1,12,0:0:0:0:
256,192,37757,1,12,0:0:0:0:
256,192,37988,1,12,0:0:0:0:
256,192,38219,1,12,0:0:0:0:
256,192,38334,1,12,0:0:0:0:
256,192,38796,1,8,0:0:0:0:
256,192,38911,1,8,0:0:0:0:
256,192,39027,1,0,0:0:0:0:
256,192,39257,1,8,0:0:0:0:
256,192,39373,1,0,0:0:0:0:
256,192,39603,1,0,0:0:0:0:
256,192,39834,1,8,0:0:0:0:
256,192,40065,1,0,0:0:0:0:
256,192,40180,1,8,0:0:0:0:
256,192,40411,1,8,0:0:0:0:
