osu file format v14

[General]
AudioFilename: audio.mp3
AudioLeadIn: 0
PreviewTime: 3715
Countdown: 0
SampleSet: Normal
StackLeniency: 1
Mode: 1
LetterboxInBreaks: 0
WidescreenStoryboard: 1

[Editor]
DistanceSpacing: 0.5
BeatDivisor: 2
GridSize: 32
TimelineZoom: 1.7

[Metadata]
Title:Falling Falls
TitleUnicode:Falling Falls
Artist:BLANKFIELD
ArtistUnicode:BLANKFIELD
Creator:Axer
Version:Kantan
Source:東方風神録 ~ Mountain of Faith.
Tags:Touhou Project Momiji Inubashiri metal 東方project th10 Stage 4 boss Momizi ZUN Fall of Autumnal Waterfall Instrumental Video Game フォールオブフォール ~ 秋めく滝 Akimeku Taki 犬走椛 At The Termination of The Phantasm
BeatmapID:2279480
BeatmapSetID:1089726

[Difficulty]
HPDrainRate:9
CircleSize:2
OverallDifficulty:3
ApproachRate:10
SliderMultiplier:1.4
SliderTickRate:1

[Events]
//Background and Video events
0,0,"wanwanwan.jpg",0,100
//Break Periods
//Storyboard Layer 0 (Background)
//Storyboard Layer 1 (Fail)
//Storyboard Layer 2 (Pass)
//Storyboard Layer 3 (Foreground)
//Storyboard Layer 4 (Overlay)
//Storyboard Sound Samples

[TimingPoints]
23,230.769230769231,4,1,0,100,1,0
23,-166.666666666667,4,1,0,100,0,0
3715,-166.666666666667,4,1,0,100,0,1
16638,-166.666666666667,4,1,0,100,0,0
36946,-166.666666666667,4,1,0,100,0,1
38792,-166.666666666667,4,1,0,100,0,0

[HitObjects]
256,192,23,12,0,1638,0:0:0:0:
256,192,1869,5,12,0:0:0:0:
256,192,2330,1,12,0:0:0:0:
256,192,2792,1,0,0:0:0:0:
256,192,3138,1,8,0:0:0:0:
256,192,3484,1,8,0:0:0:0:
256,192,3715,1,4,0:0:0:0:
256,192,4061,1,8,0:0:0:0:
256,192,4292,1,0,0:0:0:0:
256,192,4523,1,8,0:0:0:0:
256,192,4869,1,0,0:0:0:0:
256,192,5330,1,0,0:0:0:0:
256,192,5561,1,0,0:0:0:0:
256,192,5907,1,8,0:0:0:0:
256,192,6138,1,8,0:0:0:0:
256,192,6369,1,0,0:0:0:0:
256,192,7407,1,4,0:0:0:0:
256,192,7753,1,8,0:0:0:0:
256,192,7984,1,8,0:0:0:0:
256,192,8215,1,0,0:0:0:0:
256,192,9023,1,8,0:0:0:0:
256,192,9253,1,4,0:0:0:0:
256,192,9599,1,8,0:0:0:0:
256,192,9830,1,8,0:0:0:0:
256,192,10176,1,4,0:0:0:0:
256,192,10523,1,8,0:0:0:0:
256,192,10753,1,8,0:0:0:0:
256,192,11099,1,4,0:0:0:0:
256,192,11446,1,8,0:0:0:0:
256,192,11676,1,0,0:0:0:0:
256,192,11907,1,8,0:0:0:0:
256,192,12253,1,0,0:0:0:0:
256,192,12715,1,0,0:0:0:0:
256,192,12946,1,0,0:0:0:0:
256,192,13292,1,8,0:0:0:0:
256,192,13523,1,8,0:0:0:0:
256,192,13753,1,0,0:0:0:0:
256,192,14792,1,4,0:0:0:0:
256,192,15138,1,12,0:0:0:0:
256,192,15369,1,4,0:0:0:0:
256,192,15599,1,12,0:0:0:0:
256,192,16407,1,8,0:0:0:0:
256,192,16638,1,4,0:0:0:0:
256,192,16984,1,8,0:0:0:0:
256,192,17215,1,8,0:0:0:0:
256,192,17446,1,0,0:0:0:0:
256,192,17907,1,8,0:0:0:0:
256,192,18484,1,0,0:0:0:0:
256,192,18830,1,8,0:0:0:0:
256,192,19061,1,8,0:0:0:0:
256,192,19407,1,0,0:0:0:0:
256,192,20330,1,4,0:0:0:0:
256,192,21484,1,0,0:0:0:0:
256,192,21715,1,8,0:0:0:0:
256,192,21946,1,0,0:0:0:0:
256,192,22176,1,0,0:0:0:0:
256,192,22407,1,8,0:0:0:0:
256,192,22869,1,8,0:0:0:0:
256,192,23330,1,8,0:0:0:0:
256,192,23792,1,8,0:0:0:0:
256,192,24023,1,4,0:0:0:0:
256,192,25176,1,0,0:0:0:0:
256,192,25407,1,8,0:0:0:0:
256,192,25638,1,0,0:0:0:0:
256,192,25869,1,12,0:0:0:0:
256,192,26215,1,0,0:0:0:0:
256,192,26561,1,12,0:0:0:0:
256,192,26907,1,0,0:0:0:0:
256,192,27253,1,8,0:0:0:0:
256,192,27484,1,8,0:0:0:0:
256,192,27715,1,4,0:0:0:0:
256,192,28869,1,0,0:0:0:0:
256,192,29099,1,8,0:0:0:0:
256,192,29330,1,0,0:0:0:0:
256,192,29561,1,0,0:0:0:0:
256,192,29792,1,8,0:0:0:0:
256,192,30253,1,8,0:0:0:0:
256,192,30715,1,8,0:0:0:0:
256,192,31176,1,8,0:0:0:0:
256,192,31407,1,4,0:0:0:0:
256,192,31869,1,12,0:0:0:0:
256,192,32330,1,12,0:0:0:0:
256,192,32792,1,8,0:0:0:0:
256,192,33023,1,8,0:0:0:0:
256,192,33253,1,12,0:0:0:0:
256,192,33484,12,0,36715,0:0:0:0:
256,192,36946,5,12,0:0:0:0:
256,192,37407,1,12,0:0:0:0:
256,192,37753,1,12,0:0:0:0:
256,192,38330,1,12,0:0:0:0:
256,192,38561,1,12,0:0:0:0:
256,192,38792,1,0,0:0:0:0:
256,192,39023,1,0,0:0:0:0:
256,192,39253,1,8,0:0:0:0:
256,192,39484,1,0,0:0:0:0:
256,192,39715,1,12,0:0:0:0:
