osu file format v14

[General]
AudioFilename: audio.mp3
AudioLeadIn: 0
PreviewTime: 68595
Countdown: 0
SampleSet: Drum
StackLeniency: 0.7
Mode: 0
LetterboxInBreaks: 0
WidescreenStoryboard: 0

[Editor]
Bookmarks: 9051,17399,34095,38269,46617,51834,64356,68530,93089,100361,114907,118543,125816,129452,143998,147634,158543,165816,173088,180361,188543,195816,203088,217634,232179,239452,246725,253998,268428,275019,280700
DistanceSpacing: 1
BeatDivisor: 8
GridSize: 32
TimelineZoom: 2.899999

[Metadata]
Title:Border Of Life
TitleUnicode:Border Of Life
Artist:BLANKFIELD
ArtistUnicode:BLANKFIELD
Creator:Zelq
Version:Lunatic
Source:東方妖々夢 ~ Perfect Cherry Blossom.
Tags:piroshki featured artist osu! touhou 東方project th7 yuyuko saigyouji 西行寺 幽々子 video game metal rock instrumental mpg mappers' guild Permutation Suicide zun team shanghai alice fa pcb 幽雅に咲かせ、墨染の桜
BeatmapID:2438536
BeatmapSetID:1168786

[Difficulty]
HPDrainRate:5
CircleSize:3.8
OverallDifficulty:8
ApproachRate:9.2
SliderMultiplier:1.8
SliderTickRate:1

[Events]
//Background and Video events
0,0,"yuyukoyuyukoyuyuko.jpg",0,0
//Break Periods
2,93089,99791
//Storyboard Layer 0 (Background)
//Storyboard Layer 1 (Fail)
//Storyboard Layer 2 (Pass)
//Storyboard Layer 3 (Foreground)
//Storyboard Layer 4 (Overlay)
//Storyboard Sound Samples

[TimingPoints]
704,260.869565217391,4,3,1,75,1,0
17399,-95.2380952380952,4,3,1,80,0,0
34095,-133.333333333333,4,3,1,60,0,0
36182,-111.111111111111,4,3,1,80,0,0
38008,-111.111111111111,4,3,1,85,0,0
38269,-99.9999999999999,4,3,1,75,0,0
46356,-99.9999999999999,4,3,1,80,0,0
46617,-99.9999999999999,4,3,1,70,0,0
51573,-125,4,3,1,70,0,0
51834,-142.857142857143,4,3,1,65,0,0
56008,-111.111111111111,4,3,1,65,0,0
60182,-142.857142857143,4,3,1,65,0,0
63312,-142.857142857143,4,3,1,70,0,0
64356,-111.111111111111,4,3,1,75,0,0
67486,-111.111111111111,4,3,1,90,0,0
68608,510.63829787234,4,2,1,40,1,0
68608,-125,4,2,1,40,0,0
69118,521.739130434783,4,2,1,40,1,0
69118,-125,4,2,1,40,0,0
69639,468.75,4,2,1,40,1,0
69639,-125,4,2,1,40,0,0
70107,521.739130434783,4,2,1,40,1,0
70628,458.015267175573,4,2,1,40,1,0
71086,465.116279069767,4,2,1,40,1,0
71551,-125,4,2,1,40,0,0
72016,521.739130434783,4,2,1,40,1,0
72016,-125,4,2,1,40,0,0
72537,480,4,2,1,40,1,0
73017,530.973451327434,4,2,1,40,1,0
73547,491.803278688525,4,2,1,40,1,0
74038,458.015267175573,4,2,1,40,1,0
74496,487.80487804878,4,2,1,40,1,0
74496,-125,4,2,1,40,0,0
74983,495.867768595041,4,2,1,40,1,0
75974,483.870967741935,4,2,1,40,1,0
76457,476.190476190476,4,2,1,40,1,0
76933,447.761194029851,4,2,1,40,1,0
77380,491.803278688525,4,2,1,40,1,0
77871,472.44094488189,4,2,1,40,1,0
78343,468.75,4,2,1,40,1,0
78811,491.803278688525,4,2,1,40,1,0
79302,461.538461538462,4,2,1,40,1,0
79763,481.927710843374,4,2,1,40,1,0
80244,-125,4,2,1,40,0,0
80726,500,4,2,1,40,1,0
80726,-125,4,2,1,40,0,0
82226,491.803278688525,4,2,1,40,1,0
82717,517.241379310345,4,2,1,40,1,0
83234,483.870967741935,4,2,1,40,1,0
83234,-125,4,2,1,40,0,0
83717,517.241379310345,4,2,1,40,1,0
83717,-125,4,2,1,40,0,0
84234,540.540540540541,4,2,1,40,1,0
84774,645.161290322581,4,2,1,40,1,0
85419,674.157303370787,4,2,1,40,1,0
86093,722.89156626506,4,2,1,40,1,0
86815,681.818181818182,4,2,1,40,1,0
86815,-125,4,2,1,40,0,0
87496,845.070422535211,4,2,1,40,1,0
87496,-125,4,2,1,40,0,0
88341,1000,4,2,1,40,1,0
89174,1263.15789473684,4,2,1,40,1,0
89384,1000,4,2,1,40,1,0
90217,1043.47826086957,4,2,1,40,1,0
93089,227.272727272727,4,3,1,70,1,0
100361,-111.111111111111,4,3,1,80,0,0
109452,-111.111111111111,4,3,1,90,0,0
110361,-111.111111111111,4,3,1,85,0,0
111043,-111.111111111111,4,3,1,80,0,0
114907,-125,4,3,1,70,0,0
117634,-125,4,3,1,80,0,0
118088,-125,4,3,1,85,0,0
118543,-125,4,3,1,70,0,0
121725,-111.111111111111,4,3,1,70,0,0
122179,-125,4,3,1,60,0,0
122236,-125,4,3,1,5,0,0
122520,-125,4,3,1,60,0,0
122577,-125,4,3,1,5,0,0
123770,-125,4,3,1,60,0,0
124054,-125,4,3,1,5,0,0
124338,-125,4,3,1,60,0,0
124395,-125,4,3,1,5,0,0
124793,-125,4,3,1,70,0,0
125361,-111.111111111111,4,3,1,70,0,0
125816,-125,4,3,1,70,0,0
125873,-125,4,3,1,5,0,0
126157,-125,4,3,1,70,0,0
126213,-125,4,3,1,5,0,0
126498,-125,4,3,1,70,0,0
126554,-125,4,3,1,5,0,0
126838,-125,4,3,1,70,0,0
126895,-125,4,3,1,5,0,0
127179,-125,4,3,1,70,0,0
128998,-125,4,3,1,75,0,0
129452,-111.111111111111,4,3,1,80,0,0
135816,-99.9999999999999,4,3,1,80,0,0
136725,-111.111111111111,4,3,1,80,0,0
143088,-111.111111111111,4,3,1,85,0,0
143998,-142.857142857143,4,3,1,65,0,0
164907,-111.111111111111,4,3,1,80,0,0
165588,-90.9090909090908,4,3,1,75,0,0
165816,-111.111111111111,4,3,1,80,0,0
173088,-111.111111111111,4,3,1,90,0,0
180361,-111.111111111111,4,3,1,75,0,0
188088,-111.111111111111,4,3,1,70,0,0
188543,-142.857142857143,4,3,1,70,0,0
194907,-111.111111111111,4,3,1,80,0,0
195816,-111.111111111111,4,3,1,70,0,0
203088,-166.666666666666,4,3,1,50,0,0
206725,-249.999999999999,4,3,1,50,0,0
210361,-166.666666666666,4,3,1,50,0,0
213998,-249.999999999999,4,3,1,50,0,0
217407,-249.999999999999,4,3,1,70,0,0
217634,-111.111111111111,4,3,1,80,0,0
226725,-111.111111111111,4,3,1,90,0,0
227634,-111.111111111111,4,3,1,85,0,0
228088,-111.111111111111,4,3,1,80,0,0
232179,-125,4,3,1,70,0,0
239509,-125,4,3,1,5,0,0
239793,-125,4,3,1,70,0,0
239850,-125,4,3,1,5,0,0
241043,-125,4,3,1,70,0,0
241327,-125,4,3,1,5,0,0
241611,-125,4,3,1,70,0,0
241668,-125,4,3,1,5,0,0
242861,-125,4,3,1,70,0,0
243088,-142.857142857143,4,3,1,70,0,0
244111,-200,4,3,1,60,0,0
252179,-142.857142857143,4,3,1,70,0,0
253543,-142.857142857143,4,3,1,80,0,0
253998,227.272727272727,3,3,1,85,1,0
253998,-125,3,3,1,85,0,0
259566,227.272727272727,3,3,1,85,1,0
259566,-125,3,3,1,85,0,0
261156,227.272727272727,3,3,1,85,1,0
261156,-125,3,3,1,85,0,0
266838,227.272727272727,3,3,1,85,1,0
266838,-125,3,3,1,85,0,0
268428,227.272727272727,3,3,1,90,1,0
268428,-111.111111111111,3,3,1,90,0,0
271724,227.272727272727,3,3,1,90,1,0
271724,-111.111111111111,3,3,1,90,0,0
275019,227.272727272727,3,3,1,90,1,0
275019,-111.111111111111,3,3,1,90,0,0
275075,-111.111111111111,3,3,1,60,0,0
276723,-111.111111111111,3,3,1,75,0,0
280473,-111.111111111111,3,3,1,100,0,0

[Colours]
Combo1 : 143,163,250
Combo2 : 255,102,102
Combo3 : 235,163,114
Combo4 : 157,126,207

[HitObjects]
34,32,704,5,6,1:2:0:0:
47,29,769,1,0,1:0:0:0:
60,26,834,1,8,0:2:0:0:
140,75,964,2,0,B|170:68|187:49|187:49|145:36,1,90,2|8,1:2|0:2,0:0:0:0:
61,124,1225,2,0,L|44:232,1,90,2|8,1:2|0:2,0:0:0:0:
150,184,1486,2,0,L|136:272,1,90,2|8,1:2|0:2,0:0:0:0:
0,323,1747,6,0,B|92:301|63:379|190:356,1,180,2|2,1:2|1:2,0:0:0:0:
240,302,2138,1,8,0:2:0:0:
367,378,2269,1,2,1:2:0:0:
445,332,2399,2,0,B|496:345|496:345|459:354,1,90,10|0,0:2|1:0,0:0:0:0:
325,256,2660,1,10,0:2:0:0:
403,210,2790,2,0,B|454:223|454:223|417:232,1,90,2|8,1:2|0:2,0:0:0:0:
328,137,3051,6,0,P|366:72|442:51,1,135,2|0,1:2|0:0,0:0:0:0:
434,64,3312,2,0,P|367:66|313:28,1,135,2|0,1:2|0:0,0:0:0:0:
297,27,3573,2,0,P|247:3|211:27,1,90,2|8,1:2|0:2,0:0:0:0:
237,183,3834,6,0,L|247:93,1,90,2|8,1:2|0:2,0:0:0:0:
121,11,4095,2,0,L|131:100,1,90,2|8,1:2|0:2,0:0:0:0:
64,216,4356,1,2,1:2:0:0:
64,216,4486,2,0,B|50:190|26:184|26:184|72:159|124:173|151:222,1,180,10|10,0:2|0:2,0:0:0:0:
255,288,4877,6,0,B|205:274|205:274|174:292|174:292|127:298,1,135,6|0,1:2|0:0,0:0:0:0:
101,323,5138,2,0,P|115:369|162:370,1,90,2|8,1:2|0:2,0:0:0:0:
255,288,5399,2,0,L|264:198,1,90,2|8,1:2|0:2,0:0:0:0:
366,330,5660,2,0,L|375:240,1,90,2|8,1:2|0:2,0:0:0:0:
481,369,5921,6,0,L|498:188,1,180,2|2,1:2|1:2,0:0:0:0:
465,118,6312,1,8,0:2:0:0:
338,174,6443,1,2,1:2:0:0:
298,98,6573,2,0,B|321:-1|321:-1|337:28,1,135,10|0,0:2|0:0,0:0:0:0:
352,46,6834,6,0,B|251:59|291:-7|177:19,1,180,14|8,0:2|0:2,0:0:0:0:
56,93,7225,2,0,P|54:23|28:14,1,90,2|8,1:2|0:2,0:0:0:0:
12,189,7486,1,2,1:2:0:0:
107,163,7617,1,10,0:2:0:0:
203,132,7747,1,2,1:2:0:0:
56,93,7877,6,0,B|23:127|23:127|43:258,1,180,14|8,0:2|0:2,0:0:0:0:
102,373,8269,2,0,L|12:361,1,90,2|8,1:2|0:2,0:0:0:0:
174,281,8530,5,6,1:2:0:0:
174,281,8617,2,0,L|240:266,1,60,8|8,0:0|0:0,0:0:0:0:
314,370,8790,5,6,1:2:0:0:
314,370,8877,2,0,L|380:385,1,60,8|8,0:0|0:0,0:0:0:0:
492,322,9051,5,6,1:2:0:0:
406,301,9182,1,8,0:2:0:0:
322,279,9312,2,0,P|317:226|346:188,1,90,2|8,1:2|0:2,0:0:0:0:
494,181,9573,2,0,P|459:209|415:210,1,90,2|8,1:2|0:2,0:0:0:0:
323,82,9834,2,0,P|364:97|387:135,1,90,2|8,1:2|0:2,0:0:0:0:
225,194,10095,6,0,B|210:164|210:164|242:55|242:55|227:25,1,180,2|2,1:2|1:2,0:0:0:0:
155,65,10486,1,8,0:2:0:0:
302,161,10617,1,2,1:2:0:0:
229,212,10747,2,0,L|123:195,1,90,10|0,0:2|1:0,0:0:0:0:
332,292,11008,1,10,0:2:0:0:
259,343,11138,6,0,L|115:322,1,135,6|0,1:2|0:0,0:0:0:0:
97,317,11399,2,0,P|65:338|73:385,1,90,2|8,1:2|0:2,0:0:0:0:
125,229,11660,2,0,P|122:190|78:174,1,90,2|8,1:2|0:2,0:0:0:0:
187,296,11921,2,0,P|221:313|257:282,1,90,2|8,1:2|0:2,0:0:0:0:
212,127,12182,6,0,P|203:46|283:39,1,180,2|2,1:2|1:2,0:0:0:0:
295,117,12573,1,8,0:2:0:0:
470,81,12703,1,2,1:2:0:0:
422,18,12834,2,0,B|378:51|378:51|403:107|391:173,1,180,10|10,0:2|0:2,0:0:0:0:
302,286,13225,6,0,B|355:271|370:343|423:332,1,135,6|0,1:2|0:0,0:0:0:0:
459,317,13486,2,0,P|463:274|425:255,1,90,2|8,1:2|0:2,0:0:0:0:
299,365,13747,2,0,L|192:353,1,90,2|8,1:2|0:2,0:0:0:0:
115,375,14008,2,0,L|25:364,1,90,2|8,1:2|0:2,0:0:0:0:
15,254,14269,6,0,B|61:242|61:242|138:285|138:285|193:267,1,180,2|2,1:2|1:2,0:0:0:0:
259,244,14660,1,8,0:2:0:0:
157,107,14790,1,2,1:2:0:0:
110,174,14921,2,0,B|149:198|149:198|190:181,1,90,10|0,0:2|1:0,0:0:0:0:
230,159,15117,5,0,1:0:0:0:
230,159,15182,2,0,B|308:124|322:230|399:205,1,180,14|8,0:2|0:2,0:0:0:0:
498,137,15573,2,0,P|462:112|422:130,1,90,2|8,1:2|0:2,0:0:0:0:
468,235,15834,2,0,L|528:246,2,45,8|8|8,1:2|0:2|0:2,0:0:0:0:
404,307,16095,1,0,1:2:0:0:
493,353,16225,6,0,L|284:326,1,180,14|2,0:2|1:2,0:0:0:0:
213,384,16617,2,0,L|221:294,1,90,10|0,1:2|1:0,0:0:0:0:
286,226,16877,5,10,0:2:0:0:
209,217,17008,5,10,0:2:0:0:
130,209,17138,5,10,0:2:0:0:
53,200,17269,5,10,0:2:0:0:
103,285,17399,6,0,P|106:193|42:93,1,188.999994232178,12|0,0:2|1:0,0:0:0:0:
112,15,17790,2,0,P|196:20|229:129,1,188.999994232178,10|8,0:2|0:2,0:0:0:0:
286,226,18182,2,0,P|327:206|343:162,1,94.499997116089,2|8,1:2|0:2,0:0:0:0:
321,31,18443,6,0,B|428:10|428:10|466:36|451:103,1,188.999994232178,2|0,1:2|1:0,0:0:0:0:
495,186,18834,2,0,P|433:113|364:155,1,188.999994232178,10|8,0:2|0:2,0:0:0:0:
414,297,19225,2,0,P|426:241|382:237,1,94.499997116089,2|8,1:2|0:2,0:0:0:0:
300,328,19486,6,0,L|197:313,1,94.499997116089,6|8,1:2|0:2,0:0:0:0:
286,226,19747,2,0,L|192:212,1,94.499997116089,2|8,1:2|0:2,0:0:0:0:
274,118,20008,1,2,1:2:0:0:
179,105,20138,1,8,0:2:0:0:
89,90,20269,2,0,B|82:39|82:39|108:86,1,94.499997116089,2|8,1:2|0:2,0:0:0:0:
118,190,20530,6,0,B|109:258|50:274|50:274|11:240|28:200,1,188.999994232178,2|0,1:2|1:0,0:0:0:0:
115,168,20921,1,8,0:2:0:0:
192,242,21051,2,0,P|207:287|204:334,1,94.499997116089,0|8,1:0|0:2,0:0:0:0:
92,372,21312,2,0,L|43:366,2,47.2499985580445,2|0|10,1:2|0:0|0:2,0:0:0:0:
221,349,21573,6,0,B|308:314|315:400|414:370,1,188.999994232178,6|0,1:2|1:0,0:0:0:0:
489,262,21964,2,0,B|426:230|365:285|365:285|341:268|341:226,1,188.999994232178,10|8,0:2|0:2,0:0:0:0:
423,148,22356,1,2,1:2:0:0:
436,151,22421,1,0,1:0:0:0:
449,153,22486,1,8,0:2:0:0:
426,53,22617,6,0,B|386:44|386:44|330:141|330:141|294:135,1,188.999994232178,2|0,1:2|1:0,0:0:0:0:
218,167,23008,1,10,0:2:0:0:
183,55,23138,2,0,B|247:32|247:32|230:52,1,94.499997116089,0|8,1:0|0:2,0:0:0:0:
103,109,23399,2,0,B|39:86|39:86|55:106,1,94.499997116089,2|8,1:2|0:2,0:0:0:0:
204,187,23660,6,0,L|344:164,1,141.749995674133,6|0,1:2|0:0,0:0:0:0:
366,161,23921,2,0,P|410:190|405:240,1,94.499997116089,2|8,1:2|0:2,0:0:0:0:
305,301,24182,2,0,L|164:278,1,141.749995674133,2|0,1:2|0:0,0:0:0:0:
143,275,24443,2,0,P|99:304|104:354,1,94.499997116089,2|8,1:2|0:2,0:0:0:0:
20,238,24703,6,0,L|10:176,4,47.2499985580445,8|8|8|8|8,1:2|0:2|0:2|0:2|1:2,0:2:0:0:
114,158,25095,2,8,L|121:111,4,47.2499985580445,8|8|8|8|8,0:2|0:2|0:2|0:2|1:2,0:2:0:0:
14,51,25486,1,8,0:2:0:0:
16,64,25551,1,8,0:2:0:0:
19,77,25617,1,8,0:2:0:0:
122,24,25747,6,0,B|218:23|181:106|282:112,1,188.999994232178,4|0,1:0|1:0,0:0:0:0:
441,57,26138,2,0,B|417:23|370:32|370:32|356:90|391:157,1,188.999994232178,10|8,0:2|0:2,0:0:0:0:
477,237,26530,2,0,B|504:222|504:222|477:205|437:227,1,94.499997116089,2|8,1:2|0:2,0:0:0:0:
418,362,26790,6,0,B|305:375|305:375|273:346|283:300,1,188.999994232178,2|0,1:2|1:0,0:0:0:0:
350,196,27182,2,0,B|363:131|318:104|318:104|286:153|217:160,1,188.999994232178,10|8,0:2|0:2,0:0:0:0:
108,78,27573,2,0,P|155:51|189:99,1,94.499997116089,2|8,1:2|0:2,0:0:0:0:
117,185,27834,6,0,L|13:171,1,94.499997116089,6|8,1:2|0:2,0:0:0:0:
93,280,28095,2,0,L|-11:266,1,94.499997116089,2|8,1:2|0:2,0:0:0:0:
180,367,28356,2,0,P|182:296|217:236,1,141.749995674133,2|0,1:2|0:0,0:0:0:0:
246,230,28617,2,0,P|272:266|256:321,1,94.499997116089,2|8,1:2|0:2,0:0:0:0:
161,276,28877,1,2,1:2:0:0:
117,185,29008,1,8,0:2:0:0:
197,145,29138,1,0,1:0:0:0:
246,230,29269,2,0,P|296:240|346:203,1,94.499997116089,8|2,0:2|1:2,0:0:0:0:
367,52,29530,2,0,P|335:85|331:131,1,94.499997116089,8|2,0:2|1:2,0:0:0:0:
368,157,29725,1,0,1:0:0:0:
368,157,29790,1,10,0:2:0:0:
470,7,29921,6,0,L|478:67,1,47.2499985580445,6|0,1:2|0:0,0:0:0:0:
482,87,30051,2,0,B|387:97|422:-3|299:8,2,188.999994232178,8|10|8,0:2|0:2|0:2,0:0:0:0:
483,185,30703,2,0,P|489:223|448:272,1,94.499997116089,2|8,1:2|0:2,0:0:0:0:
262,332,30964,6,0,L|308:340,1,47.2499985580445,2|0,1:2|0:0,0:0:0:0:
339,346,31095,2,0,B|372:323|372:323|343:217|343:217|385:184,2,188.999994232178,8|10|8,0:2|0:2|0:2,0:0:0:0:
176,375,31747,2,0,L|183:277,1,94.499997116089,2|8,1:2|0:2,0:0:0:0:
211,160,32008,6,0,P|259:173|257:227,1,94.499997116089,6|8,1:2|0:2,0:0:0:0:
132,118,32269,2,0,P|119:69|167:44,1,94.499997116089,2|8,1:2|0:2,0:0:0:0:
135,207,32530,2,0,P|99:242|53:213,1,94.499997116089,2|8,1:2|0:2,0:0:0:0:
209,147,32790,2,0,P|293:129|339:163,1,141.749995674133,2|0,1:2|0:0,0:0:0:0:
346,180,33051,5,2,1:2:0:0:
431,103,33182,1,8,0:2:0:0:
431,103,33247,1,8,0:2:0:0:
431,103,33312,2,0,L|420:36,2,47.2499985580445,8|8|4,0:0|0:0|0:0,0:0:0:0:
455,220,33573,2,0,L|515:210,2,47.2499985580445,8|8|8,0:2|0:2|0:2,0:0:0:0:
432,249,33769,1,8,0:2:0:0:
408,278,33834,2,0,L|294:296,1,94.499997116089,8|8,0:2|0:2,0:0:0:0:
212,377,34095,6,0,B|126:383|2:144|252:262|275:34|66:32|13:69|-18:103|-7:166|0:202|24:286|98:299|234:336|269:192|237:121,1,810.000030899049,12|0,1:2|0:2,0:0:0:0:
243,142,36182,6,0,L|251:88,3,40.4999987640381,8|8|4|4,0:0|0:0|0:0|0:0,0:0:0:0:
212,26,36443,2,0,B|181:6|181:6|138:17,1,80.9999975280763,8|8,0:2|0:2,0:0:0:0:
84,121,36703,1,8,0:0:0:0:
105,205,36834,2,0,P|64:230|18:223,1,80.9999975280763,8|8,0:2|0:2,0:0:0:0:
188,230,37095,1,4,0:0:0:0:
159,313,37226,2,0,P|200:338|246:331,1,80.9999975280763,8|8,0:2|0:2,0:0:0:0:
376,267,37486,1,8,0:0:0:0:
292,238,37617,1,8,0:3:0:0:
312,321,37747,2,0,B|334:333|348:358|348:358|398:334|463:332,1,161.999995056153,8|10,0:2|0:2,0:0:0:0:
482,28,38269,6,0,L|381:48,1,90,4|0,0:2|1:0,0:0:0:0:
297,131,38530,2,0,P|299:87|277:49,1,90,8|0,0:2|0:0,0:0:0:0:
139,23,38790,1,2,1:2:0:0:
139,23,38856,1,2,0:2:0:0:
139,23,38921,2,0,P|91:62|96:186,1,180,2|0,0:2|0:2,0:0:0:0:
174,259,39312,5,2,0:2:0:0:
115,332,39443,2,0,L|23:324,1,90,2|8,0:2|0:2,0:0:0:0:
195,274,39703,2,0,B|276:263|265:380|356:369,1,180,2|0,1:2|1:0,0:0:0:0:
459,312,40095,2,0,L|469:200,1,90,8|0,0:2|0:0,0:0:0:0:
474,72,40356,5,4,0:2:0:0:
388,86,40486,1,0,1:0:0:0:
303,101,40617,2,0,L|318:223,1,90,8|0,0:2|0:0,0:0:0:0:
283,291,40877,1,2,1:2:0:0:
283,291,40943,1,2,0:2:0:0:
283,291,41008,2,0,L|168:268,1,90,2|8,0:2|0:2,0:0:0:0:
116,357,41269,6,0,P|111:290|64:232,1,135,2|0,0:2|0:0,0:0:0:0:
40,220,41530,2,0,P|26:171|59:143,1,90,2|8,0:2|0:2,0:0:0:0:
183,171,41790,1,2,1:2:0:0:
183,171,41856,1,2,0:2:0:0:
183,171,41921,2,0,P|147:207|106:193,1,90,2|0,0:2|1:0,0:0:0:0:
75,71,42182,2,0,P|111:35|152:49,1,90,8|0,0:2|0:0,0:0:0:0:
252,113,42443,5,4,0:2:0:0:
330,82,42573,1,0,1:0:0:0:
409,50,42703,2,0,B|425:0|425:0|391:39,1,90,8|0,0:2|0:0,0:0:0:0:
454,136,42964,1,2,1:2:0:0:
454,136,43030,1,2,0:2:0:0:
454,136,43095,2,0,P|477:179|454:225,1,90,2|8,0:2|0:2,0:0:0:0:
335,224,43356,6,0,L|201:203,1,135,2|0,0:2|0:0,0:0:0:0:
175,196,43617,2,0,P|147:229|159:271,1,90,2|8,0:2|0:2,0:0:0:0:
287,352,43877,2,0,B|213:342|213:342|185:358|185:358|113:347,1,180,2|0,1:2|1:0,0:0:0:0:
0,370,44269,2,0,L|17:271,1,90,8|0,0:2|0:0,0:0:0:0:
110,142,44530,6,0,P|73:166|28:163,1,90,4|0,0:2|1:0,0:0:0:0:
0,57,44790,2,0,P|36:32|81:35,1,90,8|0,0:2|0:0,0:0:0:0:
199,87,45051,1,2,1:2:0:0:
199,87,45117,1,2,0:2:0:0:
199,87,45182,2,0,P|196:33|177:-14,1,90,2|8,0:2|0:2,0:0:0:0:
345,30,45443,6,0,P|319:91|312:179,1,135,2|0,0:2|0:0,0:0:0:0:
335,183,45703,2,0,P|400:165|399:128,1,90,2|8,0:2|0:2,0:0:0:0:
236,208,45964,1,2,1:2:0:0:
236,208,46030,1,2,0:2:0:0:
236,208,46095,2,0,B|196:200|196:200|131:227|131:227|88:219,1,135,2|0,0:2|0:0,0:0:0:0:
74,210,46356,2,0,P|55:163|87:142,1,90,8|0,0:2|0:0,0:0:0:0:
185,311,46617,5,4,1:0:0:0:
94,359,46747,1,0,1:0:0:0:
29,291,47138,5,8,0:2:0:0:
74,210,47399,5,2,1:2:0:0:
166,220,47530,1,0,1:0:0:0:
310,240,48182,5,8,0:2:0:0:
404,254,48703,5,0,1:0:0:0:
461,182,48834,1,0,1:0:0:0:
423,101,49225,5,8,0:2:0:0:
336,90,49486,5,2,1:2:0:0:
282,157,49617,1,0,1:0:0:0:
310,240,50269,6,0,B|304:265|310:286|310:286|280:275|275:256,1,90,8|0,0:2|1:0,0:0:0:0:
301,162,50530,1,8,0:2:0:0:
472,170,50660,1,8,0:2:0:0:
444,21,51573,6,0,P|455:54|455:90,1,72,2|0,1:2|1:0,0:0:0:0:
472,170,51834,6,0,P|399:115|310:138,2,188.999994232178,6|2|2,0:2|0:2|1:2,0:0:0:0:
485,252,52747,1,0,1:0:0:0:
491,337,52877,2,0,L|347:315,1,125.999996154785,12|0,0:2|1:0,0:0:0:0:
284,348,53269,1,2,1:2:0:0:
205,378,53399,2,0,L|61:356,1,125.999996154785,8|2,0:2|1:2,0:0:0:0:
80,358,53921,6,0,P|94:266|75:235,1,125.999996154785,12|2,0:2|0:2,0:0:0:0:
0,87,54443,2,0,P|40:133|101:145,1,125.999996154785,2|2,0:2|1:2,0:0:0:0:
183,106,54834,1,0,1:0:0:0:
243,191,54964,6,0,B|268:194|268:194|326:141|326:141|348:143,1,125.999996154785,8|0,0:2|1:0,0:0:0:0:
434,153,55356,1,0,1:0:0:0:
482,77,55486,2,0,L|429:72,3,31.4999990386963,10|0|0|0,0:2|0:0|0:0|0:0,0:0:0:0:
413,43,55747,2,0,L|360:38,3,31.4999990386963,2|0|2|0,1:2|0:0|1:2|0:0,0:0:0:0:
351,16,56008,6,0,B|267:9|319:95|191:98,1,161.999995056153,12|0,0:2|1:0,0:0:0:0:
108,22,56399,2,0,P|33:29|38:103,1,161.999995056153,2|0,1:2|1:0,0:0:0:0:
120,179,56790,1,2,1:2:0:0:
132,176,56856,1,0,1:0:0:0:
144,174,56921,1,0,1:0:0:0:
39,259,57051,6,0,L|203:290,1,161.999995056153,0|0,1:0|0:0,0:0:0:0:
141,370,57443,2,0,L|61:355,1,80.9999975280763,2|2,1:2|1:2,0:0:0:0:
23,257,57703,1,8,0:2:0:0:
110,181,57834,2,0,L|260:211,1,121.499996292114,2|0,0:2|0:0,0:0:0:0:
261,212,58095,6,0,P|291:181|274:143,1,80.9999975280763,8|0,0:2|0:0,0:0:0:0:
220,295,58356,2,0,P|231:336|273:340,1,80.9999975280763,2|0,1:2|1:0,0:0:0:0:
169,218,58617,2,0,P|127:207|102:241,2,80.9999975280763,2|0|2,0:2|1:0|1:2,0:0:0:0:
390,374,59138,6,0,B|397:336|373:302|373:302|401:275|401:226|401:226|366:193|381:133,1,242.999992584229,2|2,1:2|1:2,0:0:0:0:
450,85,59660,1,0,0:0:0:0:
358,32,59790,2,0,B|324:0|324:0|335:32,1,80.9999975280763,8|2,0:2|0:2,0:0:0:0:
454,69,60051,1,2,1:2:0:0:
351,136,60182,6,0,B|254:120|289:218|180:216,2,188.999994232178,6|2|0,0:2|0:2|1:0,0:0:0:0:
430,192,61095,1,0,0:0:0:0:
508,247,61225,2,0,B|482:275|482:275|365:289|365:289|338:319,1,188.999994232178,8|2,0:2|1:2,0:0:0:0:
264,376,61747,2,0,P|268:325|339:315,1,125.999996154785,8|2,0:2|1:2,0:0:0:0:
125,351,62269,6,0,P|45:344|29:305,2,125.999996154785,8|2|2,0:2|0:2|0:2,0:0:0:0:
142,340,63051,1,0,1:0:0:0:
117,256,63182,1,0,1:0:0:0:
206,277,63312,1,10,0:2:0:0:
390,190,63573,5,0,1:0:0:0:
415,97,63703,1,0,1:0:0:0:
323,121,63834,2,0,L|239:107,1,62.9999980773926,10|0,0:2|0:0,0:0:0:0:
218,31,64095,2,0,L|134:17,1,62.9999980773926,0|0,1:0|1:0,0:0:0:0:
41,73,64356,6,0,P|73:106|79:155,1,80.9999975280763,6|0,0:2|1:0,0:0:0:0:
90,230,64617,2,0,P|56:262|8:268,1,80.9999975280763,2|0,1:2|1:0,0:0:0:0:
162,175,64877,2,0,P|227:169|282:265,1,161.999995056153,10|2,0:2|1:2,0:0:0:0:
216,301,65269,1,0,0:0:0:0:
321,367,65399,6,0,L|412:345,1,80.9999975280763,2|0,0:2|1:0,0:0:0:0:
512,374,65660,2,0,L|490:283,1,80.9999975280763,2|0,1:2|1:0,0:0:0:0:
512,178,65921,2,0,B|475:206|475:206|337:180,1,161.999995056153,10|2,0:2|1:2,0:0:0:0:
260,163,66312,1,0,1:0:0:0:
339,80,66443,6,0,B|380:64|380:64|360:108,1,80.9999975280763,6|0,0:2|0:0,0:0:0:0:
274,189,66703,2,0,B|267:232|267:232|245:202,1,80.9999975280763,2|0,1:2|0:0,0:0:0:0:
213,79,66964,2,0,B|178:51|178:51|226:46,1,80.9999975280763,10|0,0:2|1:0,0:0:0:0:
339,80,67225,2,0,B|380:64|380:64|364:97,1,80.9999975280763,2|0,1:2|1:0,0:0:0:0:
251,183,67486,5,10,0:2:0:0:
168,196,67617,1,10,0:2:0:0:
86,161,67747,1,10,0:2:0:0:
45,89,67877,1,10,0:2:0:0:
72,12,68008,5,10,0:2:0:0:
129,88,68139,1,10,0:2:0:0:
120,190,68269,1,10,0:2:0:0:
47,256,68399,1,10,0:2:0:0:
91,337,68530,5,2,1:2:0:0:
91,337,68608,2,0,P|140:335|172:346,1,72,2|0,0:0|0:0,0:0:0:0:
299,384,69118,2,0,P|288:339|302:289,1,90,2|0,0:0|0:0,0:0:0:0:
262,197,69639,2,0,P|218:225|129:215,1,144,2|2,0:0|0:0,0:0:0:0:
71,153,70628,1,2,0:0:0:0:
68,63,71086,1,2,0:0:0:0:
135,9,71551,6,0,P|180:9|230:72,1,120,2|0,0:0|0:0,0:0:0:0:
245,72,72016,2,0,P|276:107|346:93,1,108,2|0,0:0|0:0,0:0:0:0:
380,45,72537,1,2,0:0:0:0:
419,129,73547,5,2,0:0:0:0:
380,45,74038,1,2,0:0:0:0:
466,52,74496,6,0,L|448:158,1,108,2|0,0:0|0:0,0:0:0:0:
427,190,74983,2,0,P|377:197|336:166,1,90,2|0,0:0|0:0,0:0:0:0:
297,108,75478,1,2,0:0:0:0:
222,59,75974,1,2,0:0:0:0:
138,79,76457,1,2,0:0:0:0:
83,143,76933,1,2,0:0:0:0:
89,230,77380,1,2,0:0:0:0:
159,278,77871,1,2,0:0:0:0:
141,361,78343,1,0,0:0:0:0:
53,366,78811,1,2,0:0:0:0:
22,287,79302,1,2,0:0:0:0:
89,230,79763,1,2,0:0:0:0:
159,278,80244,6,0,P|199:284|247:267,1,72,2|0,0:0|0:0,0:0:0:0:
343,222,80726,2,0,P|312:292|317:365,2,144,2|0|0,0:0|0:0|0:0,0:0:0:0:
459,150,82226,1,2,0:0:0:0:
394,39,82717,1,2,0:0:0:0:
287,103,83234,6,0,P|246:117|214:110,1,72,2|0,0:0|0:0,0:0:0:0:
170,47,83596,1,0,0:0:0:0:
154,35,83717,2,0,P|113:22|61:101,1,144,2|2,0:0|0:0,0:0:0:0:
129,181,84774,1,2,0:0:0:0:
56,265,85419,1,2,0:0:0:0:
118,356,86093,1,2,0:0:0:0:
215,324,86815,6,0,P|220:284|237:256,1,72,2|0,0:0|0:0,0:0:0:0:
253,251,87269,1,0,0:0:0:0:
324,323,87496,1,2,0:0:0:0:
340,335,87636,2,0,P|395:339|444:286,1,120,2|2,0:0|0:0,0:0:0:0:
411,125,89174,5,2,0:0:0:0:
414,139,89384,1,2,0:0:0:0:
427,220,89759,5,2,0:0:0:0:
454,361,100361,6,0,P|406:368|371:353,1,80.9999975280763,6|8,1:2|0:2,0:0:0:0:
330,284,100588,1,0,1:0:0:0:
447,200,100702,2,0,B|485:244|485:244|467:346,1,161.999995056153,10|8,0:2|0:2,0:0:0:0:
346,272,101043,2,0,P|280:261|251:282,1,80.9999975280763,2|8,1:2|0:2,0:0:0:0:
159,384,101270,6,0,P|190:359|202:321,1,80.9999975280763,2|8,1:2|0:2,0:0:0:0:
184,238,101498,1,0,1:0:0:0:
49,178,101611,2,0,B|64:339,1,161.999995056153,10|8,0:2|0:2,0:0:0:0:
163,243,101952,2,0,L|153:151,1,80.9999975280763,2|8,1:2|0:2,0:0:0:0:
283,58,102179,6,0,P|322:55|353:80,1,80.9999975280763,6|8,1:2|0:2,0:0:0:0:
312,182,102407,2,0,P|272:184|241:159,1,80.9999975280763,2|8,1:2|0:2,0:0:0:0:
79,53,102634,2,0,P|39:50|8:75,1,80.9999975280763,2|8,1:2|0:2,0:0:0:0:
49,178,102862,2,0,P|88:180|119:155,1,80.9999975280763,2|8,1:2|0:2,0:0:0:0:
184,41,103088,6,0,L|174:0,4,40.4999987640381,10|8|8|8|10,0:2|0:2|0:2|0:2|0:2,0:0:0:0:
227,130,103429,1,8,0:0:0:0:
286,56,103543,2,0,L|296:16,2,40.4999987640381,10|8|4,0:2|0:0|0:0,0:0:0:0:
336,135,103770,2,0,B|373:147|373:147|458:112,1,121.499996292114,14|0,1:2|0:0,0:0:0:0:
472,105,103998,6,0,P|458:65|410:59,1,80.9999975280763,6|8,1:2|0:2,0:0:0:0:
354,117,104225,1,0,1:0:0:0:
406,234,104338,2,0,B|464:232|501:196|501:196|503:241|477:268,1,161.999995056153,10|8,1:2|1:2,0:0:0:0:
429,346,104679,2,0,P|390:356|349:341,1,80.9999975280763,2|8,1:2|0:2,0:0:0:0:
255,384,104907,6,0,L|270:213,1,161.999995056153,2|0,1:2|1:0,0:0:0:0:
202,98,105248,2,0,B|152:107|132:142|132:142|171:125|227:148,1,161.999995056153,10|8,0:2|0:2,0:0:0:0:
321,138,105588,2,0,B|346:133|356:116|356:116|336:124|308:113,1,80.9999975280763,2|8,1:2|0:2,0:0:0:0:
243,221,105816,5,6,1:2:0:0:
174,244,105929,1,8,0:2:0:0:
104,267,106043,2,0,P|68:252|99:213,1,80.9999975280763,2|8,1:2|0:2,0:0:0:0:
198,317,106270,2,0,L|279:330,1,80.9999975280763,2|8,1:2|0:2,0:0:0:0:
365,379,106498,2,0,L|378:298,1,80.9999975280763,2|8,1:2|0:2,0:0:0:0:
453,222,106725,5,14,0:2:0:0:
381,211,106838,1,8,0:2:0:0:
309,196,106952,1,8,0:2:0:0:
236,187,107066,1,8,0:2:0:0:
177,250,107179,2,0,P|218:269|257:262,1,80.9999975280763,8|8,0:2|0:2,0:0:0:0:
299,116,107407,2,0,P|258:96|218:103,1,80.9999975280763,14|10,0:2|0:2,0:0:0:0:
96,192,107634,6,0,P|52:205|14:166,1,80.9999975280763,6|8,1:2|0:2,0:0:0:0:
23,108,107861,1,0,1:0:0:0:
123,23,107975,2,0,P|242:2|301:22,1,161.999995056153,10|8,0:2|0:2,0:0:0:0:
382,82,108316,2,0,P|377:43|395:7,1,80.9999975280763,2|8,1:2|0:2,0:0:0:0:
352,165,108543,6,0,P|320:189|280:192,1,80.9999975280763,2|8,1:2|0:2,0:0:0:0:
236,130,108770,1,0,1:0:0:0:
439,149,108884,2,0,P|480:186|490:295,1,161.999995056153,10|8,0:2|0:2,0:0:0:0:
412,355,109225,2,0,B|375:377|375:377|399:346,1,80.9999975280763,2|8,1:2|0:2,0:0:0:0:
512,289,109452,6,0,P|516:249|498:198,1,80.9999975280763,6|8,1:2|0:2,0:0:0:0:
504,96,109679,2,0,P|471:72|418:62,1,80.9999975280763,6|8,1:2|0:2,0:0:0:0:
332,7,109907,2,0,P|295:23|260:64,1,80.9999975280763,6|8,1:2|0:2,0:0:0:0:
167,111,110134,2,0,P|167:171|194:224,1,121.499996292114,6|0,1:2|0:0,0:0:0:0:
231,229,110361,6,0,P|240:212|240:192,4,40.4999987640381,10|8|8|8|8,0:2|0:2|0:2|0:2|0:2,0:0:0:0:
179,313,110702,2,0,L|83:301,1,80.9999975280763,0|8,1:0|0:2,0:0:0:0:
77,325,110873,1,8,0:0:0:0:
77,325,110929,1,0,1:0:0:0:
15,213,111043,2,0,P|48:203|95:220,1,80.9999975280763,12|0,0:2|0:0,0:0:0:0:
194,333,111270,6,0,P|232:342|270:329,1,80.9999975280763,6|8,1:2|0:2,0:0:0:0:
315,254,111498,1,0,1:0:0:0:
412,367,111611,2,0,P|399:320|422:202,1,161.999995056153,10|8,0:2|0:2,0:0:0:0:
465,125,111952,2,0,B|501:100|501:100|473:145,1,80.9999975280763,2|8,1:2|0:2,0:0:0:0:
343,168,112179,6,0,L|333:87,1,80.9999975280763,2|8,1:2|0:2,0:0:0:0:
398,33,112407,1,0,1:0:0:0:
253,127,112520,2,0,B|225:146|196:137|196:137|163:82|86:91,1,161.999995056153,10|8,0:2|0:2,0:0:0:0:
50,219,112861,2,0,P|88:214|108:180,1,80.9999975280763,2|8,1:2|0:2,0:0:0:0:
30,21,113088,6,0,L|23:119,1,80.9999975280763,6|8,1:2|0:2,0:0:0:0:
108,180,113316,2,0,L|113:260,1,80.9999975280763,2|8,1:2|0:2,0:0:0:0:
239,103,113543,2,0,L|232:201,1,80.9999975280763,2|8,1:2|0:2,0:0:0:0:
317,262,113771,2,0,L|322:342,1,80.9999975280763,2|8,1:2|0:2,0:0:0:0:
460,200,113998,5,10,0:2:0:0:
502,269,114111,2,0,P|463:280|424:272,1,80.9999975280763,8|10,0:2|0:2,0:0:0:0:
382,204,114338,1,8,0:2:0:0:
433,116,114452,5,8,0:2:0:0:
393,49,114566,1,8,0:2:0:0:
316,66,114679,2,0,L|310:150,1,80.9999975280763,12|8,0:2|0:2,0:0:0:0:
304,248,114907,5,6,1:2:0:0:
297,326,115361,1,2,1:2:0:0:
304,248,116725,5,6,1:2:0:0:
297,326,117179,1,2,1:2:0:0:
181,367,117634,5,10,0:2:0:0:
168,340,117710,1,8,0:2:0:0:
162,311,117785,1,8,0:2:0:0:
171,283,117861,2,0,P|195:283|230:272,1,48,2|0,1:2|1:0,0:0:0:0:
233,179,118013,5,0,1:0:0:0:
233,179,118088,2,0,B|212:208|173:207|173:207|153:175|112:173|112:173|78:197|90:249,1,216,8|0,0:2|0:0,0:0:0:0:
61,319,118543,6,0,L|13:308,3,48,6|0|0|0,1:2|1:0|1:0|1:0,0:0:0:0:
190,343,118998,1,2,1:2:0:0:
402,348,119452,5,6,1:2:0:0:
393,361,119528,2,0,L|337:368,1,48,4|4,1:3|1:3,0:0:0:0:
268,299,119679,5,6,1:3:0:0:
277,286,119755,2,4,L|333:279,1,48,4|4,1:3|1:3,0:3:0:0:
411,256,119907,5,2,1:2:0:0:
435,278,119983,1,2,1:2:0:0:
468,283,120059,1,2,1:2:0:0:
512,226,120134,5,10,1:2:0:0:
498,212,120361,6,0,P|483:131|489:52,1,144,14|2,0:2|0:2,0:0:0:0:
360,38,120702,2,0,P|374:108|372:180,1,144,10|2,0:2|0:2,0:0:0:0:
310,255,121043,2,0,B|263:292|218:294|178:262|178:262|213:244|253:264,1,216,10|2,0:2|0:2,0:0:0:0:
360,338,121498,2,0,B|396:352|396:352|369:331,1,72,10|0,1:2|1:0,1:0:0:0:
234,368,121725,6,0,B|130:352|130:352|79:375|79:375|23:353|46:276,1,242.999992584229,10|2,0:2|0:2,0:0:0:0:
103,197,122179,6,0,B|108:191|108:191|117:220,1,36,6|0,1:2|0:0,0:0:0:0:
13,146,122520,2,0,B|8:140|8:140|-1:169,1,36,6|0,1:2|0:0,0:0:0:0:
103,197,123770,1,10,1:2:0:0:
225,103,123998,6,0,B|228:96|228:96|241:120,1,36,6|0,1:2|0:0,0:0:0:0:
126,70,124339,2,0,B|119:65|119:65|116:92,1,36,6|0,1:2|0:0,0:0:0:0:
225,103,125361,2,0,B|337:51|326:245|465:196,1,283.499991348267,2|0,0:2|0:0,0:0:0:0:
465,188,125816,6,0,P|453:168|437:155,1,36,6|0,1:2|0:0,0:0:0:0:
400,68,126157,2,0,P|377:62|356:64,1,36,6|0,1:2|0:0,0:0:0:0:
269,30,126498,2,0,P|249:41|235:57,1,36,6|0,1:2|0:0,0:0:0:0:
204,150,126838,6,0,P|181:155|160:153,1,36,6|0,1:2|0:0,0:0:0:0:
73,188,127179,2,0,P|53:176|88:75,1,144,6|0,1:2|0:0,0:0:0:0:
185,133,127520,6,0,P|201:164|201:205,1,72,6|2,1:2|0:2,0:0:0:0:
168,265,127748,1,2,0:2:0:0:
102,294,127861,1,6,1:2:0:0:
30,286,127975,1,0,0:0:0:0:
95,313,128088,2,0,P|119:342|126:381,1,72,2|6,0:2|1:2,0:0:0:0:
452,321,128429,6,0,B|378:315|397:366|299:359,1,144,2|2,0:2|0:2,0:0:0:0:
254,322,128770,1,2,0:2:0:0:
222,256,128884,1,6,1:2:0:0:
286,289,128998,1,2,0:2:0:0:
354,267,129111,1,10,0:2:0:0:
386,202,129225,2,0,P|372:153|354:130,1,72,6|10,1:2|0:2,0:0:0:0:
415,55,129452,5,6,1:2:0:0:
331,31,129566,2,0,P|291:53|222:55,1,80.9999975280763,8|0,0:2|1:0,0:0:0:0:
160,29,129793,2,0,L|145:109,1,80.9999975280763,10|0,0:2|1:0,0:0:0:0:
155,195,130020,1,8,0:2:0:0:
155,195,130248,6,0,B|95:181|38:212|38:212|64:220|85:217,1,161.999995056153,10|10,0:2|0:2,0:0:0:0:
242,167,130588,2,0,P|261:126|256:81,1,80.9999975280763,2|10,1:2|0:2,0:0:0:0:
222,262,130816,1,2,1:2:0:0:
222,262,130929,2,0,P|248:298|289:317,1,80.9999975280763,10|0,0:2|1:0,0:0:0:0:
359,290,131157,1,8,0:2:0:0:
451,367,131270,6,0,B|432:337|432:337|464:285|450:215,1,161.999995056153,6|0,1:2|1:0,0:0:0:0:
441,117,131611,2,0,B|486:96|486:96|467:121,1,80.9999975280763,10|0,0:2|1:0,0:0:0:0:
366,177,131838,1,8,0:2:0:0:
366,177,132066,6,0,P|338:117|382:35,1,161.999995056153,10|10,0:2|0:2,0:0:0:0:
259,32,132407,2,0,P|213:49|201:93,1,80.9999975280763,2|10,1:2|0:2,0:0:0:0:
235,159,132634,1,10,0:2:0:0:
136,169,132748,1,8,0:2:0:0:
108,163,132804,1,4,0:0:0:0:
80,156,132861,2,0,L|66:96,2,40.4999987640381,10|8|10,0:2|0:2|0:2,0:0:0:0:
26,254,133088,6,0,B|88:242|88:242|131:260|131:260|182:249,1,161.999995056153,6|0,1:2|1:0,0:0:0:0:
278,284,133429,2,0,P|294:320|295:361,2,80.9999975280763,10|0|8,0:2|1:0|0:2,0:0:0:0:
284,289,133884,6,0,P|275:227|363:167,1,161.999995056153,10|10,0:2|0:2,0:0:0:0:
477,228,134225,2,0,P|452:244|404:238,1,80.9999975280763,2|10,1:2|0:2,0:0:0:0:
350,156,134452,1,2,1:2:0:0:
423,102,134566,2,0,L|481:109,2,40.4999987640381,8|0|0,0:2|0:0|1:0,0:0:0:0:
366,42,134793,1,10,1:2:0:0:
296,89,134907,6,0,B|254:94|254:94|221:69|221:69|177:55|142:95,1,161.999995056153,6|0,1:2|1:0,0:0:0:0:
77,137,135248,2,0,P|48:94|86:75,1,80.9999975280763,10|0,0:2|1:0,0:0:0:0:
151,176,135475,1,8,0:2:0:0:
151,176,135702,5,8,0:2:0:0:
91,254,135816,2,0,P|102:277|119:292,2,45,10|8|8,0:2|0:2|0:2,0:0:0:0:
5,217,136043,2,0,P|-4:242|-1:262,3,45,8|8|8|8,0:3|3:0|3:0|3:0,0:0:0:0:
0,286,136270,2,0,B|174:231|111:408|291:363,1,315,8|0,0:0|0:0,0:0:0:0:
305,347,136725,6,0,P|357:346|385:376,1,80.9999975280763,6|8,1:2|0:2,0:0:0:0:
457,303,136952,2,0,P|432:271|434:232,1,80.9999975280763,0|10,1:0|0:2,0:0:0:0:
343,193,137179,2,0,P|328:229|292:247,1,80.9999975280763,0|8,1:0|0:2,0:0:0:0:
218,217,137407,1,2,1:2:0:0:
271,127,137520,6,0,B|316:119|316:119|361:155|361:155|419:145,1,161.999995056153,10|10,0:2|0:2,0:0:0:0:
496,144,137861,2,0,P|511:184|505:223,1,80.9999975280763,2|10,1:2|0:2,0:0:0:0:
433,232,138088,1,2,1:2:0:0:
457,77,138202,2,0,B|461:11|524:1|524:1|504:39|468:37,1,161.999995056153,10|8,0:2|0:2,0:0:0:0:
383,30,138543,6,0,B|319:15|319:15|287:34|287:34|194:33,1,161.999995056153,6|0,1:2|1:2,0:0:0:0:
140,0,138884,1,10,0:2:0:0:
59,130,138998,2,0,P|71:91|66:51,1,80.9999975280763,0|8,1:2|0:2,0:0:0:0:
66,51,139338,6,0,P|38:99|62:228,1,161.999995056153,10|10,0:2|0:2,0:0:0:0:
91,265,139679,1,2,1:2:0:0:
49,330,139793,1,10,0:2:0:0:
119,372,139907,1,2,1:2:0:0:
161,306,140020,2,0,B|223:292|251:359|251:359|214:347|206:323,1,161.999995056153,10|10,0:2|0:2,0:0:0:0:
197,224,140361,6,0,P|197:183|182:142,1,80.9999975280763,6|8,1:2|0:2,0:0:0:0:
144,81,140588,1,0,1:2:0:0:
226,30,140702,2,0,L|316:44,2,80.9999975280763,10|0|8,0:2|1:2|0:2,0:0:0:0:
231,42,141157,6,0,L|391:19,1,161.999995056153,10|10,0:2|0:2,0:0:0:0:
463,78,141498,2,0,P|481:29|466:8,1,80.9999975280763,2|10,1:2|0:2,0:0:0:0:
382,98,141725,1,2,1:2:0:0:
460,164,141838,1,10,0:2:0:0:
469,190,141895,1,8,0:2:0:0:
469,218,141952,2,0,L|427:207,2,40.4999987640381,4|4|8,0:0|0:0|0:0,0:0:0:0:
483,306,142179,6,0,L|402:289,1,80.9999975280763,6|0,1:2|0:0,0:0:0:0:
293,361,142407,2,0,L|309:280,1,80.9999975280763,10|0,0:2|1:0,0:0:0:0:
327,170,142634,1,8,0:2:0:0:
299,176,142691,1,8,0:0:0:0:
271,182,142748,1,8,0:2:0:0:
243,188,142804,1,8,0:0:0:0:
215,194,142861,2,0,L|161:182,3,40.4999987640381,8|4|8|4,0:2|0:0|0:2|0:0,0:0:0:0:
158,178,143088,6,0,P|130:206|133:272,1,80.9999975280763,6|0,1:2|0:0,0:0:0:0:
106,239,143316,2,0,P|112:199|140:171,1,80.9999975280763,2|0,0:2|0:0,0:0:0:0:
102,105,143543,2,0,P|62:130|40:162,1,80.9999975280763,2|0,0:2|0:0,0:0:0:0:
2,225,143770,2,0,P|9:185|30:151,1,80.9999975280763,2|2,0:2|0:2,0:0:0:0:
171,54,143998,6,0,L|369:33,2,188.999994232178,6|2|2,1:2|0:2|0:2,0:0:0:0:
253,144,144907,2,0,L|451:123,2,188.999994232178,2|2|2,0:2|0:2|0:2,0:0:0:0:
172,267,145816,2,0,B|127:294|80:269|70:223|70:223|99:194|146:202,1,188.999994232178,6|2,1:2|1:2,0:0:0:0:
333,346,146725,2,0,B|377:373|424:348|434:302|434:302|405:273|358:281,1,188.999994232178,6|2,1:2|1:2,0:0:0:0:
218,378,147634,5,6,1:2:0:0:
78,340,147975,1,2,1:2:0:0:
121,200,148316,1,2,1:2:0:0:
67,96,148543,6,0,B|91:54|162:36|164:111|242:79,2,188.999994232178,10|2|2,0:2|0:2|0:2,0:0:0:0:
121,200,149452,6,0,P|191:218|255:179,1,125.999996154785,6|2,0:2|0:2,0:0:0:0:
329,23,149907,2,0,P|283:64|272:125,1,125.999996154785,2|2,1:2|0:2,0:0:0:0:
424,262,150361,2,0,B|360:172|446:98|446:98|456:158|394:230|291:184,1,377.999988464356,10|2,0:2|0:2,0:0:0:0:
244,231,151157,1,2,0:2:0:0:
244,231,151270,5,6,0:2:0:0:
446,99,151611,1,2,0:2:0:0:
237,0,151952,1,2,0:2:0:0:
368,231,152179,5,10,0:2:0:0:
159,132,152520,1,2,0:2:0:0:
361,0,152861,1,2,0:2:0:0:
446,99,153088,6,0,P|483:149|478:219,1,125.999996154785,6|2,0:2|0:2,0:0:0:0:
443,323,153543,2,0,P|381:330|323:290,1,125.999996154785,2|2,1:2|0:2,0:0:0:0:
199,382,153998,2,0,P|209:308|21:84,1,377.999988464356,10|0,0:2|0:0,0:0:0:0:
33,237,154907,5,6,0:2:0:0:
173,135,155248,1,2,0:2:0:0:
316,231,155588,1,2,0:2:0:0:
362,153,155816,5,10,0:2:0:0:
222,255,156157,1,2,0:2:0:0:
79,159,156497,1,2,0:2:0:0:
165,37,156725,6,0,P|198:89|202:151,1,125.999996154785,6|2,0:2|0:2,0:0:0:0:
146,321,157179,2,0,P|174:265|226:231,1,125.999996154785,2|2,1:2|0:2,0:0:0:0:
407,324,157634,6,0,B|376:373|301:363|258:299|337:313|276:233|201:250,2,251.999992309571,8|2|6,0:2|1:2|1:2,0:0:0:0:
256,192,158600,12,2,160134,0:2:0:0:
424,324,160361,5,6,1:2:0:0:
256,192,160418,12,2,161952,0:2:0:0:
442,336,162179,5,6,1:2:0:0:
256,192,162236,12,2,163770,0:2:0:0:
466,348,163998,5,6,1:2:0:0:
466,348,164907,5,10,0:2:0:0:
466,348,164982,2,0,L|480:259,1,53.9999983520508,8|8,0:2|0:2,0:0:0:0:
366,257,165134,5,8,0:2:0:0:
366,257,165209,2,0,L|352:168,1,53.9999983520508,10|8,0:2|0:2,0:0:0:0:
471,148,165361,5,8,0:2:0:0:
486,119,165437,1,8,0:0:0:0:
485,86,165513,1,8,0:0:0:0:
463,54,165588,6,0,B|385:37|412:102|308:88,1,132.00000402832,8|8,0:2|0:3,0:0:0:0:
297,68,165816,6,0,P|294:22|335:10,1,80.9999975280763,6|8,1:2|0:2,0:0:0:0:
387,57,166043,1,0,1:0:0:0:
318,169,166157,2,0,L|143:150,1,161.999995056153,10|8,0:2|0:2,0:0:0:0:
92,88,166498,2,0,B|83:45|83:45|102:79,1,80.9999975280763,2|8,1:2|0:2,0:0:0:0:
130,228,166725,6,0,P|87:268|11:243,1,121.499996292114,2|0,1:2|0:0,0:0:0:0:
15,233,166952,2,0,P|31:195|76:189,1,80.9999975280763,0|10,1:0|0:2,0:0:0:0:
205,265,167179,2,0,P|164:270|136:234,1,80.9999975280763,0|8,1:0|0:2,0:0:0:0:
137,84,167407,2,0,P|161:116|144:158,1,80.9999975280763,2|8,1:2|0:2,0:0:0:0:
13,115,167634,6,0,L|-6:28,1,80.9999975280763,6|8,1:2|0:2,0:0:0:0:
67,0,167861,1,2,1:2:0:0:
137,84,167975,2,0,B|215:107|215:107|255:80|235:38,1,161.999995056153,8|8,0:2|0:2,0:0:0:0:
273,167,168316,2,0,P|318:181|354:161,1,80.9999975280763,2|8,1:2|0:2,0:0:0:0:
451,102,168543,6,0,L|458:15,1,80.9999975280763,6|8,1:2|0:2,0:0:0:0:
437,91,168770,2,0,L|444:4,1,80.9999975280763,2|8,1:2|0:2,0:0:0:0:
333,163,168998,2,0,L|326:76,1,80.9999975280763,6|8,1:2|0:2,0:0:0:0:
347,152,169225,2,0,L|340:65,1,80.9999975280763,2|8,1:2|0:2,0:0:0:0:
475,204,169452,6,0,B|455:197|455:197|405:303|405:303|382:295,1,161.999995056153,6|2,1:2|1:2,0:0:0:0:
270,259,169793,2,0,B|293:294|293:294|276:338,2,80.9999975280763,8|2|8,0:2|1:2|0:2,0:0:0:0:
160,254,170134,2,0,L|176:333,1,80.9999975280763,2|8,1:2|0:2,0:0:0:0:
61,371,170361,6,0,L|79:220,1,121.499996292114,2|0,1:2|0:0,0:0:0:0:
67,227,170588,2,0,P|31:204|-5:225,1,80.9999975280763,2|8,1:2|0:2,0:0:0:0:
160,254,170816,2,0,P|197:234|197:192,1,80.9999975280763,2|8,1:2|0:2,0:0:0:0:
118,103,171043,2,0,B|95:71|95:71|108:110,1,80.9999975280763,2|8,1:2|0:2,0:0:0:0:
215,192,171270,6,0,P|293:190|335:124,1,161.999995056153,6|2,1:2|1:2,0:0:0:0:
406,32,171611,2,0,P|461:15|465:96,1,161.999995056153,8|8,0:2|0:2,0:0:0:0:
380,105,171952,1,2,1:2:0:0:
296,86,172066,1,8,0:2:0:0:
229,27,172179,6,0,B|253:30|274:10|274:10|321:41|316:117|316:117|279:140|274:191,1,242.999992584229,6|8,1:2|0:2,0:0:0:0:
331,260,172634,2,0,B|386:286|454:236|446:184|446:184|403:205|406:256,1,242.999992584229,6|8,1:2|0:2,0:0:0:0:
475,349,173088,6,0,L|435:340,3,40.4999987640381,6|0|8|0,1:2|0:0|0:2|0:0,0:0:0:0:
360,377,173316,2,0,L|320:385,3,40.4999987640381,0|2|8|2,1:0|0:2|0:2|0:2,0:0:0:0:
247,358,173543,2,0,L|207:349,3,40.4999987640381,0|0|8|0,1:0|0:0|0:2|0:0,0:0:0:0:
122,380,173770,1,2,1:2:0:0:
119,351,173827,1,2,1:2:0:0:
116,322,173884,1,8,0:2:0:0:
113,293,173941,1,2,1:2:0:0:
108,264,173998,6,0,B|132:249|132:249|186:262,1,80.9999975280763,2|8,1:2|0:2,0:0:0:0:
348,248,174225,2,0,B|324:263|324:263|270:250,1,80.9999975280763,0|10,1:0|0:2,0:0:0:0:
99,165,174452,2,0,B|123:150|123:150|177:163,1,80.9999975280763,0|8,1:0|0:2,0:0:0:0:
339,149,174679,2,0,B|315:164|315:164|261:151,1,80.9999975280763,2|8,1:2|0:2,0:0:0:0:
157,61,174907,6,0,L|100:46,4,40.4999987640381,6|0|8|2|2,1:2|0:0|0:2|0:2|1:2,0:0:0:0:
228,22,175248,1,8,0:2:0:0:
303,69,175361,2,0,L|321:27,3,40.4999987640381,2|0|8|0,1:2|0:0|0:2|0:0,0:0:0:0:
404,20,175588,2,0,P|441:90|435:152,1,121.499996292114,2|2,1:2|0:2,0:0:0:0:
442,167,175816,6,0,L|486:158,2,40.4999987640381,6|0|8,1:2|0:0|0:2,0:0:0:0:
468,262,176043,1,2,1:2:0:0:
468,262,176100,1,2,1:2:0:0:
468,262,176157,1,8,0:2:0:0:
406,346,176270,2,0,P|365:329|356:297,1,80.9999975280763,6|8,1:2|0:2,0:0:0:0:
266,362,176498,2,0,P|258:322|264:282,1,80.9999975280763,2|8,1:2|0:2,0:0:0:0:
325,180,176725,6,0,L|222:201,1,80.9999975280763,6|8,1:2|0:2,0:0:0:0:
135,218,176952,2,0,L|160:141,1,80.9999975280763,2|8,1:2|0:2,0:0:0:0:
198,35,177179,1,2,1:2:0:0:
251,95,177293,1,8,0:2:0:0:
177,113,177407,2,0,P|130:117|93:97,1,80.9999975280763,2|8,1:2|0:2,0:0:0:0:
45,32,177634,6,0,P|65:66|72:106,1,80.9999975280763,2|8,1:2|0:2,0:0:0:0:
92,182,177861,2,0,P|72:217|41:243,1,80.9999975280763,2|8,1:2|0:2,0:0:0:0:
26,232,178088,2,0,P|57:206|77:171,1,80.9999975280763,2|8,1:2|0:2,0:0:0:0:
57,95,178315,2,0,P|50:55|30:21,1,80.9999975280763,2|8,1:2|0:2,0:0:0:0:
128,4,178543,5,6,1:2:0:0:
128,4,178657,2,0,B|206:-7|190:64|302:43,1,161.999995056153,8|8,0:2|0:2,0:0:0:0:
385,9,178998,2,0,P|371:42|371:90,1,80.9999975280763,2|8,1:2|0:2,0:0:0:0:
493,110,179225,2,0,P|506:76|507:29,1,80.9999975280763,2|8,1:2|0:2,0:0:0:0:
378,104,179452,5,6,1:2:0:0:
315,158,179566,2,8,L|264:144,4,40.4999987640381,8|8|8|8|8,0:2|0:2|0:2|0:2|0:2,0:2:0:0:
386,188,179907,1,8,0:2:0:0:
428,251,180020,1,8,0:2:0:0:
396,326,180134,1,8,0:2:0:0:
319,365,180248,1,8,0:2:0:0:
232,339,180361,5,6,1:2:0:0:
232,339,180475,1,2,1:2:0:0:
147,360,181043,5,6,1:2:0:0:
147,360,181157,1,2,1:2:0:0:
53,377,181725,6,0,L|61:288,1,80.9999975280763,8|0,0:2|1:0,0:0:0:0:
44,279,181952,2,0,L|36:359,1,80.9999975280763,4|4,1:3|1:3,0:0:0:0:
66,203,182179,5,10,0:2:0:0:
66,203,182293,1,2,1:2:0:0:
419,26,183998,5,6,1:2:0:0:
419,26,184112,1,2,1:2:0:0:
321,39,184679,5,6,1:2:0:0:
321,39,184793,1,2,1:2:0:0:
223,55,185361,5,8,0:2:0:0:
148,38,185475,1,8,0:2:0:0:
74,20,185588,1,8,0:2:0:0:
0,2,185702,1,8,2:0:0:0:
33,87,185816,6,0,P|46:127|46:176,1,80.9999975280763,10|0,0:2|0:0,0:0:0:0:
61,100,186043,2,0,P|63:142|50:189,1,80.9999975280763,2|0,1:2|1:0,0:0:0:0:
131,226,186270,6,0,P|102:257|60:281,1,80.9999975280763,10|2,0:2|1:2,0:0:0:0:
133,256,186497,2,0,P|97:278|50:291,1,80.9999975280763,10|2,0:2|1:2,0:0:0:0:
207,338,186725,6,0,L|219:250,1,80.9999975280763,2|2,1:2|1:2,0:0:0:0:
225,351,186952,2,0,L|237:263,1,80.9999975280763,8|2,0:2|1:2,0:0:0:0:
127,384,187179,5,10,0:2:0:0:
42,369,187293,1,10,0:2:0:0:
60,290,187407,1,10,0:2:0:0:
138,301,187520,1,10,0:2:0:0:
484,162,188088,6,0,B|442:159|404:109|404:109|358:149|344:203|344:203|312:177|251:178,1,283.499991348267,2|0,0:2|0:0,0:0:0:0:
256,192,188543,5,6,1:2:0:0:
255,109,188770,1,2,1:2:0:0:
191,51,188998,1,2,1:2:0:0:
191,51,189225,1,2,1:2:0:0:
256,192,189452,5,8,0:2:0:0:
328,232,189679,1,2,1:2:0:0:
410,206,189907,1,2,1:2:0:0:
256,192,190134,1,2,1:2:0:0:
166,318,190361,5,6,1:2:0:0:
184,234,190588,1,2,1:2:0:0:
328,232,190816,1,2,1:2:0:0:
255,370,191043,1,2,1:2:0:0:
256,192,191270,5,8,0:2:0:0:
184,234,191498,5,2,1:2:0:0:
140,240,191611,1,0,1:0:0:0:
97,229,191725,1,2,1:2:0:0:
71,193,191838,1,0,1:0:0:0:
73,148,191952,1,2,1:2:0:0:
101,114,192066,1,0,1:0:0:0:
196,130,192179,5,6,1:2:0:0:
184,234,192407,1,2,1:2:0:0:
172,341,192634,1,2,1:2:0:0:
172,341,192861,1,2,1:2:0:0:
316,173,193088,5,8,0:2:0:0:
328,277,193316,1,2,1:2:0:0:
340,384,193543,1,2,1:2:0:0:
316,173,193770,1,2,1:2:0:0:
184,234,193998,5,6,1:2:0:0:
150,245,194111,1,0,0:0:0:0:
117,256,194225,1,0,0:0:0:0:
83,267,194338,1,0,0:0:0:0:
81,231,194452,5,8,0:2:0:0:
116,238,194565,1,0,0:0:0:0:
150,245,194679,1,0,0:0:0:0:
185,252,194792,1,0,0:0:0:0:
160,294,194907,6,0,P|131:282|117:231,1,80.9999975280763,6|8,1:2|0:0,0:0:0:0:
126,164,195134,1,8,0:0:0:0:
119,139,195248,1,8,0:0:0:0:
181,91,195361,1,8,0:0:0:0:
174,66,195475,1,8,0:0:0:0:
241,26,195588,1,8,0:0:0:0:
234,1,195702,1,8,0:0:0:0:
321,50,195816,5,6,1:2:0:0:
321,50,195929,1,2,1:2:0:0:
407,33,196157,5,2,1:2:0:0:
407,33,196270,1,10,0:2:0:0:
457,114,196497,5,2,1:2:0:0:
457,114,196610,1,2,1:2:0:0:
367,137,196838,5,2,1:2:0:0:
367,137,196951,1,2,1:2:0:0:
438,24,197179,6,0,B|470:59|470:59|443:186,1,161.999995056153,10|2,0:2|1:2,0:0:0:0:
429,247,197520,1,2,1:2:0:0:
504,293,197634,5,6,1:2:0:0:
504,293,197748,1,2,1:2:0:0:
433,341,197975,5,2,1:2:0:0:
433,341,198089,1,10,0:2:0:0:
356,311,198316,5,2,1:2:0:0:
356,311,198430,1,2,1:2:0:0:
356,311,198543,2,0,P|299:303|218:368,1,161.999995056153,2|2,1:2|1:2,0:0:0:0:
147,297,198884,1,2,1:2:0:0:
147,297,198998,2,0,P|182:251|166:148,1,161.999995056153,10|2,0:2|1:2,0:0:0:0:
256,108,199338,1,2,1:2:0:0:
340,73,199452,5,6,1:2:0:0:
340,73,199566,1,2,1:2:0:0:
261,20,199793,5,2,1:2:0:0:
261,20,199907,1,10,0:2:0:0:
148,14,200134,5,2,1:2:0:0:
148,14,200248,1,2,1:2:0:0:
35,92,200475,5,2,1:2:0:0:
35,92,200589,1,2,1:2:0:0:
27,230,200816,6,0,B|57:239|57:239|115:153|115:153|140:161,1,161.999995056153,10|2,0:2|1:2,0:0:0:0:
217,191,201157,1,2,1:2:0:0:
159,272,201270,5,6,1:2:0:0:
159,272,201384,1,2,1:2:0:0:
202,367,201611,5,2,1:2:0:0:
202,367,201725,1,10,0:2:0:0:
311,384,201952,5,2,1:2:0:0:
311,384,202066,1,2,1:2:0:0:
387,350,202179,6,0,L|397:249,1,80.9999975280763,2|2,1:2|1:2,0:0:0:0:
465,178,202407,2,0,L|364:168,1,80.9999975280763,2|2,1:2|1:2,0:0:0:0:
298,104,202634,2,0,L|288:205,1,80.9999975280763,10|2,0:2|1:2,0:0:0:0:
220,276,202862,2,0,L|321:286,1,80.9999975280763,2|2,1:2|1:2,0:0:0:0:
465,178,203088,6,0,B|141:152|141:152|93:56|93:56|421:81,1,755.999976928712,6|0,1:2|0:0,0:0:0:0:
470,262,204907,6,0,B|432:308|432:308|346:302|346:302|302:250|302:250|183:239,1,323.999990112305,2|0,1:2|0:0,0:0:0:0:
41,371,205816,2,0,B|98:336|98:336|68:61,1,323.999990112305,2|0,1:2|0:0,0:0:0:0:
228,35,206725,6,0,B|366:9|390:203|236:224|176:142|176:142|363:113|271:337|489:289|489:289|317:194|386:399|168:352,1,1080,6|0,1:2|0:0,0:0:0:0:
91,368,210248,5,0,0:0:0:0:
91,368,210361,2,0,B|141:289|119:74|28:27|28:27|-20:137|46:251|46:251|122:207|190:260,1,755.999976928712,6|0,1:2|0:0,0:0:0:0:
342,322,212179,6,0,B|449:340|449:340|530:270|530:270|415:246,1,323.999990112305,2|0,1:2|0:0,0:0:0:0:
303,170,213088,2,0,B|196:147|196:147|277:77|277:77|384:95,1,323.999990112305,2|0,1:2|0:0,0:0:0:0:
467,202,213998,6,0,B|504:267|504:267|505:234|531:204|531:204|482:242|345:313|247:276|224:145|410:75|439:173|411:302|296:287|296:287|227:276|169:390|308:443|408:343|310:251|232:227|175:251,1,1008,6|0,1:2|0:0,0:0:0:0:
27,355,217407,5,2,0:2:0:0:
108,366,217520,1,2,0:2:0:0:
76,284,217634,6,0,P|58:216|89:106,1,161.999995056153,6|0,1:2|1:0,0:0:0:0:
136,74,217975,1,10,0:2:0:0:
82,22,218088,2,0,B|39:4|39:4|63:42,1,80.9999975280763,0|8,1:0|0:2,0:0:0:0:
156,83,218316,2,0,L|262:61,1,80.9999975280763,2|8,1:2|0:2,0:0:0:0:
341,17,218543,6,0,B|384:9|384:9|430:69|430:69|388:77,1,161.999995056153,2|0,1:2|1:0,0:0:0:0:
270,64,218884,1,10,0:2:0:0:
326,139,218998,2,0,P|338:177|339:217,1,80.9999975280763,0|8,1:0|0:2,0:0:0:0:
425,246,219225,2,0,P|443:210|417:182,1,80.9999975280763,2|8,1:2|0:2,0:0:0:0:
274,292,219452,6,0,L|359:298,1,80.9999975280763,6|8,1:2|0:2,0:0:0:0:
432,362,219679,2,0,L|512:367,1,80.9999975280763,2|8,1:2|0:2,0:0:0:0:
267,303,219907,2,0,L|352:309,1,80.9999975280763,2|8,1:2|0:2,0:0:0:0:
425,373,220134,2,0,L|505:378,1,80.9999975280763,2|8,1:2|0:2,0:0:0:0:
261,287,220361,6,0,B|164:321|196:342|187:344|216:362|120:470|43:367|48:325|90:252|155:287,1,323.999990112305,10|10,0:2|0:2,0:0:0:0:
256,270,220929,1,4,0:0:0:0:
189,197,221043,2,0,P|157:172|117:172,1,80.9999975280763,14|0,0:2|0:0,0:0:0:0:
43,234,221270,6,0,P|83:165|75:86,1,161.999995056153,6|0,1:2|1:0,0:0:0:0:
178,40,221611,2,0,B|237:33|237:33|276:56|276:56|332:48,1,161.999995056153,10|8,0:2|0:2,0:0:0:0:
463,46,221952,2,0,B|470:13|470:13|422:39,1,80.9999975280763,2|8,1:2|0:2,0:0:0:0:
406,161,222179,6,0,B|374:125|374:125|251:146,1,161.999995056153,2|0,1:2|1:0,0:0:0:0:
172,209,222520,2,0,P|123:159|195:134,1,161.999995056153,10|8,0:2|0:2,0:0:0:0:
256,232,222861,2,0,L|345:215,1,80.9999975280763,2|8,1:2|0:2,0:0:0:0:
173,290,223088,5,6,1:2:0:0:
249,319,223202,1,8,0:2:0:0:
183,370,223316,2,0,P|142:380|86:349,1,80.9999975280763,2|8,1:2|0:2,0:0:0:0:
141,205,223543,2,0,P|169:233|178:272,1,80.9999975280763,2|8,1:2|0:2,0:0:0:0:
19,323,223770,2,0,P|29:284|58:257,1,80.9999975280763,2|8,1:2|0:2,0:0:0:0:
172,209,223998,5,10,0:2:0:0:
233,163,224111,1,8,0:2:0:0:
250,86,224225,1,8,0:2:0:0:
203,20,224338,1,8,0:2:0:0:
127,2,224452,1,8,0:2:0:0:
58,38,224566,1,8,0:2:0:0:
37,114,224679,2,0,L|76:122,3,40.4999987640381,14|0|10|0,0:2|0:0|0:2|0:0,0:0:0:0:
116,105,224907,6,0,B|204:88|181:156|291:135,1,161.999995056153,6|0,1:2|1:0,0:0:0:0:
353,75,225248,2,0,B|356:35|356:35|334:70,1,80.9999975280763,10|0,0:2|1:0,0:0:0:0:
377,179,225475,1,8,0:2:0:0:
377,179,225588,2,0,B|420:196|479:166,1,80.9999975280763,2|8,1:2|0:2,0:0:0:0:
281,151,225816,6,0,P|222:170|207:285,1,161.999995056153,2|0,1:2|1:0,0:0:0:0:
254,320,226157,1,10,0:2:0:0:
396,264,226270,2,0,P|359:250|319:248,1,80.9999975280763,0|8,1:0|0:2,0:0:0:0:
241,336,226498,2,0,P|203:350|163:352,1,80.9999975280763,2|8,1:2|0:2,0:0:0:0:
67,320,226725,6,0,L|47:142,1,161.999995056153,6|6,1:2|1:2,0:0:0:0:
36,152,227179,2,0,L|54:312,1,161.999995056153,6|6,1:2|1:2,0:0:0:0:
194,258,227634,5,10,1:2:0:0:
205,232,227691,1,8,0:2:0:0:
208,203,227748,1,8,0:2:0:0:
207,175,227804,1,8,0:2:0:0:
196,148,227861,2,0,L|162:180,2,40.4999987640381,8|8|8,0:3|3:0|3:0,0:0:0:0:
214,63,228088,2,0,L|199:9,2,40.4999987640381,8|8|8,0:2|0:2|0:2,0:0:0:0:
281,117,228316,2,0,P|319:122|370:107,1,80.9999975280763,12|0,0:2|0:0,0:0:0:0:
470,73,228543,6,0,B|464:45|422:39|422:39|461:76|450:152,1,161.999995056153,6|0,1:2|1:0,0:0:0:0:
381,189,228884,2,0,P|359:222|361:273,1,80.9999975280763,10|0,0:2|1:0,0:0:0:0:
409,331,229111,1,8,0:2:0:0:
512,259,229225,2,0,B|491:235|491:235|431:246,1,80.9999975280763,2|8,1:2|0:2,0:0:0:0:
394,347,229452,6,0,B|373:370|373:370|232:347,1,161.999995056153,2|0,1:2|1:0,0:0:0:0:
147,292,229793,2,0,P|122:339|136:367,1,80.9999975280763,10|0,0:2|1:0,0:0:0:0:
207,383,230020,1,8,0:2:0:0:
273,268,230134,2,0,P|244:222|213:220,1,80.9999975280763,2|8,1:2|0:2,0:0:0:0:
131,297,230361,6,0,L|50:285,1,80.9999975280763,6|8,1:2|0:2,0:0:0:0:
10,202,230588,2,0,L|90:190,1,80.9999975280763,2|8,1:2|0:2,0:0:0:0:
206,207,230816,2,0,L|286:195,1,80.9999975280763,2|8,1:2|0:2,0:0:0:0:
245,112,231043,2,0,L|164:100,1,80.9999975280763,2|8,1:2|0:2,0:0:0:0:
108,22,231270,5,6,1:2:0:0:
197,10,231384,1,8,0:2:0:0:
197,10,231441,1,0,1:0:0:0:
197,10,231498,2,0,L|239:19,2,40.4999987640381,10|8|8,0:2|0:2|0:2,0:0:0:0:
322,36,231725,5,8,0:2:0:0:
356,113,231838,1,8,0:2:0:0:
319,191,231952,1,12,0:2:0:0:
368,257,232066,1,8,0:2:0:0:
450,247,232179,6,0,P|477:211|461:122,1,108,6|0,1:2|0:0,0:0:0:0:
462,136,232407,2,0,P|445:152|443:179,3,36
478,123,232634,1,2,1:2:0:0:
294,341,233770,6,0,L|211:328,1,72,2|0,0:2|0:0,0:0:0:0:
136,347,233998,2,0,P|109:311|125:222,1,108,6|0,1:2|0:0,0:0:0:0:
124,236,234226,2,0,P|140:252|143:279,3,36,2|0|2|0,0:2|0:0|0:2|0:0,0:0:0:0:
108,223,234453,1,2,1:2:0:0:
27,37,235134,5,8,0:0:0:0:
36,69,235210,1,8,0:0:0:0:
45,101,235285,1,8,0:0:0:0:
54,133,235361,2,0,B|78:70|70:22|70:22|51:38|47:73,1,144,2|2,1:2|1:2,0:0:0:0:
144,108,235702,1,2,1:2:0:0:
222,46,235816,6,0,P|306:54|361:118,1,144,14|4,1:2|0:0,0:0:0:0:
344,111,236119,1,4,0:0:0:0:
318,114,236195,1,4,0:0:0:0:
293,111,236270,1,10,1:2:0:0:
270,99,237179,5,10,0:2:0:0:
393,25,237407,1,10,0:2:0:0:
496,112,237634,6,0,L|506:160,5,36,10|0|0|0|2|0,0:2|0:0|0:0|0:0|0:2|0:0,0:0:0:0:
438,191,237975,2,0,L|428:239,5,36,10|0|0|0|2|0,0:2|0:0|0:0|0:0|0:2|0:0,0:0:0:0:
493,289,238316,1,10,0:2:0:0:
286,382,238543,5,0,1:0:0:0:
328,319,238657,1,0,1:0:0:0:
272,267,238770,2,0,L|151:293,1,108,10|0,0:2|0:0,0:0:0:0:
139,296,238998,2,0,B|94:293|71:249|96:198|118:205|122:196|130:199|163:160|152:105|99:93,1,252,6|0,1:2|0:0,0:0:0:0:
81,88,239452,6,0,P|85:110|87:133,1,36,6|0,1:2|0:0,0:0:0:0:
231,130,239793,2,0,P|226:152|225:175,1,36,2|0,1:2|0:0,0:0:0:0:
231,130,241043,1,8,0:2:0:0:
290,253,241270,6,0,P|285:275|284:298,1,36,6|0,1:2|0:0,0:0:0:0:
140,295,241611,2,0,P|144:317|146:340,1,36,2|0,1:2|0:0,0:0:0:0:
140,295,242861,1,8,0:2:0:0:
39,236,243088,6,0,B|22:202|64:174|64:174|192:203,2,188.999994232178,6|6|6,1:2|1:2|1:2,0:0:0:0:
93,50,244111,2,0,B|248:1|197:135|366:75,1,270,6|0,1:2|0:0,0:0:0:0:
439,28,244907,5,8,0:2:0:0:
452,48,244982,1,8,0:0:0:0:
465,65,245058,2,0,L|465:111,1,30,8|8,0:0|0:2,0:0:0:0:
394,145,245248,1,0,0:0:0:0:
446,212,245361,2,0,L|521:219,2,60,10|2|2,1:2|1:2|1:2,0:0:0:0:
363,258,245816,1,6,1:2:0:0:
471,339,246725,6,0,B|452:366|452:366|338:351,1,135,2|2,1:2|0:2,0:0:0:0:
330,349,248543,2,0,B|311:322|311:322|197:337,1,135,2|2,1:2|0:2,0:0:0:0:
188,340,250361,6,0,P|126:305|133:239,1,135,6|6,1:2|1:2,0:0:0:0:
239,101,251043,2,0,P|239:172|179:199,1,135,6|2,1:2|1:2,0:0:0:0:
98,156,251725,1,2,1:2:0:0:
98,156,251838,1,2,0:2:0:0:
82,55,252179,5,6,1:2:0:0:
288,27,252407,2,0,L|362:41,1,62.9999980773926,10|2,0:2|1:2,0:0:0:0:
431,19,252634,1,2,0:2:0:0:
512,0,252748,1,2,0:2:0:0:
465,197,252975,5,2,0:2:0:0:
408,134,253088,2,0,P|344:140|325:216,1,125.999996154785,12|2,0:2|0:2,0:0:0:0:
363,257,253429,1,2,0:2:0:0:
312,340,253543,2,0,P|287:358|256:362,1,62.9999980773926,6|0,1:2|0:0,0:0:0:0:
214,266,253770,2,0,P|238:246|269:242,1,62.9999980773926,8|2,0:2|0:2,0:0:0:0:
165,347,253998,5,6,1:2:0:0:
137,353,254111,1,2,0:2:0:0:
109,361,254225,1,10,0:2:0:0:
38,326,254338,2,0,L|47:252,2,72,2|2|0,1:2|0:2|0:0,0:0:0:0:
126,263,254679,5,2,1:2:0:0:
120,235,254792,1,0,0:0:0:0:
112,207,254906,1,10,0:2:0:0:
147,132,255020,2,0,L|227:143,2,72,2|2|0,1:2|0:2|0:0,0:0:0:0:
90,72,255361,5,2,1:2:0:0:
61,78,255475,1,0,0:0:0:0:
32,83,255588,1,8,0:2:0:0:
26,164,255702,2,0,L|15:235,2,72,2|2|10,1:2|0:2|0:2,0:0:0:0:
32,83,256043,5,2,1:2:0:0:
61,78,256156,1,0,0:0:0:0:
90,72,256270,1,0,0:0:0:0:
154,27,256384,5,2,1:2:0:0:
177,32,256498,1,2,0:2:0:0:
201,37,256611,1,8,0:2:0:0:
278,42,256725,5,2,1:2:0:0:
292,60,256838,1,0,0:0:0:0:
304,77,256952,1,2,0:2:0:0:
380,65,257066,5,2,1:2:0:0:
381,81,257179,1,0,0:0:0:0:
382,102,257293,1,8,0:2:0:0:
457,124,257407,6,0,L|479:55,2,72,2|0|2,1:2|0:0|0:2,0:0:0:0:
411,196,257748,2,0,L|480:218,2,72,2|0|8,1:2|0:0|0:2,0:0:0:0:
337,166,258088,5,2,1:2:0:0:
308,172,258202,1,0,0:0:0:0:
279,178,258316,1,8,0:2:0:0:
206,231,258429,6,0,P|194:186|211:143,2,72,2|0|0,1:2|0:0|0:0,0:0:0:0:
197,318,258770,2,0,P|173:345|140:358,2,72,2|0|8,1:2|0:0|0:2,0:0:0:0:
276,282,259111,2,0,P|311:288|338:310,2,72,2|0|0,1:2|0:0|0:0,0:0:0:0:
276,282,259566,6,0,P|311:288|338:310,2,72,6|0|8,1:2|0:0|0:2,0:0:0:0:
197,318,259907,2,0,P|173:345|140:358,2,72,2|0|0,1:2|0:0|0:0,0:0:0:0:
206,231,260247,2,0,P|194:186|211:143,2,72,2|0|8,1:2|0:0|0:2,0:0:0:0:
276,282,260588,2,0,P|311:288|338:310,2,72,2|0|0,1:2|0:0|0:0,0:0:0:0:
197,318,260929,1,2,1:2:0:0:
171,313,261043,1,0,0:0:0:0:
94,352,261156,6,0,P|38:369|11:358,2,72,6|2|8,1:2|0:2|0:2,0:0:0:0:
100,269,261496,2,0,P|113:212|136:194,2,72,2|2|2,1:2|0:2|0:2,0:0:0:0:
171,313,261837,5,2,1:2:0:0:
197,318,261951,1,2,0:2:0:0:
225,325,262065,1,8,0:2:0:0:
296,363,262178,5,2,1:2:0:0:
301,337,262292,1,2,0:2:0:0:
308,309,262406,1,0,0:0:0:0:
350,237,262518,5,2,1:2:0:0:
324,232,262632,1,2,0:2:0:0:
296,225,262746,1,10,0:2:0:0:
251,158,262860,6,0,L|243:59,2,72,2|2|8,1:2|0:2|0:2,0:0:0:0:
330,117,263201,2,0,L|322:18,2,72,2|2|2,1:2|0:2|0:2,0:0:0:0:
398,177,263542,6,0,L|390:276,2,72,2|2|10,1:2|0:2|0:2,0:0:0:0:
481,207,263883,2,0,L|473:306,2,72,2|2|2,1:2|0:2|0:2,0:0:0:0:
470,107,264224,5,2,1:2:0:0:
466,78,264337,1,0,0:0:0:0:
462,49,264451,1,8,0:2:0:0:
395,8,264565,5,2,1:2:0:0:
366,12,264678,1,2,0:2:0:0:
337,16,264792,1,2,0:2:0:0:
284,77,264906,5,2,1:2:0:0:
288,106,265019,1,0,0:0:0:0:
292,135,265133,1,8,0:2:0:0:
237,193,265246,5,2,1:2:0:0:
208,197,265359,1,0,0:0:0:0:
179,201,265473,1,8,0:2:0:0:
100,166,265587,6,0,P|107:121|138:105,2,72,2|2|0,1:2|0:2|0:0,0:0:0:0:
109,252,265928,2,0,P|66:268|37:249,2,72,2|0|8,1:2|0:0|0:2,0:0:0:0:
179,201,266269,2,0,P|214:229|212:264,2,72,2|0|2,1:2|0:0|0:2,0:0:0:0:
109,252,266610,2,0,L|101:340,1,72,2|0,1:2|0:0,0:0:0:0:
168,370,266838,5,2,1:2:0:0:
196,364,266951,1,0,0:0:0:0:
224,359,267065,1,8,0:2:0:0:
298,342,267178,5,2,1:2:0:0:
326,336,267291,1,2,0:2:0:0:
354,331,267405,1,0,0:0:0:0:
429,313,267520,5,2,1:2:0:0:
457,307,267633,1,2,0:2:0:0:
483,299,267747,2,0,L|493:216,1,72,8|2,0:2|1:2,0:0:0:0:
507,150,267974,5,8,0:2:0:0:
500,78,268088,1,8,0:2:0:0:
426,60,268201,1,8,0:2:0:0:
386,124,268315,1,8,0:2:0:0:
433,183,268428,6,0,P|411:217|292:191,1,161.999995056153,14|8,0:2|0:2,0:0:0:0:
269,127,268768,1,2,1:2:0:0:
269,127,268882,2,0,P|276:84|250:39,1,80.9999975280763,0|0,0:0|1:0,0:0:0:0:
163,8,269109,6,0,L|153:115,1,80.9999975280763,10|0,0:2|1:0,0:0:0:0:
189,158,269337,1,0,0:0:0:0:
84,42,269450,2,0,L|74:149,1,80.9999975280763,2|8,1:2|0:2,0:0:0:0:
110,192,269678,1,0,0:0:0:0:
7,70,269791,2,0,L|-3:177,1,80.9999975280763,2|0,0:2|1:0,0:0:0:0:
33,220,270019,1,8,0:2:0:0:
131,186,270132,6,0,P|201:179|215:259,1,161.999995056153,6|8,0:2|0:2,0:0:0:0:
170,366,270473,2,0,P|128:308|191:256,1,161.999995056153,2|0,0:2|1:0,0:0:0:0:
307,241,270814,2,0,P|273:307|203:281,1,161.999995056153,10|0,0:2|0:0,0:0:0:0:
210,162,271155,5,2,0:2:0:0:
283,129,271268,1,8,0:2:0:0:
358,159,271382,1,0,0:0:0:0:
432,190,271496,1,2,0:2:0:0:
506,159,271609,1,10,0:2:0:0:
445,96,271724,6,0,L|463:286,1,161.999995056153,14|8,0:2|0:2,0:0:0:0:
428,340,272064,1,2,1:2:0:0:
428,340,272178,2,0,P|363:335|354:301,1,80.9999975280763,0|0,0:0|1:0,0:0:0:0:
371,241,272405,6,0,L|277:257,1,80.9999975280763,10|0,0:2|1:0,0:0:0:0:
231,326,272633,1,0,0:0:0:0:
311,168,272746,2,0,L|217:184,1,80.9999975280763,2|8,1:2|0:2,0:0:0:0:
171,253,272974,1,0,0:0:0:0:
258,98,273087,2,0,L|164:114,1,80.9999975280763,2|0,1:2|1:0,0:0:0:0:
118,183,273315,1,8,0:2:0:0:
212,26,273428,6,0,B|276:17|276:17|318:42|318:42|384:34,1,161.999995056153,6|8,0:2|0:2,0:0:0:0:
484,28,273769,2,0,P|441:9|400:99,1,161.999995056153,2|0,1:2|1:0,0:0:0:0:
459,153,274110,6,0,P|492:174|502:213,2,80.9999975280763,10|0|0,0:2|1:0|0:0,0:0:0:0:
394,91,274451,2,0,P|396:51|424:23,2,80.9999975280763,2|8|0,1:2|0:2|0:0,0:0:0:0:
376,174,274792,1,2,1:2:0:0:
346,184,274905,1,2,1:2:0:0:
281,135,275019,5,14,1:2:0:0:
269,132,275359,5,2,1:2:0:0:
258,128,275700,5,2,1:2:0:0:
245,125,276041,5,2,1:2:0:0:
233,121,276382,5,2,1:2:0:0:
219,116,276723,5,2,1:2:0:0:
145,90,276837,2,0,P|112:123|132:179,1,80.9999975280763,0|2,0:0|1:2,0:0:0:0:
203,197,277064,2,0,L|241:210,2,40.4999987640381,2|0|0,0:2|0:0|1:2,0:0:0:0:
125,243,277291,2,0,P|84:272|33:272,1,80.9999975280763,2|2,0:2|1:2,0:0:0:0:
8,200,277519,2,0,L|21:112,1,80.9999975280763,2|0,0:2|1:2,0:0:0:0:
4,97,277689,1,2,1:2:0:0:
4,97,277746,1,2,0:2:0:0:
58,24,277859,6,0,L|159:-3,1,80.9999975280763,0|2,1:2|0:2,0:0:0:0:
217,35,278087,2,0,L|306:53,2,80.9999975280763,2|2|0,1:2|0:2|1:2,0:0:0:0:
161,95,278428,1,2,0:2:0:0:
213,166,278541,2,0,L|295:144,1,80.9999975280763,0|2,1:2|0:2,0:0:0:0:
370,96,278769,2,0,P|395:123|392:175,1,80.9999975280763,2|0,1:2|1:2,0:0:0:0:
420,196,278939,1,2,1:2:0:0:
420,196,278996,2,0,P|378:200|342:230,1,80.9999975280763,0|2,1:2|0:2,0:0:0:0:
318,299,279223,5,0,1:2:0:0:
371,370,279337,1,2,0:2:0:0:
371,370,279394,1,2,1:2:0:0:
371,370,279450,2,0,L|460:353,2,80.9999975280763,2|0|0,1:2|1:2|1:2,0:0:0:0:
298,312,279791,1,2,0:2:0:0:
236,370,279905,2,0,L|147:352,1,80.9999975280763,0|2,1:2|0:2,0:0:0:0:
83,308,280132,2,0,P|47:320|31:367,2,80.9999975280763,2|0|0,1:2|1:2|1:0,0:0:0:0:
175,330,280473,5,8,0:2:0:0:
216,212,280587,1,8,0:2:0:0:
105,234,280700,1,8,0:2:0:0:
