osu file format v14

[General]
AudioFilename: audio.mp3
AudioLeadIn: 0
PreviewTime: 68595
Countdown: 0
SampleSet: Drum
StackLeniency: 0.5
Mode: 0
LetterboxInBreaks: 0
WidescreenStoryboard: 1

[Editor]
Bookmarks: 9051,17399,34095,38269,46617,51834,64356,68530,93089,100361,114907,118543,125816,129452,143998,147634,158543,165816,173088,180361,188543,195816,203088,217634,232179,239452,246725,253998,268428,275019,280700
DistanceSpacing: 1
BeatDivisor: 8
GridSize: 32
TimelineZoom: 2.4

[Metadata]
Title:Border Of Life
TitleUnicode:Border Of Life
Artist:BLANKFIELD
ArtistUnicode:BLANKFIELD
Creator:Zelq
Version:Extra
Source:東方妖々夢 ~ Perfect Cherry Blossom.
Tags:piroshki featured artist osu! touhou 東方project th7 yuyuko saigyouji 西行寺 幽々子 video game metal rock instrumental mpg mappers' guild Permutation Suicide zun team shanghai alice fa pcb 幽雅に咲かせ、墨染の桜
BeatmapID:2463770
BeatmapSetID:1168786

[Difficulty]
HPDrainRate:5
CircleSize:4.5
OverallDifficulty:9.4
ApproachRate:9.8
SliderMultiplier:1.68
SliderTickRate:1

[Events]
//Background and Video events
0,0,"yuyukoyuyukoyuyuko.jpg",0,0
//Break Periods
2,93089,99882
//Storyboard Layer 0 (Background)
//Storyboard Layer 1 (Fail)
//Storyboard Layer 2 (Pass)
//Storyboard Layer 3 (Foreground)
//Storyboard Layer 4 (Overlay)
//Storyboard Sound Samples

[TimingPoints]
704,260.869565217391,4,3,1,75,1,0
704,-95.2380952380952,4,3,1,75,0,0
17399,-90.9090909090909,4,3,1,80,0,0
34095,-166.666666666667,4,3,1,60,0,0
36182,-111.111111111111,4,3,1,80,0,0
38008,-83.3333333333333,4,3,1,85,0,0
38269,-100,4,3,1,75,0,0
46356,-83.3333333333333,4,3,1,80,0,0
46617,-100,4,3,1,70,0,0
51834,-142.857142857143,4,3,1,65,0,0
54638,-142.857142857143,4,3,1,5,0,0
54703,-142.857142857143,4,3,1,65,0,0
59334,-142.857142857143,4,3,1,5,0,0
59399,-142.857142857143,4,3,1,65,0,0
63312,-125,4,3,1,70,0,0
64356,-111.111111111111,4,3,1,75,0,0
67486,-111.111111111111,4,3,1,90,0,0
68608,510.63829787234,4,2,1,40,1,0
68608,-125,4,2,1,40,0,0
69118,521.739130434783,4,2,1,40,1,0
69118,-125,4,2,1,40,0,0
69639,468.75,4,2,1,40,1,0
70107,521.739130434783,4,2,1,40,1,0
70628,458.015267175573,4,2,1,40,1,0
71086,465.116279069767,4,2,1,40,1,0
72016,521.739130434783,4,2,1,40,1,0
72016,-125,4,2,1,40,0,0
72537,480,4,2,1,40,1,0
73017,530.973451327434,4,2,1,40,1,0
73547,491.803278688525,4,2,1,40,1,0
74038,458.015267175573,4,2,1,40,1,0
74496,487.80487804878,4,2,1,40,1,0
74496,-125,4,2,1,40,0,0
74983,495.867768595041,4,2,1,40,1,0
74983,-125,4,2,1,40,0,0
75974,483.870967741935,4,2,1,40,1,0
76457,476.190476190476,4,2,1,40,1,0
76933,447.761194029851,4,2,1,40,1,0
77380,491.803278688525,4,2,1,40,1,0
77871,472.44094488189,4,2,1,40,1,0
78343,468.75,4,2,1,40,1,0
78811,491.803278688525,4,2,1,40,1,0
79302,461.538461538462,4,2,1,40,1,0
79763,481.927710843374,4,2,1,40,1,0
79763,-125,4,2,1,40,0,0
80726,500,4,2,1,40,1,0
80726,-125,4,2,1,40,0,0
82226,491.803278688525,4,2,1,40,1,0
82717,517.241379310345,4,2,1,40,1,0
83234,483.870967741935,4,2,1,40,1,0
83717,517.241379310345,4,2,1,40,1,0
83717,-125,4,2,1,40,0,0
84234,540.540540540541,4,2,1,40,1,0
84234,-125,4,2,1,40,0,0
84774,645.161290322581,4,2,1,40,1,0
85419,674.157303370787,4,2,1,40,1,0
86093,722.89156626506,4,2,1,40,1,0
86815,681.818181818182,4,2,1,40,1,0
87496,845.070422535211,4,2,1,40,1,0
87636,-125,4,2,1,40,0,0
88341,1000,4,2,1,40,1,0
89174,1263.15789473684,4,2,1,40,1,0
89384,1000,4,2,1,40,1,0
90217,1043.47826086957,4,2,1,40,1,0
93089,227.272727272727,4,3,1,70,1,0
100361,-95.2380952380952,4,3,1,80,0,0
109452,-86.9565217391304,4,3,1,90,0,0
110361,-86.9565217391304,4,3,1,85,0,0
111043,-80,4,3,1,80,0,0
111270,-95.2380952380952,4,3,1,80,0,0
114907,-105.263157894737,4,3,1,70,0,0
117634,-105.263157894737,4,3,1,80,0,0
118088,-74.0740740740742,4,3,1,85,0,0
118543,-105.263157894737,4,3,1,70,0,0
122179,-105.263157894737,4,3,1,60,0,0
124793,-117.64705882353,4,3,1,70,0,0
128998,-117.64705882353,4,3,1,75,0,0
129452,-80,4,3,1,80,0,0
143088,-68.9655172413793,4,3,1,85,0,0
143543,-86.9565217391304,4,3,1,85,0,0
143998,-125,4,3,1,65,0,0
147634,-142.857142857143,4,3,1,65,0,0
158543,-166.666666666667,4,3,1,65,0,0
164907,-166.666666666667,4,3,1,80,0,0
165588,-76.923076923077,4,3,1,75,0,0
165816,-90.9090909090909,4,3,1,80,0,0
173088,-76.9230769230769,4,3,1,90,0,0
180361,-100,4,3,1,75,0,0
188088,-83.3333333333333,4,3,1,70,0,0
194907,-83.3333333333333,4,3,1,80,0,0
195816,-83.3333333333333,4,3,1,70,0,0
203088,-250.000000000001,4,3,1,50,0,0
217407,-250.000000000001,4,3,1,70,0,0
217634,-95.2380952380952,4,3,1,80,0,0
226725,-80,4,3,1,90,0,0
227634,-95.2380952380952,4,3,1,85,0,0
228088,-80,4,3,1,80,0,0
228543,-95.2380952380952,4,3,1,80,0,0
232179,-117.647058823529,4,3,1,70,0,0
238998,-86.9565217391302,4,3,1,70,0,0
239452,-105.263157894737,4,3,1,70,0,0
244111,-181.818181818182,4,3,1,60,0,0
246725,-133.333333333334,4,3,1,60,0,0
252179,-133.333333333334,4,3,1,70,0,0
253543,-133.333333333334,4,3,1,80,0,0
253998,227.272727272727,3,3,1,85,1,0
259566,227.272727272727,3,3,1,85,1,0
261156,227.272727272727,3,3,1,85,1,0
266838,227.272727272727,3,3,1,85,1,0
268428,227.272727272727,3,3,1,90,1,0
268428,-105.263157894737,3,3,1,90,0,0
271724,227.272727272727,3,3,1,90,1,0
275019,227.272727272727,3,3,1,90,1,0
275019,-111.111111111111,3,3,1,90,0,0
275075,-111.111111111111,3,3,1,60,0,0
275416,-111.111111111111,3,3,1,5,0,0
275473,-111.111111111111,3,3,1,60,0,0
275757,-111.111111111111,3,3,1,5,0,0
275814,-111.111111111111,3,3,1,60,0,0
276098,-111.111111111111,3,3,1,5,0,0
276155,-111.111111111111,3,3,1,60,0,0
276439,-111.111111111111,3,3,1,5,0,0
276496,-111.111111111111,3,3,1,60,0,0
276723,-111.111111111111,3,3,1,75,0,0
280473,-111.111111111111,3,3,1,100,0,0

[Colours]
Combo1 : 143,163,250
Combo2 : 255,102,102
Combo3 : 235,163,114
Combo4 : 157,126,207

[HitObjects]
43,59,704,5,6,1:2:0:0:
66,71,769,1,0,1:0:0:0:
91,75,834,1,8,0:2:0:0:
205,17,964,1,2,1:2:0:0:
183,30,1029,1,0,1:0:0:0:
167,50,1094,1,8,0:2:0:0:
161,179,1225,1,2,1:2:0:0:
159,153,1290,1,0,1:0:0:0:
150,129,1355,1,8,0:2:0:0:
23,195,1486,2,0,B|6:221|6:221|18:278,1,88.1999973083497,2|8,1:2|0:2,0:0:0:0:
177,380,1747,6,0,B|210:363|210:363|237:223,1,176.399994616699,2|2,1:2|1:2,0:0:0:0:
252,151,2073,1,0,1:0:0:0:
252,151,2138,1,8,0:2:0:0:
443,249,2269,5,2,1:2:0:0:
506,202,2399,2,0,L|513:114,1,88.1999973083497,10|0,0:2|1:0,0:0:0:0:
342,199,2660,5,10,0:2:0:0:
405,152,2790,2,0,L|412:64,1,88.1999973083497,2|8,1:2|0:2,0:0:0:0:
213,15,3051,5,2,1:2:0:0:
206,41,3117,1,0,1:0:0:0:
207,68,3182,1,8,0:2:0:0:
342,199,3312,2,0,P|259:181|191:233,1,176.399994616699,2|2,1:2|1:2,0:0:0:0:
161,313,3638,1,0,1:0:0:0:
161,313,3703,1,8,0:2:0:0:
55,161,3834,6,0,B|66:136|66:136|96:156|101:185,1,88.1999973083497,2|8,1:2|0:2,0:0:0:0:
34,321,4095,2,0,B|7:323|7:323|9:287|32:268,1,88.1999973083497,2|8,1:2|0:2,0:0:0:0:
246,369,4356,5,2,1:2:0:0:
185,317,4486,2,0,P|131:325|105:380,1,88.1999973083497,10|0,0:2|1:0,0:0:0:0:
363,382,4747,5,10,0:2:0:0:
427,313,4877,2,0,B|376:300|376:300|347:309|347:309|299:299,1,132.299995962525,6|0,1:2|0:0,0:0:0:0:
275,288,5138,2,0,P|264:238|305:211,1,88.1999973083497,2|8,1:2|0:2,0:0:0:0:
464,187,5399,2,0,P|436:219|394:213,1,88.1999973083497,2|8,1:2|0:2,0:0:0:0:
315,74,5660,1,2,1:2:0:0:
326,97,5725,1,0,1:0:0:0:
332,122,5790,1,8,0:2:0:0:
484,54,5921,5,2,1:2:0:0:
484,54,5986,1,0,1:0:0:0:
484,54,6051,1,8,0:2:0:0:
257,6,6182,1,2,1:2:0:0:
257,6,6247,1,0,1:0:0:0:
257,6,6312,1,8,0:2:0:0:
399,68,6443,1,2,1:2:0:0:
180,143,6573,2,0,B|163:96|163:96|194:118,1,88.1999973083497,10|0,0:2|1:0,0:0:0:0:
371,240,6834,6,0,B|391:234|407:205|407:205|341:179|280:218,1,176.399994616699,14|8,0:2|0:2,0:0:0:0:
154,313,7225,2,0,P|114:332|70:333,1,88.1999973083497,2|8,1:2|0:2,0:0:0:0:
83,216,7486,1,2,1:2:0:0:
225,270,7617,1,10,0:2:0:0:
368,323,7747,1,2,1:2:0:0:
268,357,7877,6,0,B|242:331|242:331|252:226|252:226|230:199,1,176.399994616699,14|8,0:2|0:2,0:0:0:0:
23,161,8269,2,0,B|32:185|32:185|92:201,1,88.1999973083497,2|8,1:2|0:2,0:0:0:0:
233,103,8530,5,6,1:2:0:0:
214,31,8617,1,8,0:0:0:0:
146,3,8703,1,8,0:0:0:0:
103,129,8790,5,6,1:2:0:0:
174,148,8877,1,8,0:0:0:0:
233,103,8963,1,8,0:0:0:0:
336,14,9051,6,0,B|353:0|353:0|418:18,1,88.1999973083497,6|8,1:2|0:2,0:0:0:0:
511,112,9312,1,2,1:2:0:0:
485,119,9377,1,0,1:0:0:0:
459,126,9443,1,8,0:2:0:0:
313,178,9573,1,2,1:2:0:0:
339,185,9638,1,0,1:0:0:0:
365,192,9704,1,8,0:2:0:0:
512,254,9834,1,2,1:2:0:0:
486,261,9899,1,0,1:0:0:0:
460,268,9965,1,8,0:2:0:0:
369,374,10095,6,0,P|377:319|314:267,1,132.299995962525,2|0,1:2|0:0,0:0:0:0:
298,286,10356,2,0,P|288:309|290:340,2,44.0999986541748,2|0|8,1:2|0:0|0:2,0:0:0:0:
431,134,10617,5,2,1:2:0:0:
512,166,10747,2,0,L|512:254,1,88.1999973083497,10|0,0:2|1:0,0:0:0:0:
394,58,11008,5,10,0:2:0:0:
301,90,11138,2,0,L|312:177,1,88.1999973083497,6|8,1:2|0:2,0:0:0:0:
194,282,11399,1,2,1:2:0:0:
198,251,11464,1,0,1:0:0:0:
204,220,11530,1,8,0:2:0:0:
148,66,11660,2,0,B|110:82|110:82|128:132|113:179|113:179|79:193,1,176.399994616699,2|2,1:2|1:2,0:0:0:0:
14,218,11986,1,0,1:0:0:0:
14,218,12051,1,8,0:2:0:0:
193,140,12182,6,0,B|266:127|243:179|349:164,1,132.299995962525,2|0,1:2|0:0,0:0:0:0:
347,148,12443,2,0,B|365:110|365:110|342:69,1,88.1999973083497,2|8,1:2|0:2,0:0:0:0:
204,220,12703,5,2,1:2:0:0:
113,178,12834,2,0,B|95:140|95:140|117:99,1,88.1999973083497,10|0,0:2|1:0,0:0:0:0:
357,264,13095,5,10,0:2:0:0:
295,354,13225,2,0,L|207:341,1,88.1999973083497,6|8,1:2|0:2,0:0:0:0:
43,299,13486,1,2,1:2:0:0:
28,326,13551,1,0,1:0:0:0:
28,357,13617,1,8,0:2:0:0:
114,216,13747,1,2,1:2:0:0:
98,189,13812,1,0,1:0:0:0:
71,174,13878,1,8,0:2:0:0:
150,318,14008,1,2,1:2:0:0:
181,318,14073,1,0,1:0:0:0:
208,302,14139,1,8,0:2:0:0:
298,145,14269,6,0,B|263:130|263:130|214:155|228:209,1,132.299995962525,2|0,1:2|0:0,0:0:0:0:
241,233,14530,2,0,P|280:244|341:209,1,88.1999973083497,2|8,1:2|0:2,0:0:0:0:
394,93,14790,1,2,1:2:0:0:
444,268,14921,1,10,0:2:0:0:
512,51,15051,1,0,1:0:0:0:
512,51,15117,1,0,1:0:0:0:
512,51,15182,2,0,B|506:20|487:9|487:9|436:17|436:17|423:13|423:13|363:22,1,176.399994616699,14|8,0:2|0:2,0:0:0:0:
129,62,15573,2,0,L|21:49,1,88.1999973083497,2|8,1:2|0:2,0:0:0:0:
254,0,15834,5,8,1:2:0:0:
259,52,15899,1,8,1:2:0:0:
264,104,15964,1,8,0:2:0:0:
269,158,16030,1,8,1:2:0:0:
274,209,16095,1,0,1:2:0:0:
291,359,16225,6,0,B|259:337|214:340|214:340|190:364|190:364|100:370,1,176.399994616699,14|2,0:2|1:2,0:0:0:0:
0,222,16617,2,0,B|20:204|20:204|123:225,1,132.299995962525,10|0,0:2|0:0,0:0:0:0:
196,239,16877,5,10,0:2:0:0:
44,288,17008,5,10,0:2:0:0:
0,126,17138,5,10,0:2:0:0:
150,83,17269,5,10,0:2:0:0:
84,134,17399,6,0,P|75:88|82:42,1,92.4000028198243,12|8,0:2|0:2,0:0:0:0:
153,3,17660,1,0,1:0:0:0:
378,132,17790,2,0,B|421:152|465:117|465:117|445:67|395:61,1,184.800005639649,10|8,0:2|0:2,0:0:0:0:
230,129,18182,1,2,1:2:0:0:
202,160,18247,1,0,1:0:0:0:
162,173,18312,1,8,0:2:0:0:
248,3,18443,6,0,B|273:18|273:18|285:79,1,92.4000028198243,2|8,1:2|0:2,0:0:0:0:
258,202,18703,1,0,1:0:0:0:
359,345,18834,1,10,0:2:0:0:
417,287,18964,2,0,B|407:267|407:267|372:252|337:268,1,92.4000028198243,0|8,1:0|0:2,0:0:0:0:
164,365,19225,1,2,1:2:0:0:
204,355,19290,1,0,1:0:0:0:
235,326,19356,1,8,0:2:0:0:
162,173,19486,6,0,L|155:265,1,92.4000028198243,6|8,1:2|0:2,0:0:0:0:
68,313,19747,1,2,1:2:0:0:
52,229,19877,1,8,0:2:0:0:
258,202,20008,1,2,1:2:0:0:
274,118,20138,1,8,0:2:0:0:
111,26,20269,2,0,B|73:15|73:15|29:52|64:111,1,138.600004229736,2|0,1:2|0:0,0:0:0:0:
83,123,20530,6,0,P|123:99|168:96,1,92.4000028198243,2|8,1:2|0:2,0:0:0:0:
418,150,20790,2,0,P|378:173|333:176,1,92.4000028198243,0|8,1:0|0:2,0:0:0:0:
251,32,21051,1,0,1:0:0:0:
335,8,21182,1,8,0:2:0:0:
357,95,21312,1,2,1:2:0:0:
274,118,21443,1,10,0:2:0:0:
470,12,21573,6,0,B|511:35|511:35|488:170,1,184.800005639649,6|0,1:2|1:0,0:0:0:0:
477,343,21964,2,0,B|469:302|435:293|435:293|407:355|319:353,1,184.800005639649,10|8,0:2|0:2,0:0:0:0:
253,283,22356,1,2,1:2:0:0:
245,242,22421,1,0,1:0:0:0:
258,202,22486,1,8,0:2:0:0:
404,154,22617,5,2,1:2:0:0:
354,261,22747,1,8,0:2:0:0:
500,213,22878,1,0,1:0:0:0:
371,58,23008,2,0,B|339:22|339:22|265:24|218:80,1,184.800005639649,10|8,0:2|0:2,0:0:0:0:
38,114,23399,2,0,P|23:64|73:36,1,92.4000028198243,2|8,1:2|0:2,0:0:0:0:
186,185,23660,6,0,L|79:204,1,92.4000028198243,6|8,1:2|0:2,0:0:0:0:
42,283,23921,1,2,1:2:0:0:
119,300,24051,1,8,0:2:0:0:
202,97,24182,1,2,1:2:0:0:
125,114,24312,1,8,0:2:0:0:
244,305,24443,2,0,B|267:286|267:286|277:224,1,92.4000028198243,2|8,1:2|0:2,0:0:0:0:
325,80,24703,5,8,0:2:0:0:
371,58,24769,1,8,0:2:0:0:
421,55,24834,1,8,0:2:0:0:
469,70,24899,1,8,0:2:0:0:
507,103,24964,1,0,1:0:0:0:
509,89,25095,5,8,0:2:0:0:
471,56,25160,1,8,0:2:0:0:
423,41,25225,1,8,0:2:0:0:
373,44,25290,1,8,0:2:0:0:
327,66,25356,1,0,1:0:0:0:
328,50,25486,5,8,0:2:0:0:
374,28,25552,1,8,0:2:0:0:
424,25,25617,1,8,0:2:0:0:
472,40,25682,1,8,0:2:0:0:
510,73,25747,1,4,1:0:0:0:
490,192,25877,6,0,B|403:175|433:269|302:273,1,184.800005639649,8|10,0:2|0:2,0:0:0:0:
186,205,26269,1,0,1:0:0:0:
320,168,26399,1,8,0:2:0:0:
260,336,26530,1,2,1:2:0:0:
260,336,26595,1,0,1:0:0:0:
260,336,26660,1,8,0:2:0:0:
139,127,26790,5,2,1:2:0:0:
48,190,26921,2,0,L|40:282,1,92.4000028198243,8|0,0:2|1:0,0:0:0:0:
244,138,27182,1,10,0:2:0:0:
192,73,27312,2,0,L|23:102,1,138.600004229736,0|0,1:0|0:0,0:0:0:0:
31,78,27573,2,0,P|32:34|72:14,1,92.4000028198243,2|8,1:2|0:2,0:0:0:0:
244,138,27834,5,6,1:2:0:0:
244,138,27899,1,0,1:0:0:0:
244,138,27964,1,8,0:2:0:0:
126,286,28095,1,2,1:2:0:0:
126,286,28160,1,0,1:0:0:0:
126,286,28225,1,8,0:2:0:0:
355,242,28356,2,0,L|262:235,1,92.4000028198243,2|8,1:2|0:2,0:0:0:0:
30,217,28617,1,2,1:2:0:0:
30,217,28682,1,0,1:0:0:0:
30,217,28747,1,8,0:2:0:0:
206,52,28877,6,0,P|251:51|295:86,1,92.4000028198243,2|8,1:2|0:2,0:0:0:0:
322,149,29138,1,0,1:0:0:0:
512,34,29269,1,8,0:2:0:0:
436,6,29399,2,0,B|408:26|408:26|420:129,1,138.600004229736,2|0,1:2|0:0,0:0:0:0:
441,149,29660,2,0,P|493:164|501:233,1,92.4000028198243,2|10,1:2|0:2,0:0:0:0:
336,350,29921,6,0,P|322:331|316:309,1,46.2000014099122,6|0,1:2|0:0,0:0:0:0:
355,242,30051,2,0,L|447:248,1,92.4000028198243,8|0,0:2|1:0,0:0:0:0:
243,165,30312,2,0,B|177:179|177:179|151:215|151:215|80:233,1,184.800005639649,10|8,0:2|0:2,0:0:0:0:
249,252,30703,1,2,1:2:0:0:
249,252,30769,1,0,1:0:0:0:
249,252,30834,1,8,0:2:0:0:
68,129,30964,5,2,1:2:0:0:
150,110,31095,1,8,0:2:0:0:
307,25,31225,5,0,1:0:0:0:
225,44,31356,1,10,0:2:0:0:
19,49,31486,6,0,B|43:31|105:32|137:88,1,138.600004229736,0|0,1:0|0:0,0:0:0:0:
150,110,31747,2,0,P|183:143|227:151,1,92.4000028198243,2|8,1:2|0:2,0:0:0:0:
364,94,32008,5,6,1:2:0:0:
307,25,32138,1,8,0:2:0:0:
399,13,32269,1,2,1:2:0:0:
267,115,32399,1,8,0:2:0:0:
506,209,32530,1,2,1:2:0:0:
480,46,32660,1,8,0:2:0:0:
431,251,32790,5,2,1:2:0:0:
431,251,32856,1,0,1:0:0:0:
431,250,32921,2,0,P|423:296|423:342,1,92.4000028198243,8|2,0:2|1:2,0:0:0:0:
343,199,33182,5,8,0:2:0:0:
296,180,33247,1,8,0:2:0:0:
254,176,33312,1,8,0:0:0:0:
214,189,33377,1,8,0:0:0:0:
187,208,33443,1,4,0:0:0:0:
168,234,33508,1,4,0:0:0:0:
139,275,33573,5,8,0:2:0:0:
91,293,33638,1,8,0:2:0:0:
41,282,33703,1,8,0:2:0:0:
14,237,33769,1,8,0:2:0:0:
25,192,33834,2,0,P|40:173|59:161,1,46.2000014099122,8|0,0:2|0:0,0:0:0:0:
286,283,33964,2,0,P|263:279|243:268,1,46.2000014099122,8|0,0:2|0:0,0:0:0:0:
87,55,34095,6,0,B|116:24|177:-1|240:19|296:92|211:92|276:175|329:185|396:179|419:148|419:148|396:103|427:55|427:55|490:73|501:128,1,604.799981542969,12|0,1:2|0:2,0:0:0:0:
498,117,36182,5,8,0:0:0:0:
479,113,36247,1,8,0:0:0:0:
460,109,36312,1,4,0:0:0:0:
441,105,36377,1,4,0:0:0:0:
422,102,36443,2,0,L|414:146,1,37.7999988464356,8|0,0:2|0:0,0:0:0:0:
320,172,36573,2,0,L|326:134,1,37.7999988464356,8|0,0:2|0:0,0:0:0:0:
285,34,36703,5,8,0:0:0:0:
259,41,36769,1,8,0:0:0:0:
233,49,36834,1,8,0:2:0:0:
207,57,36899,1,0,0:0:0:0:
181,65,36964,2,0,L|172:123,1,37.7999988464356,8|0,0:2|0:0,0:0:0:0:
60,164,37095,5,4,0:0:0:0:
34,157,37160,1,4,0:0:0:0:
8,148,37225,2,0,L|14:110,1,37.7999988464356,8|0,0:2|0:0,0:0:0:0:
100,40,37356,2,0,L|93:77,1,37.7999988464356,8|8,0:2|0:0,0:0:0:0:
206,186,37486,5,8,0:0:0:0:
172,187,37551,1,8,0:0:0:0:
141,202,37617,1,8,0:2:0:0:
119,227,37682,1,8,0:0:0:0:
112,260,37747,5,8,0:2:0:0:
126,248,37812,1,8,0:0:0:0:
142,239,37877,1,8,0:0:0:0:
160,234,37943,1,8,0:0:0:0:
179,234,38008,6,0,P|159:291|239:365,1,151.199995385742,10|0,0:2|0:0,0:0:0:0:
303,310,38269,5,4,0:2:0:0:
278,305,38334,1,0,0:0:0:0:
253,301,38399,1,0,1:0:0:0:
398,375,38530,2,0,P|388:334|400:289,1,84,8|0,0:2|0:0,0:0:0:0:
491,175,38790,1,2,1:2:0:0:
470,189,38856,1,2,0:2:0:0:
445,195,38921,1,2,0:2:0:0:
419,195,38986,1,2,0:2:0:0:
394,188,39051,1,8,0:2:0:0:
439,31,39182,6,0,B|453:49|453:49|443:109,1,84,2|0,0:2|0:0,0:0:0:0:
298,190,39443,2,0,B|312:172|312:172|302:111,1,84,2|8,0:2|0:2,0:0:0:0:
203,22,39703,1,2,1:2:0:0:
178,27,39769,1,2,0:2:0:0:
153,32,39834,1,2,0:2:0:0:
128,37,39899,1,2,0:2:0:0:
103,43,39964,1,0,1:0:0:0:
0,148,40095,2,0,L|12:64,1,84,8|0,0:2|0:0,0:0:0:0:
254,318,40356,5,4,0:2:0:0:
191,373,40486,1,0,1:0:0:0:
122,336,40617,2,0,L|134:252,1,84,8|0,0:2|0:0,0:0:0:0:
36,146,40877,1,2,1:2:0:0:
13,157,40943,1,2,0:2:0:0:
2,179,41008,1,2,0:2:0:0:
1,204,41073,1,2,0:2:0:0:
9,227,41138,1,8,0:2:0:0:
147,167,41269,6,0,B|173:156|173:156|285:187,1,126,2|0,0:2|0:0,0:0:0:0:
279,205,41530,2,0,B|340:221|340:221|358:210,1,84,2|8,0:2|0:2,0:0:0:0:
468,92,41790,1,2,1:2:0:0:
443,98,41856,1,2,0:2:0:0:
418,104,41921,1,2,0:2:0:0:
393,110,41986,1,2,0:2:0:0:
368,117,42051,1,0,1:0:0:0:
202,27,42182,2,0,L|282:49,1,84,8|0,0:2|0:0,0:0:0:0:
453,18,42443,5,4,0:2:0:0:
428,23,42508,1,0,0:0:0:0:
403,29,42573,1,0,1:0:0:0:
465,174,42703,2,0,P|484:218|488:263,1,84,8|0,0:2|0:0,0:0:0:0:
369,364,42964,1,2,1:2:0:0:
362,339,43030,1,2,0:2:0:0:
361,313,43095,1,2,0:2:0:0:
364,288,43160,1,2,0:2:0:0:
371,264,43225,1,8,0:2:0:0:
284,158,43356,6,0,B|211:166|259:212|148:228,1,126,2|0,0:2|0:0,0:0:0:0:
148,219,43617,2,0,P|113:192|125:152,1,84,2|8,0:2|0:2,0:0:0:0:
252,225,43877,1,2,1:2:0:0:
257,249,43943,1,2,0:2:0:0:
255,274,44008,1,2,0:2:0:0:
244,296,44073,1,2,0:2:0:0:
224,312,44138,1,0,1:0:0:0:
60,381,44269,2,0,B|81:358|81:358|69:264,1,126,8|0,0:2|0:0,0:0:0:0:
54,239,44530,5,4,0:2:0:0:
106,173,44660,1,0,1:0:0:0:
43,80,44790,2,0,P|25:118|22:159,1,84,8|0,0:2|0:0,0:0:0:0:
178,111,45051,1,2,1:2:0:0:
175,85,45117,1,2,0:2:0:0:
160,64,45182,1,2,0:2:0:0:
139,49,45247,1,2,0:2:0:0:
114,45,45312,1,8,0:2:0:0:
240,16,45443,6,0,P|261:64|258:113,1,84,2|0,0:2|0:0,0:0:0:0:
355,146,45703,2,0,P|373:108|375:66,1,84,2|8,0:2|0:2,0:0:0:0:
240,183,45964,1,2,1:2:0:0:
242,208,46030,1,2,0:2:0:0:
244,232,46095,1,2,0:2:0:0:
244,252,46160,1,2,0:2:0:0:
246,276,46225,1,0,1:0:0:0:
91,347,46356,6,0,B|74:330|74:330|132:339|132:339|140:343|140:343|198:352,1,151.199995385742,8|0,0:2|0:0,0:0:0:0:
283,361,46617,6,0,B|317:376|317:376|270:384,1,84,4|0,1:2|1:0,0:0:0:0:
333,285,46877,2,0,B|366:272|366:272|457:288|457:288|493:269,1,168,2|8,0:2|0:2,0:0:0:0:
492,270,47269,5,0,0:0:0:0:
418,312,47399,1,2,1:2:0:0:
333,285,47530,1,0,1:0:0:0:
353,113,47660,5,2,0:2:0:0:
443,93,47790,1,0,0:0:0:0:
462,183,47921,1,0,0:0:0:0:
372,201,48051,1,0,0:0:0:0:
142,44,48182,5,8,0:2:0:0:
43,23,48312,1,0,0:0:0:0:
133,140,48443,5,2,0:2:0:0:
232,119,48573,1,0,0:0:0:0:
130,228,48703,6,0,L|123:144,1,84,0|0,1:0|1:0,0:0:0:0:
224,16,48964,2,0,B|259:-7|314:9|329:61,1,126,2|0,0:2|0:0,0:0:0:0:
336,77,49225,2,0,P|355:115|401:130,1,84,8|0,0:2|0:0,0:0:0:0:
475,101,49486,1,2,1:2:0:0:
413,49,49617,1,0,1:0:0:0:
254,220,49747,5,2,0:2:0:0:
284,343,49877,1,0,0:0:0:0:
406,313,50008,1,2,0:2:0:0:
375,185,50138,1,2,0:2:0:0:
164,334,50269,6,0,B|141:343|141:343|54:323,1,84,8|0,0:2|1:0,0:0:0:0:
34,257,50530,1,8,0:2:0:0:
358,384,50660,1,8,0:2:0:0:
358,384,51573,5,2,1:2:0:0:
311,316,51703,5,2,1:2:0:0:
320,194,51834,6,0,L|457:175,1,117.599996411133,4|0,0:2|0:0,0:0:0:0:
480,117,52225,1,2,0:2:0:0:
440,196,52356,2,0,L|323:179,1,117.599996411133,0|2,0:0|1:2,0:0:0:0:
176,152,52747,1,0,1:0:0:0:
240,10,52877,6,0,P|267:59|263:129,1,117.599996411133,12|0,0:2|1:0,0:0:0:0:
188,162,53269,1,2,1:2:0:0:
274,126,53399,2,0,P|280:98|277:69,1,58.7999982055665,8|0,0:2|0:0,0:0:0:0:
153,20,53660,2,0,P|170:43|178:71,1,58.7999982055665,2|0,1:2|1:0,0:0:0:0:
55,163,53921,6,0,P|32:122|83:78,1,117.599996411133,12|2,0:2|0:2,0:0:0:0:
239,238,54443,2,0,P|195:243|152:252,1,88.1999973083497,2|0,0:2|0:0,0:0:0:0:
152,252,54703,1,2,1:2:0:0:
106,321,54834,1,0,1:0:0:0:
135,231,54964,2,0,P|193:235|249:252,1,117.599996411133,8|0,0:2|1:0,0:0:0:0:
279,321,55356,1,0,1:0:0:0:
255,217,55486,2,0,P|196:221|140:238,1,117.599996411133,10|2,0:2|1:2,0:0:0:0:
73,330,55877,1,2,1:2:0:0:
180,378,56008,6,0,P|186:350|184:321,1,58.7999982055665,12|0,0:2|0:0,0:0:0:0:
135,231,56269,1,0,1:0:0:0:
293,329,56399,2,0,P|309:272|349:230,1,117.599996411133,2|0,1:2|1:0,0:0:0:0:
502,261,56790,5,2,1:2:0:0:
486,269,56856,1,0,1:0:0:0:
468,273,56921,1,2,1:2:0:0:
450,273,56986,1,0,1:0:0:0:
432,271,57051,2,0,L|440:212,2,58.7999982055665,0|0|0,1:0|0:0|0:0,0:0:0:0:
444,350,57443,2,0,L|385:357,1,58.7999982055665,2|2,1:2|1:2,0:0:0:0:
293,329,57703,1,8,0:2:0:0:
337,207,57834,2,0,L|347:264,1,58.7999982055665,2|0,0:2|1:0,0:0:0:0:
460,129,58095,6,0,P|404:143|342:117,1,117.599996411133,8|2,0:2|1:2,0:0:0:0:
318,55,58486,1,0,1:0:0:0:
367,0,58617,1,2,0:2:0:0:
393,68,58747,1,0,1:0:0:0:
305,48,58877,2,0,L|246:56,1,58.7999982055665,2|0,1:2|0:0,0:0:0:0:
163,148,59138,6,0,L|250:158,1,88.1999973083497,2|0,1:2|0:0,0:0:0:0:
268,137,59399,2,0,L|142:168,1,117.599996411133,0|0,1:0|0:0,0:0:0:0:
81,192,59790,1,8,0:2:0:0:
28,141,59921,2,0,P|30:100|53:70,1,58.7999982055665,2|2,0:2|1:2,0:0:0:0:
88,268,60182,6,0,P|77:319|18:376,1,117.599996411133,6|0,0:2|0:0,0:0:0:0:
160,321,60573,2,0,P|209:305|288:327,1,117.599996411133,2|0,0:2|0:0,0:0:0:0:
168,232,60964,2,0,P|162:202|165:163,1,58.7999982055665,0|0,1:0|0:0,0:0:0:0:
263,121,61225,6,0,L|377:147,1,117.599996411133,8|0,0:2|1:0,0:0:0:0:
448,172,61617,1,2,1:2:0:0:
385,114,61747,2,0,L|270:140,1,117.599996411133,8|2,0:2|1:2,0:0:0:0:
189,160,62138,1,0,1:0:0:0:
141,39,62269,6,0,P|169:32|203:38,1,58.7999982055665,8|0,0:2|0:0,0:0:0:0:
271,34,62530,2,0,P|248:15|219:7,1,58.7999982055665,2|0,0:2|0:0,0:0:0:0:
119,31,62790,2,0,B|92:53|92:53|103:135,1,117.599996411133,2|0,0:2|1:0,0:0:0:0:
151,200,63182,1,0,1:0:0:0:
0,297,63312,6,0,P|54:260|118:273,1,134.4,10|0,0:2|1:0,0:0:0:0:
171,339,63703,1,0,1:0:0:0:
333,253,63834,2,0,P|272:279|209:260,1,134.4,10|0,0:2|1:0,0:0:0:0:
174,184,64225,1,0,1:0:0:0:
272,97,64356,6,0,L|261:171,1,75.5999976928712,6|0,0:2|1:0,0:0:0:0:
388,68,64617,2,0,L|377:142,1,75.5999976928712,2|0,1:2|1:0,0:0:0:0:
151,37,64877,6,0,L|161:111,1,75.5999976928712,10|0,0:2|0:0,0:0:0:0:
35,8,65138,2,0,L|45:82,1,75.5999976928712,2|0,1:2|0:0,0:0:0:0:
8,198,65399,6,0,P|44:188|80:198,1,75.5999976928712,2|0,0:2|1:0,0:0:0:0:
116,281,65660,2,0,P|105:317|79:343,1,75.5999976928712,2|0,1:2|1:0,0:0:0:0:
212,280,65921,6,0,P|238:253|274:243,1,75.5999976928712,10|0,0:2|0:0,0:0:0:0:
358,279,66182,2,0,P|367:315|358:351,1,75.5999976928712,2|0,1:2|1:0,0:0:0:0:
223,355,66443,5,6,0:2:0:0:
212,280,66573,1,0,0:0:0:0:
230,208,66703,1,2,1:2:0:0:
279,152,66834,1,0,0:0:0:0:
512,98,66964,5,10,0:2:0:0:
457,181,67095,1,0,1:0:0:0:
358,201,67225,1,2,1:2:0:0:
279,152,67356,1,0,1:0:0:0:
217,8,67486,5,10,0:2:0:0:
383,115,67617,1,10,0:2:0:0:
365,36,67747,5,10,0:2:0:0:
120,195,67877,1,10,0:2:0:0:
157,127,68008,5,10,0:2:0:0:
378,285,68138,1,10,0:2:0:0:
358,201,68269,5,10,0:2:0:0:
160,331,68399,1,10,0:2:0:0:
258,375,68530,5,2,1:2:0:0:
257,375,68608,2,0,P|264:342|265:308,1,67.2,2|0,0:0|0:0,0:0:0:0:
237,141,69118,2,0,P|230:174|236:227,1,84,2|0,0:0|0:0,0:0:0:0:
293,275,69639,1,2,0:0:0:0:
381,270,70107,1,2,0:0:0:0:
431,201,70628,1,2,0:0:0:0:
404,126,71086,1,2,0:0:0:0:
337,88,71551,5,2,0:0:0:0:
325,90,71628,2,0,L|329:141,2,28
264,37,71938,1,0,0:0:0:0:
251,40,72016,2,0,P|236:93|231:166,1,100.8,2|0,0:0|0:0,0:0:0:0:
250,158,72537,2,0,P|248:120|181:1,1,168,2|0,0:0|0:0,0:0:0:0:
91,39,73547,1,2,0:0:0:0:
30,96,74038,1,2,0:0:0:0:
27,188,74496,6,0,L|36:234,2,33.6,2|0|0,0:0|0:0|0:0,0:0:0:0:
45,177,74861,1,0,0:0:0:0:
126,166,74983,2,0,P|134:197|142:231,1,67.2,2|0,0:0|0:0,0:0:0:0:
139,308,75478,1,2,0:0:0:0:
225,265,75974,1,2,0:0:0:0:
319,282,76457,1,2,0:0:0:0:
379,347,76933,1,2,0:0:0:0:
468,340,77380,1,2,0:0:0:0:
512,255,77871,1,2,0:0:0:0:
466,172,78343,1,0,0:0:0:0:
368,177,78811,1,2,0:0:0:0:
324,106,79302,1,2,0:0:0:0:
381,38,79763,2,0,P|419:42|454:51,1,67.2,2|0,0:0|0:0,0:0:0:0:
312,115,80244,6,0,P|281:122|226:129,1,67.2,2|0,0:0|0:0,0:0:0:0:
183,114,80726,2,0,P|249:122|300:164,2,134.4,2|0|0,0:0|0:0|0:0,0:0:0:0:
132,193,82226,1,2,0:0:0:0:
209,260,82717,1,2,0:0:0:0:
135,341,83234,5,2,0:0:0:0:
133,323,83354,1,0,0:0:0:0:
131,306,83475,1,0,0:0:0:0:
129,289,83596,1,0,0:0:0:0:
128,271,83717,2,0,P|91:273|54:290,1,67.2,2|0,0:0|0:0,0:0:0:0:
33,290,84234,2,0,P|99:292|160:265,1,134.4,2|2,0:0|0:0,0:0:0:0:
222,203,85419,1,2,0:0:0:0:
322,227,86093,1,2,0:0:0:0:
399,285,86815,1,2,0:0:0:0:
464,241,87155,5,0,0:0:0:0:
465,229,87269,1,0,0:0:0:0:
467,218,87383,1,0,0:0:0:0:
468,209,87496,1,2,0:0:0:0:
462,197,87636,6,0,B|453:163|428:156|428:156|353:172,1,112,2|2,0:0|0:0,0:0:0:0:
257,191,89174,5,2,0:0:0:0:
257,191,89384,1,2,0:0:0:0:
269,91,89759,1,2,0:0:0:0:
164,219,90050,5,2,0:0:0:0:
164,219,90217,1,2,0:0:0:0:
70,245,90912,5,2,0:0:0:0:
70,245,91086,1,2,0:0:0:0:
494,379,100361,5,6,1:2:0:0:
438,283,100475,2,0,P|422:324|415:368,1,88.1999973083497,8|0,0:2|1:0,0:0:0:0:
364,220,100702,2,0,P|398:178|520:184,1,176.399994616699,10|8,0:2|0:2,0:0:0:0:
371,90,101043,1,2,1:2:0:0:
371,90,101100,1,0,1:0:0:0:
371,90,101157,1,8,0:2:0:0:
501,25,101270,6,0,L|413:14,1,88.1999973083497,2|8,1:2|0:2,0:0:0:0:
316,0,101498,1,0,1:0:0:0:
158,104,101611,2,0,L|245:93,1,88.1999973083497,10|0,0:2|1:0,0:0:0:0:
343,79,101839,1,8,0:2:0:0:
234,16,101952,1,2,1:2:0:0:
93,161,102066,5,8,0:2:0:0:
93,161,102123,1,0,1:0:0:0:
93,161,102179,2,0,B|71:120|71:120|80:63,1,88.1999973083497,6|8,1:2|0:2,0:0:0:0:
277,181,102407,2,0,B|284:223|284:223|262:264,1,88.1999973083497,2|8,1:2|0:2,0:0:0:0:
49,260,102634,2,0,L|136:248,1,88.1999973083497,2|8,1:2|0:2,0:0:0:0:
253,368,102861,2,0,L|150:355,1,88.1999973083497,2|8,1:2|0:2,0:0:0:0:
177,165,103088,5,10,0:2:0:0:
182,143,103145,1,8,0:2:0:0:
192,123,103202,1,8,0:2:0:0:
209,109,103259,1,8,0:2:0:0:
230,102,103316,1,8,0:0:0:0:
252,99,103373,1,8,3:0:0:0:
273,102,103429,2,0,P|249:120|221:123,1,44.0999986541748,8|8,3:0|3:0,0:0:0:0:
73,107,103543,5,10,0:2:0:0:
53,83,103600,1,8,0:0:0:0:
49,52,103657,1,0,1:0:0:0:
60,23,103713,1,0,1:0:0:0:
85,4,103770,2,0,B|134:10|134:10|156:23|156:23|220:31,1,132.299995962525,14|0,0:2|0:0,0:0:0:0:
300,26,103998,6,0,B|332:-7|332:-7|290:1,1,88.1999973083497,6|8,1:2|0:2,0:0:0:0:
151,57,104225,1,0,1:0:0:0:
264,187,104338,2,0,B|305:217|305:217|387:216|421:125,1,176.399994616699,10|8,0:2|0:2,0:0:0:0:
462,4,104679,2,0,P|431:34|418:75,1,88.1999973083497,2|8,1:2|0:2,0:0:0:0:
462,267,104907,5,2,1:2:0:0:
490,186,105020,1,8,0:2:0:0:
407,155,105134,1,0,1:0:0:0:
375,239,105248,2,0,P|367:284|375:343,1,88.1999973083497,10|0,0:2|1:0,0:0:0:0:
126,238,105475,1,8,0:2:0:0:
175,176,105588,2,0,L|263:186,1,88.1999973083497,2|8,1:2|0:2,0:0:0:0:
237,351,105816,5,6,1:2:0:0:
216,273,105929,1,8,0:2:0:0:
37,351,106043,5,2,1:2:0:0:
121,326,106156,1,8,0:2:0:0:
54,172,106270,6,0,P|37:212|32:256,1,88.1999973083497,2|8,1:2|0:2,0:0:0:0:
175,176,106498,2,0,P|169:132|153:91,1,88.1999973083497,2|8,1:2|0:2,0:0:0:0:
6,5,106725,5,14,1:2:0:0:
27,86,106838,1,8,0:2:0:0:
188,21,106952,5,10,0:2:0:0:
106,0,107066,1,8,0:2:0:0:
263,142,107179,5,10,0:2:0:0:
275,60,107293,1,8,0:2:0:0:
393,6,107407,5,14,0:2:0:0:
422,0,107463,1,8,0:0:0:0:
451,8,107520,1,10,0:2:0:0:
470,32,107577,1,8,0:0:0:0:
479,61,107634,6,0,P|466:103|463:169,1,88.1999973083497,6|8,1:2|0:2,0:0:0:0:
512,233,107861,1,0,1:0:0:0:
432,359,107975,2,0,B|407:384|372:377|372:377|337:324|381:266,1,176.399994616699,10|8,0:2|0:2,0:0:0:0:
505,248,108316,1,2,1:2:0:0:
505,248,108373,1,0,1:0:0:0:
505,248,108429,1,8,0:2:0:0:
372,153,108543,6,0,B|355:144|355:144|268:162,1,88.1999973083497,2|8,1:2|0:2,0:0:0:0:
215,252,108770,1,0,1:0:0:0:
64,108,108884,2,0,B|103:73|103:73|224:99,1,176.399994616699,10|8,0:2|0:2,0:0:0:0:
109,219,109225,1,2,1:2:0:0:
109,219,109282,1,0,1:0:0:0:
109,219,109338,1,8,0:2:0:0:
274,380,109452,6,0,P|292:335|289:287,1,96.6000018424988,6|8,1:2|0:2,0:0:0:0:
224,99,109679,2,0,P|253:136|296:158,1,96.6000018424988,6|8,1:2|0:2,0:0:0:0:
372,153,109850,1,0,1:0:0:0:
372,153,109907,1,6,1:2:0:0:
215,252,110020,1,8,0:2:0:0:
394,329,110134,2,0,B|427:337|427:337|489:314,1,96.6000018424988,6|8,1:2|0:2,0:0:0:0:
496,64,110361,5,10,0:2:0:0:
452,57,110418,1,8,0:2:0:0:
408,51,110475,1,8,0:2:0:0:
364,45,110532,1,8,0:2:0:0:
334,15,110588,5,8,0:2:0:0:
300,22,110645,1,8,3:0:0:0:
267,31,110702,1,8,3:0:0:0:
234,39,110759,1,8,3:0:0:0:
203,69,110816,5,8,0:0:0:0:
154,63,110873,1,8,0:0:0:0:
106,57,110929,2,0,L|161:47,1,48.3000009212494,4|4,1:3|1:3,0:0:0:0:
303,151,111043,6,0,B|270:143|270:143|184:176|184:176|153:168,1,157.5,12|0,0:2|0:0,0:0:0:0:
49,137,111270,6,0,P|91:131|122:161,1,88.1999973083497,6|8,1:2|0:2,0:0:0:0:
73,256,111498,1,0,1:0:0:0:
269,361,111611,2,0,P|261:297|150:294,1,176.399994616699,10|8,0:2|0:2,0:0:0:0:
325,230,111952,1,2,1:2:0:0:
325,230,112009,1,0,1:0:0:0:
325,230,112066,1,8,0:2:0:0:
453,317,112179,6,0,B|426:332|426:332|369:322,1,88.1999973083497,2|8,1:2|0:2,0:0:0:0:
223,302,112407,1,0,1:0:0:0:
408,238,112520,1,10,0:2:0:0:
277,95,112634,2,0,P|250:127|250:176,1,88.1999973083497,0|8,1:0|0:2,0:0:0:0:
478,188,112861,1,2,1:2:0:0:
478,188,112918,1,0,1:0:0:0:
478,188,112975,1,8,0:2:0:0:
434,14,113088,6,0,B|406:29|406:29|392:114,1,88.1999973083497,6|8,1:2|0:2,0:0:0:0:
369,322,113316,2,0,B|341:307|341:307|331:251,1,88.1999973083497,2|8,1:2|0:2,0:0:0:0:
277,95,113543,2,0,B|244:72|244:72|144:89,1,132.299995962525,2|0,1:2|0:0,0:0:0:0:
130,107,113770,2,0,B|68:118|68:118|37:100,1,88.1999973083497,2|8,1:2|0:2,0:0:0:0:
235,10,113998,6,0,P|255:48|259:92,1,88.1999973083497,14|8,0:2|0:2,0:0:0:0:
232,161,114168,1,0,1:0:0:0:
232,161,114225,1,10,0:2:0:0:
86,37,114338,1,8,0:2:0:0:
31,238,114452,1,10,0:2:0:0:
130,107,114566,1,8,0:2:0:0:
143,309,114679,5,12,0:2:0:0:
177,318,114736,1,4,0:0:0:0:
212,314,114793,1,8,0:2:0:0:
242,296,114850,1,0,0:0:0:0:
261,273,114907,6,0,L|267:225,3,39.8999989345551,6|0|0|0,1:2|0:0|1:0|0:0,0:0:0:0:
341,234,115134,2,0,L|420:227,1,79.7999978691102,0|0,1:0|1:0,0:0:0:0:
493,349,115361,2,0,L|413:355,1,79.7999978691102,2|0,1:2|1:0,0:0:0:0:
506,183,115588,2,0,L|512:262,1,79.7999978691102,0|0,1:0|1:0,0:0:0:0:
433,141,115816,5,2,1:2:0:0:
425,140,115873,1,0,1:0:0:0:
417,139,115929,1,0,1:0:0:0:
408,138,115986,1,0,1:0:0:0:
400,137,116043,1,0,1:0:0:0:
392,136,116100,1,0,1:0:0:0:
384,135,116157,1,0,1:0:0:0:
376,134,116213,1,0,1:0:0:0:
366,132,116270,2,0,L|361:82,7,39.8999989345551,2|0|0|0|0|0|0|0,1:2|1:0|1:0|1:0|1:0|1:0|1:0|1:0,0:0:0:0:
391,10,116725,6,0,P|448:-8|507:0,1,119.699996803665,6|0,1:2|0:0,0:0:0:0:
512,28,116952,2,0,P|485:56|446:63,1,79.7999978691102,0|0,1:0|1:0,0:0:0:0:
250,26,117179,2,0,L|258:109,1,79.7999978691102,2|0,1:2|1:0,0:0:0:0:
135,191,117407,2,0,L|143:108,1,79.7999978691102,0|0,1:0|1:0,0:0:0:0:
27,26,117634,5,10,0:2:0:0:
42,68,117710,1,8,0:2:0:0:
44,113,117785,1,8,0:2:0:0:
110,175,117861,5,2,1:2:0:0:
101,218,117937,1,0,1:0:0:0:
81,258,118012,1,0,1:0:0:0:
11,324,118088,6,0,B|-32:326|-36:249|81:215|44:355|183:307,1,226.800000865173,8|0,0:2|1:0,0:0:0:0:
234,256,118429,1,0,0:0:0:0:
269,384,118543,5,6,1:2:0:0:
285,351,118619,1,0,1:0:0:0:
321,327,118695,1,0,1:0:0:0:
357,330,118770,2,0,P|387:355|425:364,1,79.7999978691102,0|0,1:0|1:0,0:0:0:0:
474,215,118998,2,0,P|436:228|409:257,1,79.7999978691102,2|0,1:2|1:0,0:0:0:0:
261,185,119225,2,0,P|300:180|335:198,1,79.7999978691102,0|0,1:0|1:0,0:0:0:0:
460,119,119452,5,6,1:2:0:0:
423,128,119528,1,4,1:3:0:0:
386,120,119604,1,4,1:3:0:0:
328,28,119679,5,6,1:3:0:0:
365,19,119755,1,4,1:3:0:0:
402,27,119831,1,4,1:3:0:0:
301,122,119907,5,10,1:2:0:0:
234,169,119982,1,2,1:2:0:0:
152,178,120058,1,2,1:2:0:0:
70,148,120134,6,0,P|66:104|75:68,1,79.7999978691102,10|0,1:2|0:0,0:0:0:0:
10,255,120361,6,0,P|77:248|125:325,1,159.59999573822,14|2,0:2|0:2,0:0:0:0:
152,178,120702,2,0,P|165:112|129:25,1,159.59999573822,10|2,0:2|0:2,0:0:0:0:
220,253,121043,2,0,P|279:258|334:235,1,119.699996803665,10|0,0:2|0:0,0:0:0:0:
384,156,121270,5,2,0:2:0:0:
301,122,121384,1,2,0:2:0:0:
465,360,121498,2,0,B|429:336|429:336|439:258,1,119.699996803665,10|0,0:2|0:0,0:0:0:0:
499,218,121725,2,0,B|379:221|443:335|305:359,1,239.399993607331,10|2,0:2|0:2,0:0:0:0:
116,294,122179,6,0,B|98:336|98:336|102:359|115:364,1,79.7999978691102,6|0,1:2|0:0,0:0:0:0:
306,274,122520,2,0,B|318:269|323:246|323:246|304:204,1,79.7999978691102,6|0,1:2|0:0,0:0:0:0:
202,243,123770,5,10,1:2:0:0:
74,61,123998,6,0,B|54:69|54:69|42:105|73:144,1,79.7999978691102,6|0,1:2|0:0,0:0:0:0:
258,181,124338,2,0,B|276:160|264:124|264:124|245:117,1,79.7999978691102,6|0,1:2|0:0,0:0:0:0:
153,153,124566,1,2,0:2:0:0:
153,153,124793,6,0,B|142:111|142:111|180:7,1,142.800002723694,2|2,0:2|0:2,0:0:0:0:
345,23,125134,1,2,0:2:0:0:
355,111,125248,1,2,0:2:0:0:
263,123,125361,1,2,0:2:0:0:
254,32,125475,2,0,B|291:27|291:27|319:85|319:85|366:98,1,142.800002723694,2|2,0:2|0:2,0:0:0:0:
505,199,125816,5,6,1:2:0:0:
438,174,125929,1,0,0:0:0:0:
367,184,126043,1,2,0:2:0:0:
405,334,126157,5,6,1:2:0:0:
483,286,126270,1,2,0:2:0:0:
505,199,126384,2,0,L|515:115,1,71.4000013618469,2|6,0:2|1:2,0:0:0:0:
483,286,126611,6,0,B|456:267|456:267|426:276|401:317|401:317|354:325,1,142.800002723694,2|6,0:2|1:2,0:0:0:0:
281,334,126952,1,2,0:2:0:0:
198,346,127066,1,2,0:2:0:0:
22,285,127179,5,6,1:2:0:0:
119,215,127293,2,0,P|125:252|116:294,1,71.4000013618469,2|0,0:2|0:0,0:0:0:0:
23,173,127520,5,6,1:2:0:0:
90,206,127634,1,2,0:2:0:0:
169,200,127748,1,2,0:2:0:0:
236,161,127861,1,6,1:2:0:0:
121,30,127975,5,0,0:0:0:0:
41,83,128088,1,2,0:2:0:0:
23,173,128202,1,6,1:2:0:0:
41,83,128429,6,0,B|78:73|78:73|137:108|137:108|203:94,1,142.800002723694,2|2,0:2|0:2,0:0:0:0:
275,80,128770,5,2,0:2:0:0:
226,20,128884,1,6,1:2:0:0:
402,57,128998,5,2,0:2:0:0:
348,176,129111,1,10,0:2:0:0:
478,92,129225,5,6,1:2:0:0:
334,16,129338,1,10,0:2:0:0:
285,280,129452,5,6,1:2:0:0:
336,193,129566,2,0,B|311:179|311:179|236:194,1,105,8|0,0:2|1:0,0:0:0:0:
163,219,129736,1,0,1:0:0:0:
163,219,129793,1,10,0:2:0:0:
8,360,129907,2,0,B|47:365|47:365|78:356|88:313,1,105,0|8,1:0|0:2,0:0:0:0:
90,162,130134,5,2,1:2:0:0:
90,162,130191,1,0,1:0:0:0:
90,162,130248,2,0,B|41:149|41:149|4:237|98:315,1,210,10|10,0:2|0:2,0:0:0:0:
269,381,130588,1,2,1:2:0:0:
269,381,130645,1,0,1:0:0:0:
269,379,130702,2,0,P|289:331|284:279,1,105,10|2,0:2|1:2,0:0:0:0:
183,135,130929,2,0,P|214:176|261:197,1,105,10|0,0:2|1:0,0:0:0:0:
345,213,131100,1,0,1:0:0:0:
345,213,131157,1,8,0:2:0:0:
458,55,131270,5,6,1:2:0:0:
512,116,131384,2,0,B|508:128|489:132|489:132|448:123|431:86,1,105,8|0,0:2|1:0,0:0:0:0:
292,30,131611,2,0,B|309:13|341:0|341:0|374:74|310:145,1,210,10|8,0:2|0:2,0:0:0:0:
133,186,131952,1,2,1:2:0:0:
133,186,132009,1,0,1:0:0:0:
133,186,132066,2,0,B|122:147|122:147|223:135|205:217|278:235,1,210,10|10,0:2|0:2,0:0:0:0:
437,256,132407,1,2,1:2:0:0:
395,153,132520,1,10,0:2:0:0:
315,290,132634,1,10,0:2:0:0:
472,355,132748,5,8,0:2:0:0:
476,319,132804,1,4,0:0:0:0:
480,282,132861,1,10,0:2:0:0:
484,245,132918,1,8,0:2:0:0:
488,208,132975,1,10,0:2:0:0:
493,171,133032,1,8,0:2:0:0:
512,197,133088,6,0,B|500:226|500:226|451:241|401:223,1,105,6|8,1:2|0:2,0:0:0:0:
286,174,133316,1,0,1:0:0:0:
395,36,133429,2,0,B|426:7|468:30|468:30|476:106|388:150,1,210,10|8,0:2|0:2,0:0:0:0:
228,45,133770,5,2,1:2:0:0:
228,45,133827,1,0,1:0:0:0:
228,45,133884,2,0,B|216:29|216:29|146:22|87:82|112:180,1,210,10|10,0:2|0:2,0:0:0:0:
214,270,134225,1,2,1:2:0:0:
286,174,134338,1,10,0:2:0:0:
179,143,134452,1,2,1:2:0:0:
101,236,134566,1,8,0:2:0:0:
252,362,134679,5,0,1:0:0:0:
252,362,134736,1,0,1:0:0:0:
252,362,134793,1,10,0:2:0:0:
252,362,134850,1,2,1:2:0:0:
252,362,134907,2,0,B|228:379|228:379|74:348,1,157.5,6|0,1:2|0:0,0:0:0:0:
28,334,135134,1,0,1:0:0:0:
176,224,135248,2,0,B|263:210|241:276|299:309|372:280,1,210,10|8,0:2|0:2,0:0:0:0:
474,124,135588,2,0,P|492:160|430:196,1,105,2|8,1:2|0:2,0:0:0:0:
289,97,135816,5,10,0:2:0:0:
290,60,135873,1,8,0:2:0:0:
310,30,135929,1,8,0:2:0:0:
341,11,135986,1,8,0:2:0:0:
377,10,136043,1,8,0:0:0:0:
370,30,136100,1,8,3:0:0:0:
351,40,136157,1,8,3:0:0:0:
331,46,136213,1,8,3:0:0:0:
306,47,136270,6,0,B|277:30|277:30|228:30|191:57,1,105,8|4,0:0|0:0,0:0:0:0:
11,128,136498,2,0,B|40:145|40:145|88:144|126:118,1,105,14|8,0:2|0:0,0:0:0:0:
197,20,136725,5,6,1:2:0:0:
306,134,136838,2,0,B|328:154|328:154|326:188|277:208,1,105,8|0,0:2|1:0,0:0:0:0:
110,237,137066,2,0,B|82:226|82:226|140:205|140:205|175:260|131:354,1,210,10|8,0:2|0:2,0:0:0:0:
313,360,137407,5,2,1:2:0:0:
313,360,137463,1,0,1:0:0:0:
313,360,137520,2,0,B|359:379|427:358|430:304|430:304|395:278|351:298,1,210,10|10,0:2|0:2,0:0:0:0:
203,363,137861,1,2,1:2:0:0:
131,264,137975,1,10,0:2:0:0:
218,154,138088,1,2,1:2:0:0:
298,282,138202,2,0,B|273:289|273:289|238:263|234:221,1,105,10|0,0:2|1:0,0:0:0:0:
237,139,138373,1,0,1:0:0:0:
237,139,138429,1,8,0:2:0:0:
465,149,138543,6,0,P|418:172|367:163,1,105,6|8,1:2|0:2,0:0:0:0:
271,61,138770,1,0,1:2:0:0:
271,61,138827,1,0,1:0:0:0:
271,61,138884,2,0,B|249:36|249:36|178:23|122:79,1,157.5,10|0,0:2|0:0,0:0:0:0:
52,104,139111,2,0,B|32:94|32:94|11:55|58:21,1,105,8|2,0:2|1:2,0:0:0:0:
143,98,139282,5,0,1:0:0:0:
143,98,139338,2,0,B|168:133|168:133|116:206|133:304,1,210,10|10,0:2|0:2,0:0:0:0:
245,378,139679,1,2,1:2:0:0:
376,315,139793,1,10,0:2:0:0:
305,206,139907,1,2,1:2:0:0:
209,299,140020,1,10,0:2:0:0:
209,299,140077,1,2,1:2:0:0:
209,299,140134,1,0,1:2:0:0:
450,367,140248,5,10,0:2:0:0:
450,367,140304,1,2,1:2:0:0:
450,367,140361,2,0,B|474:350|474:350|484:292|432:256,1,105,6|8,1:2|0:2,0:0:0:0:
384,222,140588,1,0,1:2:0:0:
448,50,140702,2,0,B|457:35|485:32|485:32|524:66|524:138|448:192,1,210,10|8,0:2|0:2,0:0:0:0:
302,147,141043,5,2,1:2:0:0:
302,147,141100,1,0,1:0:0:0:
302,147,141157,2,0,B|308:126|308:126|357:109|408:139,1,105,10|0,0:2|1:2,0:0:0:0:
297,253,141384,1,10,0:2:0:0:
189,120,141498,1,2,1:2:0:0:
189,120,141554,1,0,1:0:0:0:
189,120,141611,1,10,0:2:0:0:
95,207,141725,1,2,1:2:0:0:
190,364,141838,5,10,0:2:0:0:
189,342,141895,1,8,0:2:0:0:
188,320,141952,1,4,0:0:0:0:
188,298,142009,1,4,0:0:0:0:
187,276,142066,1,8,0:0:0:0:
187,254,142123,1,8,0:0:0:0:
206,271,142179,6,0,B|189:289|189:289|151:280|108:291,1,105,6|0,1:2|0:0,0:0:0:0:
305,366,142407,2,0,B|323:349|323:349|314:311|325:268,1,105,10|0,0:2|1:0,0:0:0:0:
450,129,142634,5,8,0:2:0:0:
423,162,142691,1,8,0:0:0:0:
384,179,142748,1,8,0:2:0:0:
343,185,142804,1,8,0:0:0:0:
301,178,142861,1,8,0:2:0:0:
264,156,142918,1,4,0:0:0:0:
236,123,142975,1,8,0:2:0:0:
221,83,143032,1,4,0:0:0:0:
282,36,143088,6,0,B|312:23|312:23|362:47|321:125,1,121.800003717041,6|0,1:2|0:0,0:0:0:0:
206,271,143316,2,0,B|176:284|176:284|126:260|167:182,1,121.800003717041,2|0,0:2|0:0,0:0:0:0:
384,179,143543,6,0,P|399:221|367:254,1,96.6000018424988,2|0,0:2|0:0,0:0:0:0:
131,110,143770,2,0,P|115:67|147:34,1,96.6000018424988,2|2,0:2|0:2,0:0:0:0:
263,156,143998,6,0,P|283:254|287:355,2,201.6,6|2|2,1:2|0:2|0:2,0:0:0:0:
147,34,144907,2,0,P|245:14|346:10,2,201.6,2|2|2,0:2|0:2|0:2,0:0:0:0:
13,128,145816,6,0,B|123:100|96:200|217:193,1,201.6,6|2,1:2|1:2,0:0:0:0:
511,236,146725,2,0,B|401:208|428:308|307:301,1,201.6,6|2,1:2|1:2,0:0:0:0:
76,366,147634,6,0,B|57:342|57:342|72:256,1,117.599996411133,6|0,1:2|0:0,0:0:0:0:
45,137,147975,2,0,B|64:161|64:161|48:246,1,117.599996411133,2|0,1:2|0:0,0:0:0:0:
148,176,148316,2,0,B|160:166|160:166|188:166|208:188,1,58.7999982055665,2|0,1:2|0:0,0:0:0:0:
279,241,148543,6,0,P|287:153|327:75,2,176.399994616699,10|2|2,0:2|0:2|0:2,0:0:0:0:
323,376,149452,5,6,0:2:0:0:
456,328,149679,1,2,0:2:0:0:
406,195,149907,1,2,1:2:0:0:
279,241,150134,1,2,0:2:0:0:
443,321,150361,6,0,B|457:329|457:329|508:208|411:246|464:100,1,235.199992822266,10|2,0:2|1:2,0:0:0:0:
458,117,151043,5,2,0:2:0:0:
356,78,151157,5,2,0:2:0:0:
261,117,151270,6,0,L|85:96,2,176.399994616699,6|2|2,0:2|0:2|0:2,0:0:0:0:
216,291,152179,2,0,L|391:270,2,176.399994616699,10|2|2,0:2|0:2|0:2,0:0:0:0:
56,207,153088,6,0,B|49:205|49:205|19:255|19:255|46:317,1,117.599996411133,6|2,0:2|0:2,0:0:0:0:
181,384,153543,2,0,B|188:386|188:386|218:336|218:336|191:274,1,117.599996411133,2|2,1:2|0:2,0:0:0:0:
198,147,153998,6,0,B|314:122|286:259|410:252,1,235.199992822266,10|2,0:2|1:2,0:0:0:0:
392,252,154907,5,6,0:2:0:0:
472,114,155248,1,2,0:2:0:0:
441,328,155588,1,2,0:2:0:0:
462,125,155816,5,10,0:2:0:0:
382,263,156157,1,2,0:2:0:0:
413,49,156497,1,2,0:2:0:0:
306,163,156725,6,0,B|294:172|294:172|225:177|183:134,1,117.599996411133,6|2,0:2|0:2,0:0:0:0:
83,16,157179,2,0,B|96:21|96:21|135:79|119:137,1,117.599996411133,2|2,1:2|0:2,0:0:0:0:
54,256,157634,2,0,B|52:241|52:241|63:163|236:158|191:415|454:357,1,470.399985644532,8|6,0:2|1:2,0:0:0:0:
256,192,158600,12,0,160248,0:0:0:0:
394,39,160361,5,6,1:2:0:0:
256,192,160418,12,0,162066,0:0:0:0:
35,192,162179,5,6,1:2:0:0:
256,192,162236,12,0,163884,0:0:0:0:
459,371,163998,5,6,1:2:0:0:
459,371,164907,5,10,0:2:0:0:
455,331,164982,1,8,0:2:0:0:
465,293,165058,1,8,0:2:0:0:
512,238,165134,5,8,0:2:0:0:
493,308,165210,1,10,0:2:0:0:
435,355,165285,1,8,0:2:0:0:
357,384,165361,5,8,0:2:0:0:
331,300,165437,1,8,0:0:0:0:
356,217,165513,1,8,0:0:0:0:
438,177,165588,6,0,B|439:178|439:178|436:221|329:234|310:202,1,145.599993334961,8|8,0:2|0:0,0:0:0:0:
287,182,165816,6,0,P|303:141|360:142,1,92.4000028198243,6|8,1:2|0:2,0:0:0:0:
446,188,166043,1,0,1:0:0:0:
245,274,166157,2,0,B|225:280|225:280|163:256|108:255|108:255|86:272|84:304,1,184.800005639649,10|8,0:2|0:2,0:0:0:0:
229,378,166498,2,0,P|245:347|236:288,1,92.4000028198243,2|8,1:2|0:2,0:0:0:0:
58,161,166725,6,0,B|71:176|71:176|118:181|154:152,1,92.4000028198243,2|8,1:2|0:2,0:0:0:0:
241,81,166952,1,2,1:2:0:0:
241,81,167009,1,2,1:2:0:0:
241,81,167066,1,10,0:2:0:0:
119,38,167179,1,0,1:0:0:0:
207,195,167293,1,8,0:2:0:0:
322,60,167407,1,2,1:2:0:0:
322,60,167464,1,2,1:2:0:0:
322,60,167521,1,10,0:2:0:0:
442,96,167634,6,0,P|431:62|431:4,1,92.4000028198243,6|8,1:2|0:2,0:0:0:0:
501,157,167861,1,2,1:2:0:0:
368,215,167975,2,0,B|309:203|309:203|257:222|257:222|189:206,1,184.800005639649,8|8,0:2|0:2,0:0:0:0:
29,178,168316,1,2,1:2:0:0:
29,178,168373,1,0,1:0:0:0:
29,178,168429,1,8,0:2:0:0:
229,378,168543,5,6,1:2:0:0:
321,312,168657,1,8,0:2:0:0:
104,361,168770,1,2,1:2:0:0:
104,361,168827,1,0,1:0:0:0:
104,361,168884,1,8,0:2:0:0:
137,132,168998,6,0,P|159:173|170:218,1,92.4000028198243,6|8,1:2|0:2,0:0:0:0:
334,319,169225,2,0,P|345:274|366:233,1,92.4000028198243,2|8,1:2|0:2,0:0:0:0:
469,58,169452,6,0,P|389:73|300:51,1,138.600004229736,6|0,1:2|0:0,0:0:0:0:
275,21,169679,1,2,1:2:0:0:
487,185,169793,2,0,B|498:194|498:194|527:251|469:320|408:302,1,184.800005639649,8|8,0:2|0:2,0:0:0:0:
236,173,170134,1,0,0:0:0:0:
236,173,170191,1,2,1:2:0:0:
236,173,170248,1,0,0:0:0:0:
292,384,170361,6,0,B|310:373|310:373|329:257,1,138.600004229736,2|0,1:2|0:0,0:0:0:0:
351,234,170588,2,0,B|362:165|362:165|382:154,1,92.4000028198243,2|8,1:2|0:2,0:0:0:0:
221,292,170816,2,0,P|178:309|133:304,1,92.4000028198243,2|8,1:2|0:2,0:0:0:0:
3,182,171043,1,2,1:2:0:0:
3,182,171100,1,2,1:2:0:0:
3,182,171157,1,8,0:2:0:0:
230,7,171270,5,6,1:2:0:0:
332,88,171384,2,0,L|233:104,1,92.4000028198243,8|2,0:2|1:2,0:0:0:0:
167,84,171554,1,0,0:1:0:0:
167,84,171611,2,0,B|247:64|233:160|341:166,1,184.800005639649,8|8,0:2|0:2,0:0:0:0:
499,97,171952,1,2,1:2:0:0:
369,4,172066,1,8,0:2:0:0:
179,167,172179,6,0,B|151:182|151:182|97:163|27:161,1,138.600004229736,6|0,1:2|0:0,0:0:0:0:
9,95,172407,1,2,1:2:0:0:
9,95,172463,1,2,1:2:0:0:
9,95,172520,1,8,0:2:0:0:
234,273,172634,6,0,B|212:253|212:253|145:257|91:298,1,138.600004229736,6|0,1:2|0:0,0:0:0:0:
64,345,172862,1,2,1:2:0:0:
64,345,172918,1,2,1:2:0:0:
64,345,172975,1,8,0:2:0:0:
312,382,173088,6,0,B|301:372|301:372|296:315|330:277,1,109.199995001221,6|8,1:2|0:2,0:0:0:0:
394,236,173259,1,2,1:2:0:0:
417,228,173316,1,0,1:0:0:0:
444,204,173373,1,2,1:2:0:0:
460,164,173429,1,8,0:2:0:0:
444,115,173486,1,2,1:2:0:0:
395,102,173543,2,0,B|327:86|330:183|231:184,1,163.799992501831,0|0,1:0|0:0,0:0:0:0:
137,198,173770,5,2,1:2:0:0:
137,198,173827,1,2,1:2:0:0:
137,198,173884,2,0,P|148:169|150:143,1,54.5999975006105,8|0,0:2|0:0,0:0:0:0:
203,20,173998,5,2,1:2:0:0:
156,4,174054,1,2,1:2:0:0:
107,12,174111,1,8,0:2:0:0:
70,45,174168,1,0,1:0:0:0:
52,91,174225,6,0,L|-2:79,1,54.5999975006105,0|2,1:0|0:2,0:0:0:0:
0,169,174338,2,0,L|53:180,1,54.5999975006105,10|0,0:2|0:0,0:0:0:0:
167,223,174452,6,0,P|198:276|198:323,1,109.199995001221,2|8,1:2|0:2,0:0:0:0:
141,384,174623,1,0,1:0:0:0:
140,384,174679,6,0,P|127:347|130:323,1,54.5999975006105,2|2,1:2|0:2,0:0:0:0:
276,241,174793,2,0,P|288:277|286:302,1,54.5999975006105,8|0,0:2|0:0,0:0:0:0:
416,384,174907,5,6,1:2:0:0:
416,384,174963,2,0,B|397:366|397:366|412:278,1,109.199995001221,0|2,1:0|0:2,0:0:0:0:
507,213,175134,1,2,1:2:0:0:
507,213,175191,1,2,1:2:0:0:
507,213,175248,2,0,B|481:222|481:222|403:195,1,109.199995001221,8|6,0:2|1:2,0:0:0:0:
342,137,175418,1,0,1:0:0:0:
342,137,175475,2,0,B|310:129|310:129|227:163,1,109.199995001221,8|2,0:2|1:2,0:0:0:0:
189,236,175645,1,2,1:2:0:0:
189,236,175702,1,8,0:2:0:0:
41,112,175816,5,6,1:2:0:0:
25,95,175873,1,0,1:0:0:0:
19,67,175929,1,8,0:2:0:0:
30,36,175986,1,0,1:0:0:0:
75,12,176043,5,2,1:2:0:0:
122,17,176100,1,2,1:2:0:0:
160,51,176157,1,8,0:2:0:0:
169,101,176213,1,0,1:0:0:0:
151,153,176270,6,0,P|98:130|30:138,1,109.199995001221,6|8,1:2|0:2,0:0:0:0:
287,293,176498,2,0,P|341:294|390:272,1,109.199995001221,2|8,1:2|0:2,0:0:0:0:
114,374,176725,5,6,1:2:0:0:
31,257,176838,1,8,0:2:0:0:
239,157,176952,1,2,1:2:0:0:
239,157,177009,1,2,1:2:0:0:
239,157,177066,1,8,0:2:0:0:
180,301,177179,2,0,B|167:308|167:308|118:296|118:221,1,109.199995001221,2|8,1:2|0:2,0:0:0:0:
160,51,177407,1,2,1:2:0:0:
160,51,177463,1,0,1:0:0:0:
160,51,177520,1,8,0:2:0:0:
393,176,177634,6,0,B|402:180|402:180|428:176|450:129|418:84,1,109.199995001221,2|8,1:2|0:2,0:0:0:0:
313,5,177861,1,2,1:2:0:0:
239,157,177975,1,8,0:2:0:0:
85,68,178088,1,2,1:2:0:0:
308,101,178202,1,8,0:2:0:0:
118,235,178316,1,2,1:2:0:0:
174,88,178429,1,8,0:2:0:0:
280,248,178543,6,0,P|306:254|333:253,1,54.5999975006105,6|0,1:2|0:0,0:0:0:0:
403,222,178657,2,0,B|407:210|407:210|314:189|307:266|212:258,1,218.399990002442,8|8,0:2|0:2,0:0:0:0:
400,304,178998,2,0,P|396:355|349:377,1,109.199995001221,2|8,1:2|0:2,0:0:0:0:
188,230,179225,2,0,P|191:178|238:156,1,109.199995001221,2|8,1:2|0:2,0:0:0:0:
403,222,179452,5,6,1:2:0:0:
496,127,179566,5,8,0:2:0:0:
496,127,179623,1,8,0:2:0:0:
496,127,179679,1,8,0:2:0:0:
451,105,179736,1,8,0:2:0:0:
403,92,179793,1,8,0:2:0:0:
354,101,179850,1,8,0:2:0:0:
310,124,179907,1,8,0:2:0:0:
188,230,180020,5,8,0:2:0:0:
64,143,180134,1,8,0:2:0:0:
183,57,180248,1,8,0:2:0:0:
8,276,180361,5,6,1:2:0:0:
236,342,180475,1,2,1:2:0:0:
236,342,181043,5,6,1:2:0:0:
183,57,181157,1,2,1:2:0:0:
183,57,181725,5,8,0:2:0:0:
183,57,181782,1,6,0:3:0:0:
183,57,181838,1,4,1:3:0:0:
310,124,181952,1,4,1:3:0:0:
188,186,182066,1,4,1:3:0:0:
272,30,182179,5,10,0:2:0:0:
330,299,182293,1,2,1:2:0:0:
93,195,183998,5,6,1:2:0:0:
17,372,184112,1,2,1:2:0:0:
17,372,184679,5,6,1:2:0:0:
93,195,184793,1,2,1:2:0:0:
93,195,185361,5,8,0:2:0:0:
142,342,185475,1,8,0:2:0:0:
183,202,185588,1,8,0:2:0:0:
63,311,185702,1,8,2:0:0:0:
8,137,185816,6,0,B|4:96|4:96|29:61,1,84,10|0,0:2|0:0,0:0:0:0:
194,102,186043,2,0,B|198:143|198:143|173:178,1,84,2|0,1:2|1:0,0:0:0:0:
123,20,186270,2,0,B|148:3|148:3|250:31,1,126,10|0,0:2|0:0,0:0:0:0:
258,55,186498,2,0,B|308:71|308:71|339:51,1,84,10|2,0:2|1:2,0:0:0:0:
487,97,186725,5,2,1:2:0:0:
506,13,186838,1,2,1:2:0:0:
351,135,186952,1,8,0:2:0:0:
334,53,187066,1,2,1:2:0:0:
183,202,187179,5,10,0:2:0:0:
240,28,187293,1,10,0:2:0:0:
99,183,187407,5,10,0:2:0:0:
48,51,187521,1,10,0:2:0:0:
48,51,188032,5,0,0:0:0:0:
48,51,188088,2,0,B|74:38|108:48|108:48|139:111|99:183|99:183|163:244|247:210,1,352.799989233399,2|0,0:2|0:0,0:0:0:0:
254,192,188543,5,6,1:2:0:0:
373,154,188770,1,2,1:2:0:0:
476,232,188998,1,2,1:2:0:0:
450,353,189225,1,2,1:2:0:0:
254,192,189452,5,8,0:2:0:0:
288,56,189679,1,2,1:2:0:0:
437,19,189907,1,2,1:2:0:0:
254,192,190134,1,2,1:2:0:0:
0,95,190361,5,6,1:2:0:0:
98,59,190588,1,2,1:2:0:0:
254,192,190816,1,2,1:2:0:0:
213,98,191043,1,2,1:2:0:0:
117,357,191270,5,8,0:2:0:0:
117,357,191498,5,2,1:2:0:0:
117,357,191611,1,0,1:0:0:0:
106,249,191725,1,2,1:2:0:0:
106,249,191838,1,0,1:0:0:0:
208,295,191952,1,2,1:2:0:0:
208,295,192066,1,0,1:0:0:0:
23,322,192179,5,6,1:2:0:0:
0,225,192407,1,2,1:2:0:0:
60,132,192634,1,2,1:2:0:0:
170,108,192861,1,2,1:2:0:0:
401,322,193088,5,8,0:2:0:0:
307,349,193316,1,2,1:2:0:0:
208,295,193543,1,2,1:2:0:0:
456,229,193770,1,2,1:2:0:0:
378,39,193998,5,6,1:2:0:0:
308,33,194111,1,0,0:0:0:0:
258,83,194225,1,0,0:0:0:0:
186,97,194338,1,0,0:0:0:0:
375,70,194452,5,8,0:2:0:0:
308,46,194565,1,0,0:0:0:0:
247,81,194679,1,0,0:0:0:0:
174,76,194792,1,0,0:0:0:0:
372,103,194907,6,0,B|385:122|385:122|370:214,1,100.799996923828,6|8,1:2|0:0,0:0:0:0:
352,304,195134,5,8,0:0:0:0:
431,251,195248,1,8,0:0:0:0:
260,331,195361,5,8,0:0:0:0:
339,278,195475,1,8,0:0:0:0:
168,357,195588,5,8,0:0:0:0:
247,304,195702,1,8,0:0:0:0:
146,376,195816,5,6,1:2:0:0:
208,233,195929,1,2,1:2:0:0:
208,233,196157,5,2,1:2:0:0:
2,317,196270,1,10,0:2:0:0:
2,317,196498,5,2,1:2:0:0:
61,142,196611,1,2,1:2:0:0:
61,142,196839,5,2,1:2:0:0:
146,376,196952,1,2,1:2:0:0:
146,376,197179,5,10,0:2:0:0:
231,384,197293,1,2,1:2:0:0:
349,335,197407,1,2,1:2:0:0:
406,215,197520,1,2,1:2:0:0:
367,53,197634,5,6,1:2:0:0:
314,207,197748,1,2,1:2:0:0:
314,207,197975,5,2,1:2:0:0:
474,93,198088,1,10,0:2:0:0:
474,93,198316,5,2,1:2:0:0:
345,127,198429,1,2,1:2:0:0:
224,160,198543,2,0,L|240:51,1,100.799996923828,2|0,1:2|0:0,0:0:0:0:
470,248,198770,5,2,1:2:0:0:
323,293,198884,1,2,1:2:0:0:
176,334,198998,2,0,B|95:374|31:283|95:232,1,201.599993847656,10|2,0:2|1:2,0:0:0:0:
206,255,199338,1,2,1:2:0:0:
278,80,199452,5,6,1:2:0:0:
131,133,199566,1,2,1:2:0:0:
131,133,199793,5,2,1:2:0:0:
6,14,199907,1,10,0:2:0:0:
6,14,200134,5,2,1:2:0:0:
199,46,200248,1,2,1:2:0:0:
199,46,200475,5,2,1:2:0:0:
5,175,200588,1,2,1:2:0:0:
5,175,200816,5,10,0:2:0:0:
34,98,200929,1,0,0:0:0:0:
124,49,201043,1,2,1:2:0:0:
263,76,201157,1,2,1:2:0:0:
341,225,201270,5,6,1:2:0:0:
296,299,201384,2,0,B|275:324|275:324|204:299|201:207|258:188,1,201.599993847656,2|2,1:2|1:2,0:0:0:0:
474,311,201725,2,0,B|450:336|450:336|317:307|317:307|285:345,1,201.599993847656,10|2,0:2|1:2,0:0:0:0:
239,384,202066,1,2,1:2:0:0:
196,290,202179,5,2,1:2:0:0:
115,221,202293,1,2,1:2:0:0:
26,280,202407,1,2,1:2:0:0:
57,384,202520,1,2,1:2:0:0:
196,290,202634,5,10,0:2:0:0:
254,189,202748,1,2,1:2:0:0:
215,71,202861,1,2,1:2:0:0:
101,13,202975,1,2,1:2:0:0:
2,74,203088,6,0,B|-8:102|9:171|72:180|223:128|132:47|309:2|381:135|314:184,1,470.4,6|0,1:2|0:0,0:0:0:0:
180,220,204907,2,0,B|160:257|182:287|182:287|317:313,1,201.6,2|0,1:2|0:0,0:0:0:0:
419,230,205816,2,0,B|439:193|417:163|417:163|282:137,1,201.6,2|0,1:2|0:0,0:0:0:0:
122,118,206725,6,0,B|111:111|111:111|159:33|440:109|159:232|214:407|310:414|428:425|500:422|544:204|410:48|108:163|330:450|180:449|8:394|-20:198|140:173|185:225,1,1008,6|0,1:2|0:0,0:0:0:0:
335,176,210248,5,0,0:0:0:0:
335,176,210361,2,0,B|474:177|544:31|429:-17|308:20|334:150|483:164|464:262,1,470.4,6|0,1:2|0:0,0:0:0:0:
446,377,212179,6,0,B|426:355|426:355|278:375|278:375|258:348,1,201.6,2|0,1:2|0:0,0:0:0:0:
264,247,213088,2,0,B|244:269|244:269|96:249|96:249|76:276,1,201.6,2|0,1:2|0:0,0:0:0:0:
136,353,213998,6,0,B|222:195|108:-25|72:79|-33:113|-61:259|125:428|189:159|469:168|572:-303|-52:-144|-2:36|86:227|365:117|278:7|402:44,1,1008,6|2,1:2|0:2,0:0:0:0:
467,99,217520,1,2,0:2:0:0:
425,220,217634,5,6,1:2:0:0:
375,134,217748,2,0,B|394:123|394:123|458:136,1,88.1999973083497,8|0,0:2|1:0,0:0:0:0:
505,306,217975,2,0,B|483:328|483:328|331:295,1,176.399994616699,10|8,0:2|0:2,0:0:0:0:
186,269,218316,1,2,1:2:0:0:
186,269,218373,1,0,1:0:0:0:
186,269,218429,1,8,0:2:0:0:
337,206,218543,5,2,1:2:0:0:
196,148,218657,1,8,0:2:0:0:
256,213,218770,1,0,1:0:0:0:
334,70,218884,2,0,B|310:44|310:44|199:61|199:61|176:37,1,176.399994616699,10|8,0:2|0:2,0:0:0:0:
9,38,219225,2,0,B|31:39|31:39|55:61|61:103,1,88.1999973083497,2|8,1:2|0:2,0:0:0:0:
9,227,219452,6,0,B|14:207|14:207|80:194,1,88.1999973083497,6|8,1:2|0:2,0:0:0:0:
187,297,219679,2,0,B|182:317|182:317|115:329,1,88.1999973083497,2|8,1:2|0:2,0:0:0:0:
223,141,219907,2,0,B|243:146|243:146|255:212,1,88.1999973083497,2|8,1:2|0:2,0:0:0:0:
279,369,220134,1,2,1:2:0:0:
279,369,220191,1,0,1:0:0:0:
279,369,220248,1,8,0:2:0:0:
422,231,220361,6,0,P|465:224|507:234,1,88.1999973083497,2|8,1:2|0:2,0:0:0:0:
502,316,220588,1,2,1:2:0:0:
314,304,220702,1,8,0:2:0:0:
314,304,220759,1,0,1:0:0:0:
314,304,220816,2,0,L|326:207,1,88.1999973083497,2|10,1:0|0:2,0:0:0:0:
342,130,221043,1,2,1:2:0:0:
418,264,221157,1,8,0:2:0:0:
474,137,221270,5,6,1:2:0:0:
289,189,221384,2,0,P|245:195|204:182,1,88.1999973083497,8|0,0:2|1:0,0:0:0:0:
264,0,221611,2,0,P|335:45|343:130,1,176.399994616699,10|8,0:2|0:2,0:0:0:0:
222,233,221952,1,2,1:2:0:0:
222,233,222009,1,0,1:0:0:0:
222,233,222066,1,8,0:2:0:0:
65,188,222179,5,2,1:2:0:0:
228,101,222293,1,8,0:2:0:0:
94,47,222407,1,0,1:0:0:0:
132,257,222520,2,0,B|109:292|109:292|38:310|38:310|1:287|11:238,1,176.399994616699,10|8,0:2|0:2,0:0:0:0:
192,355,222861,2,0,B|216:361|216:361|254:342|252:314,1,88.1999973083497,2|8,1:2|0:2,0:0:0:0:
462,311,223088,5,6,1:2:0:0:
353,350,223202,1,8,0:2:0:0:
285,212,223316,5,2,1:2:0:0:
385,255,223430,1,8,0:2:0:0:
459,75,223543,5,2,1:2:0:0:
355,171,223657,1,8,0:2:0:0:
512,160,223770,2,0,B|500:147|500:147|471:162|429:161,1,88.1999973083497,2|8,1:2|0:2,0:0:0:0:
275,106,223998,5,14,1:2:0:0:
310,16,224111,1,8,0:2:0:0:
142,11,224225,5,10,0:2:0:0:
181,99,224338,1,8,0:2:0:0:
98,135,224452,5,10,0:2:0:0:
0,109,224566,1,8,0:2:0:0:
11,240,224679,5,14,0:2:0:0:
48,217,224736,1,8,0:0:0:0:
92,214,224793,1,10,0:2:0:0:
129,237,224850,1,8,0:0:0:0:
150,263,224907,6,0,L|136:358,1,88.1999973083497,6|8,1:2|0:2,0:0:0:0:
33,319,225134,1,0,1:0:0:0:
204,200,225248,2,0,B|294:192|257:266|384:258,1,176.399994616699,10|8,0:2|0:2,0:0:0:0:
512,160,225588,1,2,1:2:0:0:
512,160,225645,1,0,1:0:0:0:
512,160,225702,1,8,0:2:0:0:
440,341,225816,5,2,1:2:0:0:
398,178,225929,1,8,0:2:0:0:
487,248,226043,1,0,1:0:0:0:
342,342,226157,2,0,B|326:357|300:369|300:369|224:348|215:261,1,176.399994616699,10|8,0:2|0:2,0:0:0:0:
213,96,226498,2,0,P|230:146|222:188,1,88.1999973083497,2|8,1:2|0:2,0:0:0:0:
21,376,226725,6,0,P|10:298|31:223,1,157.5,6|0,1:2|0:0,0:0:0:0:
142,215,226952,2,0,P|139:296|74:296,1,140,6|0,1:2|0:0,0:0:0:0:
0,245,227179,5,6,1:2:0:0:
45,177,227255,1,0,1:0:0:0:
50,97,227331,1,0,1:0:0:0:
0,29,227407,1,14,1:2:0:0:
0,29,227634,5,10,0:2:0:0:
38,7,227691,1,8,0:2:0:0:
82,5,227748,1,8,0:2:0:0:
119,27,227804,1,8,0:2:0:0:
136,67,227861,2,0,P|107:89|46:81,1,88.1999973083497,8|8,0:3|3:0,0:0:0:0:
216,40,228088,6,0,P|242:41|266:53,1,52.5,8|8,0:2|0:0,0:0:0:0:
426,109,228202,2,0,P|452:107|475:94,1,52.5,8|4,0:2|0:0,0:0:0:0:
356,6,228316,2,0,B|345:19|345:19|366:47|353:124|307:170,1,157.5,12|0,0:2|0:0,0:0:0:0:
240,187,228543,5,6,1:2:0:0:
379,278,228657,2,0,P|357:240|315:233,1,88.1999973083497,8|0,0:2|1:0,0:0:0:0:
187,367,228884,2,0,P|112:341|138:266,1,176.399994616699,10|8,0:2|0:2,0:0:0:0:
234,294,229225,1,2,1:2:0:0:
234,294,229282,1,0,1:0:0:0:
234,294,229338,1,8,0:2:0:0:
35,217,229452,5,2,1:2:0:0:
130,153,229566,1,8,0:2:0:0:
138,266,229679,1,0,1:0:0:0:
25,103,229793,2,0,B|-5:60|15:18|15:18|107:30,1,176.399994616699,10|8,0:2|0:2,0:0:0:0:
311,45,230134,1,2,1:2:0:0:
311,45,230191,1,0,1:0:0:0:
311,45,230248,1,8,0:2:0:0:
247,182,230361,5,6,1:2:0:0:
226,94,230475,1,8,0:2:0:0:
489,81,230588,5,2,1:2:0:0:
371,107,230702,1,8,0:2:0:0:
194,2,230816,5,2,1:2:0:0:
330,31,230929,1,8,0:2:0:0:
130,153,231043,6,0,B|117:149|117:149|115:105|155:71,1,88.1999973083497,2|8,1:2|0:2,0:0:0:0:
398,226,231270,6,0,B|338:222|349:265|272:293,1,132.299995962525,6|0,1:2|0:0,0:0:0:0:
213,323,231498,1,10,0:2:0:0:
166,299,231554,1,8,0:2:0:0:
157,246,231611,1,8,0:2:0:0:
193,207,231668,1,8,0:2:0:0:
245,216,231725,1,8,0:2:0:0:
63,320,231838,1,8,0:2:0:0:
285,381,231952,1,12,0:2:0:0:
398,226,232066,1,8,0:2:0:0:
213,323,232179,6,0,L|222:203,1,107.10000204277,6|0,1:2|0:0,0:0:0:0:
245,216,232407,1,0,0:0:0:0:
245,216,232463,1,0,0:0:0:0:
245,216,232520,1,0,0:0:0:0:
245,216,232577,1,0,0:0:0:0:
245,216,232634,1,2,1:2:0:0:
470,72,233770,6,0,L|399:83,1,71.4000013618469,2|0,0:2|0:0,0:0:0:0:
329,27,233998,2,0,L|311:162,1,107.10000204277,6|0,1:2|0:0,0:0:0:0:
344,161,234225,1,2,0:2:0:0:
344,161,234282,1,0,0:0:0:0:
344,161,234338,1,2,0:2:0:0:
344,161,234395,1,0,0:0:0:0:
344,161,234452,1,2,1:2:0:0:
209,36,235134,5,8,0:0:0:0:
136,8,235210,1,8,0:0:0:0:
62,27,235285,1,8,0:0:0:0:
11,84,235361,2,0,L|33:233,1,142.800002723694,2|2,1:2|1:2,0:0:0:0:
31,225,235702,1,2,1:2:0:0:
183,196,235816,6,0,P|126:212|105:287,1,142.800002723694,14|4,1:2|0:0,0:0:0:0:
168,363,236119,1,4,0:0:0:0:
193,285,236195,1,4,0:0:0:0:
115,302,236270,1,10,1:2:0:0:
375,349,237179,6,0,B|363:364|363:364|309:370,1,71.4000013618469,10|0,0:2|0:0,0:0:0:0:
385,245,237407,2,0,B|333:250|333:250|321:265,1,71.4000013618469,10|0,0:2|0:0,0:0:0:0:
485,353,237634,5,10,0:2:0:0:
485,353,237691,1,2,0:2:0:0:
485,353,237748,2,0,L|490:311,2,35.7000006809235,0|0|2,0:0|0:0|0:2,0:0:0:0:
473,223,237975,5,10,0:2:0:0:
473,223,238032,1,2,0:2:0:0:
473,223,238089,2,0,L|478:181,2,35.7000006809235,0|0|2,0:0|0:0|0:2,0:0:0:0:
458,93,238316,5,10,0:2:0:0:
458,93,238373,1,2,0:2:0:0:
458,93,238429,1,0,0:0:0:0:
512,0,238543,5,0,1:0:0:0:
403,26,238657,1,0,1:0:0:0:
289,59,238770,2,0,P|259:33|267:-7,1,71.4000013618469,10|0,0:2|0:0,0:0:0:0:
369,145,238998,6,0,B|373:156|373:156|269:140|298:233|223:287|147:201|165:156|260:151|274:193,1,289.800005527496,6|0,1:2|0:0,0:0:0:0:
350,289,239452,6,0,B|348:298|348:298|270:318,1,79.7999978691102,6|0,1:2|0:0,0:0:0:0:
104,370,239793,2,0,B|106:361|106:361|184:341,1,79.7999978691102,2|0,1:2|0:0,0:0:0:0:
279,315,241043,1,8,0:2:0:0:
418,284,241270,6,0,B|416:275|416:275|338:255,1,79.7999978691102,6|0,1:2|0:0,0:0:0:0:
172,203,241611,2,0,B|174:212|174:212|252:232,1,79.7999978691102,2|0,1:2|0:0,0:0:0:0:
347,257,242861,1,8,0:2:0:0:
439,187,243088,6,0,B|470:150|440:108|440:108|349:143,1,159.59999573822,6|0,1:2|0:0,0:0:0:0:
260,27,243429,2,0,B|285:47|285:47|305:120|265:186,1,159.59999573822,6|0,1:2|0:0,0:0:0:0:
99,217,243770,2,0,B|151:209|184:237|165:294|244:302,1,159.59999573822,6|0,1:2|0:0,0:0:0:0:
88,361,244111,6,0,P|100:150|60:94,1,277.200008459473,6|0,1:2|0:0,0:0:0:0:
22,22,244907,5,8,0:2:0:0:
93,36,244982,1,8,0:3:0:0:
164,49,245058,1,8,0:3:0:0:
239,62,245134,1,8,0:2:0:0:
339,80,245248,5,0,0:0:0:0:
442,102,245361,5,10,1:2:0:0:
299,6,245513,1,2,1:2:0:0:
198,151,245664,1,2,1:2:0:0:
341,249,245816,1,6,1:2:0:0:
341,249,246725,6,0,B|362:228|362:228|456:243,1,126.000004806519,2|0,1:2|0:0,0:0:0:0:
472,247,247066,2,0,P|511:210|423:162,1,189.000007209778,2|0,0:2|0:0,0:0:0:0:
341,249,248202,1,2,0:2:0:0:
341,249,248259,1,0,0:0:0:0:
341,249,248316,1,2,1:2:0:0:
257,366,248543,6,0,B|236:345|236:345|141:360,1,126.000004806519,2|0,1:2|0:0,0:0:0:0:
126,364,248884,2,0,P|86:327|175:279,1,189.000007209778,2|0,0:2|0:0,0:0:0:0:
177,264,250361,5,6,1:2:0:0:
233,185,250475,1,0,0:0:0:0:
189,112,250588,1,0,0:0:0:0:
34,168,250702,5,6,1:2:0:0:
83,258,250816,1,0,0:0:0:0:
177,264,250929,1,2,0:2:0:0:
290,362,251157,6,0,P|281:300|308:244,1,126.000004806519,0|2,0:0|1:2,0:0:0:0:
476,221,251498,1,2,0:2:0:0:
394,269,251611,1,2,0:2:0:0:
471,137,251725,5,2,1:2:0:0:
476,221,251838,1,2,0:2:0:0:
258,33,252179,5,6,1:2:0:0:
189,112,252293,1,2,0:2:0:0:
240,204,252407,1,8,0:2:0:0:
457,55,252520,5,2,1:2:0:0:
364,6,252634,1,2,0:2:0:0:
258,33,252748,1,2,0:2:0:0:
457,55,252975,5,2,0:2:0:0:
471,137,253088,2,0,L|479:74,1,63.0000024032594,12|2,0:2|1:2,0:0:0:0:
349,184,253316,2,0,L|340:121,1,63.0000024032594,2|2,0:2|0:2,0:0:0:0:
493,254,253543,1,6,1:2:0:0:
397,284,253657,1,0,0:0:0:0:
296,313,253770,2,0,L|209:297,1,63.0000024032594,8|2,0:2|0:2,0:0:0:0:
14,303,253998,5,6,1:2:0:0:
81,362,254111,1,2,0:2:0:0:
165,323,254225,1,10,0:2:0:0:
250,218,254338,5,2,1:2:0:0:
183,159,254451,1,2,0:2:0:0:
99,198,254565,1,0,0:0:0:0:
0,101,254679,5,2,1:2:0:0:
60,37,254793,1,0,0:0:0:0:
91,117,254907,1,10,0:2:0:0:
191,34,255020,5,2,1:2:0:0:
251,98,255134,1,2,0:2:0:0:
282,18,255248,1,0,0:0:0:0:
387,107,255361,5,2,1:2:0:0:
424,28,255475,1,0,0:0:0:0:
494,0,255588,1,8,0:2:0:0:
512,127,255702,5,2,1:2:0:0:
410,212,255816,1,2,0:2:0:0:
247,198,255929,1,10,0:2:0:0:
319,145,256043,5,2,1:2:0:0:
410,212,256157,1,0,0:0:0:0:
409,310,256270,1,0,0:0:0:0:
281,372,256384,5,2,1:2:0:0:
200,312,256498,1,2,0:2:0:0:
293,274,256611,1,8,0:2:0:0:
215,189,256725,5,2,1:2:0:0:
296,129,256839,1,0,0:0:0:0:
203,91,256952,1,2,0:2:0:0:
315,37,257066,5,2,1:2:0:0:
216,17,257179,1,0,0:0:0:0:
119,0,257293,1,8,0:2:0:0:
7,128,257407,5,2,1:2:0:0:
106,108,257520,1,0,0:0:0:0:
203,91,257634,1,2,0:2:0:0:
291,227,257748,5,2,1:2:0:0:
192,207,257861,1,0,0:0:0:0:
95,190,257975,1,8,0:2:0:0:
3,290,258088,5,2,1:2:0:0:
89,369,258202,1,0,0:0:0:0:
204,321,258316,1,8,0:2:0:0:
192,207,258429,5,2,1:2:0:0:
307,159,258543,1,0,0:0:0:0:
393,238,258657,1,0,0:0:0:0:
321,384,258770,5,2,1:2:0:0:
296,301,258884,1,0,0:0:0:0:
355,236,258998,1,8,0:2:0:0:
484,204,259111,5,2,1:2:0:0:
509,287,259225,1,0,0:0:0:0:
450,352,259339,1,0,0:0:0:0:
450,352,259566,5,6,1:2:0:0:
372,269,259679,1,0,0:0:0:0:
401,152,259793,1,8,0:2:0:0:
413,149,259906,5,2,1:2:0:0:
387,38,260020,1,0,0:0:0:0:
264,18,260134,1,0,0:0:0:0:
260,27,260247,5,2,1:2:0:0:
182,85,260361,1,0,0:0:0:0:
86,52,260475,1,8,0:2:0:0:
94,43,260588,5,2,1:2:0:0:
119,118,260702,1,0,0:0:0:0:
63,183,260816,1,0,0:0:0:0:
41,176,260929,6,0,P|33:135|10:101,1,84,2|0,1:2|0:0,0:0:0:0:
13,281,261156,5,6,1:2:0:0:
153,378,261269,1,2,0:2:0:0:
312,322,261383,1,8,0:2:0:0:
320,318,261496,5,2,1:2:0:0:
208,197,261610,1,2,0:2:0:0:
267,56,261724,1,2,0:2:0:0:
276,53,261837,5,2,1:2:0:0:
335,150,261951,1,2,0:2:0:0:
433,95,262065,1,8,0:2:0:0:
497,205,262178,5,2,1:2:0:0:
438,108,262292,1,2,0:2:0:0:
340,163,262406,1,0,0:0:0:0:
383,271,262519,5,2,1:2:0:0:
324,368,262633,1,2,0:2:0:0:
226,313,262747,1,10,0:2:0:0:
68,367,262860,5,2,1:2:0:0:
54,271,262974,1,2,0:2:0:0:
41,177,263087,1,8,0:2:0:0:
25,159,263201,5,2,1:2:0:0:
121,145,263315,1,2,0:2:0:0:
215,132,263428,1,2,0:2:0:0:
414,53,263542,5,2,1:2:0:0:
318,39,263656,1,2,0:2:0:0:
224,26,263769,1,10,0:2:0:0:
199,16,263883,5,2,1:2:0:0:
212,110,263996,1,2,0:2:0:0:
226,206,264110,1,2,0:2:0:0:
212,227,264224,5,2,1:2:0:0:
327,168,264337,1,0,0:0:0:0:
439,216,264451,1,8,0:2:0:0:
434,233,264565,5,2,1:2:0:0:
338,157,264678,1,2,0:2:0:0:
334,35,264792,1,2,0:2:0:0:
347,27,264906,5,2,1:2:0:0:
324,152,265019,1,0,0:0:0:0:
205,200,265133,1,8,0:2:0:0:
187,196,265246,5,2,1:2:0:0:
299,251,265360,1,0,0:0:0:0:
298,358,265474,1,8,0:2:0:0:
307,366,265587,5,2,1:2:0:0:
200,309,265701,1,2,0:2:0:0:
89,352,265815,1,0,0:0:0:0:
81,358,265928,5,2,1:2:0:0:
9,280,266042,1,0,0:0:0:0:
60,180,266156,1,8,0:2:0:0:
69,187,266269,5,2,1:2:0:0:
186,211,266383,1,0,0:0:0:0:
306,142,266496,1,2,0:2:0:0:
437,201,266610,6,0,P|471:261|463:311,1,84,2|0,1:2|0:0,0:0:0:0:
495,73,266838,5,2,1:2:0:0:
396,103,266951,1,0,0:0:0:0:
290,137,267065,1,8,0:2:0:0:
287,158,267178,5,2,1:2:0:0:
362,228,267291,1,2,0:2:0:0:
444,303,267405,1,0,0:0:0:0:
465,296,267519,5,2,1:2:0:0:
488,195,267632,1,2,0:2:0:0:
507,81,267747,2,0,P|509:29|489:-6,1,84,8|2,0:2|1:2,0:0:0:0:
399,117,267974,5,8,0:2:0:0:
279,183,268088,5,8,0:2:0:0:
144,166,268201,5,8,0:2:0:0:
64,53,268315,5,8,0:2:0:0:
155,2,268428,6,0,L|146:81,1,79.7999978691102,14|0,0:2|0:0,0:0:0:0:
53,187,268655,1,8,0:2:0:0:
256,82,268768,6,0,L|247:161,1,79.7999978691102,2|0,1:2|0:0,0:0:0:0:
154,267,268995,1,0,1:0:0:0:
325,376,269109,6,0,P|306:301|236:267,1,159.59999573822,10|0,0:2|0:0,0:0:0:0:
19,313,269450,2,0,P|93:334|156:290,1,159.59999573822,2|0,1:2|0:0,0:0:0:0:
136,62,269791,5,2,0:2:0:0:
110,146,269905,1,0,1:0:0:0:
174,212,270018,1,8,0:2:0:0:
329,133,270132,6,0,B|360:118|360:118|493:160,1,159.59999573822,6|8,0:2|0:2,0:0:0:0:
496,329,270473,2,0,B|465:344|465:344|345:306,1,159.59999573822,2|0,0:2|1:0,0:0:0:0:
126,288,270814,5,10,0:2:0:0:
216,374,270928,1,0,1:0:0:0:
329,320,271041,1,0,0:0:0:0:
313,178,271155,5,2,0:2:0:0:
223,92,271269,1,8,0:2:0:0:
110,146,271382,1,0,0:0:0:0:
206,245,271496,6,0,P|208:213|230:165,1,79.7999978691102,2|10,0:2|0:2,0:0:0:0:
473,62,271724,6,0,P|393:85|312:65,1,168,14|8,0:2|0:2,0:0:0:0:
177,4,272064,5,2,1:2:0:0:
36,45,272178,1,0,0:0:0:0:
42,177,272292,1,0,1:0:0:0:
218,119,272405,6,0,L|112:101,1,84,10|0,0:2|1:0,0:0:0:0:
23,183,272633,1,0,0:0:0:0:
293,217,272746,6,0,L|187:199,1,84,2|8,1:2|0:2,0:0:0:0:
98,281,272974,1,0,0:0:0:0:
370,320,273087,6,0,L|264:302,1,84,2|0,1:2|1:0,0:0:0:0:
175,384,273315,1,8,0:2:0:0:
0,266,273428,6,0,P|24:190|102:172,1,168,6|8,0:2|0:2,0:0:0:0:
287,305,273769,2,0,P|208:321|153:263,1,168,2|0,1:2|1:0,0:0:0:0:
209,26,274110,5,10,0:2:0:0:
262,99,274224,1,0,1:0:0:0:
200,179,274337,1,0,0:0:0:0:
83,71,274451,6,0,P|45:61|3:40,2,84,2|8|0,1:2|0:2|0:0,0:0:0:0:
333,8,274792,5,2,1:2:0:0:
406,180,274905,5,2,1:2:0:0:
239,253,275019,5,14,1:2:0:0:
260,247,275359,6,0,P|261:232|271:204,1,37.7999988464356,2|0,1:2|0:0,0:0:0:0:
280,256,275700,6,0,P|288:243|311:224,1,37.7999988464356,2|0,1:2|0:0,0:0:0:0:
298,272,276041,6,0,P|311:265|340:260,1,37.7999988464356,2|0,1:2|0:0,0:0:0:0:
306,302,276382,6,0,P|324:303|342:309,1,37.7999988464356,2|0,1:2|0:0,0:0:0:0:
306,328,276723,5,2,1:2:0:0:
215,348,276837,1,0,0:0:0:0:
130,363,276950,2,0,L|138:287,1,75.5999976928712,2|2,1:2|0:2,0:0:0:0:
138,287,277121,1,0,1:0:0:0:
138,287,277178,1,0,1:2:0:0:
0,156,277291,5,2,0:2:0:0:
86,128,277405,2,0,L|97:219,1,75.5999976928712,2|2,1:2|0:2,0:0:0:0:
112,31,277632,5,0,1:2:0:0:
26,3,277746,2,0,L|15:94,1,75.5999976928712,2|0,0:2|1:2,0:0:0:0:
188,140,277973,5,2,0:2:0:0:
209,133,278030,1,2,1:2:0:0:
231,127,278087,1,2,1:2:0:0:
252,120,278144,1,2,1:2:0:0:
273,115,278200,1,2,0:2:0:0:
354,158,278314,5,0,1:2:0:0:
408,106,278428,2,0,P|405:54|365:24,1,75.5999976928712,2|0,0:2|1:2,0:0:0:0:
391,37,278598,1,0,1:0:0:0:
391,37,278655,1,2,0:2:0:0:
482,179,278769,6,0,P|438:197|421:243,1,75.5999976928712,2|0,1:2|1:2,0:0:0:0:
424,219,278939,1,0,1:0:0:0:
424,219,278996,1,0,1:2:0:0:
487,343,279109,2,0,L|403:328,1,75.5999976928712,2|0,0:2|1:2,0:0:0:0:
332,286,279337,5,2,0:2:0:0:
325,307,279394,1,2,1:2:0:0:
319,329,279451,1,2,1:2:0:0:
312,350,279508,1,2,1:2:0:0:
307,371,279564,1,0,1:2:0:0:
215,362,279678,5,0,1:2:0:0:
172,291,279791,2,0,P|161:254|161:217,1,75.5999976928712,2|0,0:2|1:2,0:0:0:0:
364,80,280019,5,2,0:2:0:0:
324,152,280132,2,0,P|297:179|265:198,1,75.5999976928712,2|0,1:2|1:2,0:0:0:0:
121,190,280359,1,0,1:0:0:0:
72,66,280473,5,8,0:2:0:0:
292,28,280587,5,8,0:2:0:0:
512,0,280700,5,8,0:2:0:0:
