osu file format v14

[General]
AudioFilename: audio.mp3
AudioLeadIn: 0
PreviewTime: 130492
Countdown: 0
SampleSet: Soft
StackLeniency: 0.7
Mode: 3
LetterboxInBreaks: 0
SpecialStyle: 0
WidescreenStoryboard: 1

[Editor]
Bookmarks: 224761,239531,305992,313377,335531
DistanceSpacing: 1
BeatDivisor: 4
GridSize: 4
TimelineZoom: 2.3

[Metadata]
Title:How You Like That / Wonderland / Side Effects / KTL / Horizon MASHUP
TitleUnicode:How You Like That / Wonderland / Side Effects / KTL / Horizon MASHUP
Artist:BLACKPINK x ATEEZ x STRAY KIDS
ArtistUnicode:블랙핑크 x 에이티즈 x 스트레이 키즈
Creator:Flexo123
Version:LOOK AT ME
Source:
Tags:kpop korean pop k-pop hip hop trap The Black Label YG Entertainment The Album SKZ2020 Into the A to Z remix Teddy Park Bekuh Boom electropop Danny Chung R. Tee 24 Treasure EP.Fin: All to Action Kill This Love 에이티즈 지평선 부작용 Wonderland (Sean Oh's Skrt Mix) NCT Dream Boom Minit Remix Answer Miggy Smallz marathon FAMoss BLΛƆKPIИK 블랙핑크 스트레이 키즈
BeatmapID:2961012
BeatmapSetID:1439071

[Difficulty]
HPDrainRate:7
CircleSize:7
OverallDifficulty:7
ApproachRate:5
SliderMultiplier:1.4
SliderTickRate:1

[Events]
//Background and Video events
0,0,"bgg.png",0,0
//Break Periods
//Storyboard Layer 0 (Background)
//Storyboard Layer 1 (Fail)
//Storyboard Layer 2 (Pass)
//Storyboard Layer 3 (Foreground)
//Storyboard Layer 4 (Overlay)
//Storyboard Sound Samples

[TimingPoints]
1860,461.538461538462,4,2,1,50,1,0
49860,454.545454545455,4,2,1,50,1,0
49860,-102.040816326531,4,2,1,50,0,0
64405,460.652591170826,4,2,1,50,1,0
79119,454.545454545455,4,2,1,50,1,0
79119,-102.040816326531,4,2,1,50,0,0
90937,458.015267175573,4,2,1,50,1,0
90937,-101.010101010101,4,2,1,50,0,0
93685,461.538461538462,4,2,1,50,1,0
119531,-100,4,2,1,50,0,1
123223,-100,4,2,1,50,0,0
130608,-100,4,2,1,50,0,1
132454,-100,4,2,1,50,0,0
132915,-100,4,2,1,50,0,1
141685,-100,4,2,1,50,0,0
149069,-100,4,2,1,50,0,1
162915,-100,4,2,1,50,0,0
163838,-100,4,2,1,50,0,1
174915,-100,4,2,1,50,0,0
224761,-100,4,2,1,50,0,1
239531,-100,4,2,1,50,0,0
305992,-100,4,2,1,50,0,1
335531,-100,4,2,1,50,0,0

[HitObjects]
329,192,1167,128,0,1283:0:0:0:0:
329,192,1398,128,0,1629:0:0:0:0:
182,192,1629,128,0,1860:0:0:0:0:
36,192,1860,128,0,3706:0:0:0:0:
475,192,1860,1,0,0:0:0:0:
329,192,1860,128,0,2783:0:0:0:0:
256,192,3013,128,0,3244:0:0:0:0:
182,192,3244,128,0,3360:0:0:0:0:
182,192,3475,128,0,3706:0:0:0:0:
475,192,3706,128,0,5552:0:0:0:0:
256,192,3706,1,0,0:0:0:0:
329,192,3706,128,0,4629:0:0:0:0:
182,192,4860,128,0,4975:0:0:0:0:
182,192,5090,128,0,5321:0:0:0:0:
36,192,5321,128,0,5436:0:0:0:0:
36,192,5552,128,0,6013:0:0:0:0:
329,192,5552,128,0,6475:0:0:0:0:
182,192,5552,1,0,0:0:0:0:
109,192,6013,128,0,6129:0:0:0:0:
109,192,6244,128,0,6475:0:0:0:0:
182,192,6475,128,0,7398:0:0:0:0:
475,192,6475,1,0,0:0:0:0:
402,192,6475,128,0,6706:0:0:0:0:
329,192,6706,128,0,6821:0:0:0:0:
329,192,6936,128,0,7398:0:0:0:0:
36,192,7398,128,0,9244:0:0:0:0:
256,192,7398,128,0,8321:0:0:0:0:
402,192,7398,1,0,0:0:0:0:
329,192,8321,1,0,0:0:0:0:
109,192,8321,1,0,0:0:0:0:
475,192,8321,128,0,9244:0:0:0:0:
329,192,8552,128,0,8667:0:0:0:0:
329,192,8783,128,0,9013:0:0:0:0:
182,192,8783,1,0,0:0:0:0:
256,192,9013,128,0,9244:0:0:0:0:
182,192,9244,128,0,11090:0:0:0:0:
109,192,9244,1,0,0:0:0:0:
329,192,9244,128,0,10167:0:0:0:0:
329,192,10398,128,0,10513:0:0:0:0:
329,192,10629,128,0,10860:0:0:0:0:
402,192,10860,128,0,10975:0:0:0:0:
329,192,11090,128,0,12936:0:0:0:0:
402,192,11090,1,0,0:0:0:0:
36,192,11090,128,0,12013:0:0:0:0:
182,192,12244,128,0,12360:0:0:0:0:
182,192,12475,128,0,12706:0:0:0:0:
36,192,12706,128,0,12821:0:0:0:0:
256,192,12936,128,0,13398:0:0:0:0:
109,192,12936,128,0,13860:0:0:0:0:
475,192,12936,1,0,0:0:0:0:
329,192,13398,128,0,13513:0:0:0:0:
329,192,13629,128,0,13860:0:0:0:0:
256,192,13860,128,0,14783:0:0:0:0:
36,192,13860,1,0,0:0:0:0:
475,192,13860,128,0,13975:0:0:0:0:
475,192,14090,128,0,14321:0:0:0:0:
329,192,14321,128,0,14783:0:0:0:0:
402,192,14783,128,0,16629:0:0:0:0:
36,192,14783,1,0,0:0:0:0:
182,192,14783,128,0,15706:0:0:0:0:
36,192,15706,128,0,16629:0:0:0:0:
256,192,15706,1,0,0:0:0:0:
475,192,15706,1,0,0:0:0:0:
109,192,16167,1,0,0:0:0:0:
182,192,16167,128,0,16283:0:0:0:0:
182,192,16398,128,0,16513:0:0:0:0:
475,192,16629,128,0,18475:0:0:0:0:
256,192,16629,1,0,0:0:0:0:
329,192,16629,128,0,16860:0:0:0:0:
329,192,16975,1,0,0:0:0:0:
182,192,17090,128,0,17206:0:0:0:0:
182,192,17321,128,0,17552:0:0:0:0:
329,192,17552,128,0,17783:0:0:0:0:
329,192,17898,1,0,0:0:0:0:
182,192,18013,128,0,18129:0:0:0:0:
182,192,18244,128,0,18475:0:0:0:0:
329,192,18475,128,0,20321:0:0:0:0:
256,192,18475,1,0,0:0:0:0:
36,192,18475,128,0,18706:0:0:0:0:
36,192,18821,1,0,0:0:0:0:
182,192,18936,128,0,19052:0:0:0:0:
182,192,19167,128,0,19398:0:0:0:0:
256,192,19398,128,0,19860:0:0:0:0:
402,192,20090,128,0,20206:0:0:0:0:
109,192,20321,128,0,21244:0:0:0:0:
402,192,20321,128,0,20783:0:0:0:0:
256,192,20321,1,0,0:0:0:0:
329,192,20783,128,0,20898:0:0:0:0:
329,192,21013,128,0,21244:0:0:0:0:
256,192,21244,128,0,22167:0:0:0:0:
182,192,21244,1,0,0:0:0:0:
475,192,21244,128,0,21475:0:0:0:0:
475,192,21590,1,0,0:0:0:0:
329,192,21706,128,0,21821:0:0:0:0:
329,192,21936,128,0,22167:0:0:0:0:
182,192,22167,128,0,22398:0:0:0:0:
475,192,22167,128,0,24013:0:0:0:0:
36,192,22167,1,0,0:0:0:0:
182,192,22513,1,0,0:0:0:0:
256,192,22629,128,0,22744:0:0:0:0:
256,192,22860,128,0,23090:0:0:0:0:
329,192,23090,128,0,24013:0:0:0:0:
36,192,23090,1,0,0:0:0:0:
109,192,23090,128,0,23206:0:0:0:0:
109,192,23321,128,0,23552:0:0:0:0:
182,192,23552,128,0,23783:0:0:0:0:
36,192,24013,128,0,25860:0:0:0:0:
256,192,24013,1,0,0:0:0:0:
182,192,24013,128,0,24244:0:0:0:0:
182,192,24360,1,0,0:0:0:0:
329,192,24475,128,0,24706:0:0:0:0:
182,192,24783,128,0,24936:0:0:0:0:
329,192,25052,128,0,25283:0:0:0:0:
256,192,25398,128,0,25629:0:0:0:0:
329,192,25629,128,0,25744:0:0:0:0:
182,192,25860,128,0,27706:0:0:0:0:
329,192,25860,1,0,0:0:0:0:
402,192,25860,128,0,26090:0:0:0:0:
402,192,26206,1,0,0:0:0:0:
329,192,26321,128,0,26436:0:0:0:0:
329,192,26552,128,0,26783:0:0:0:0:
256,192,26783,128,0,27244:0:0:0:0:
402,192,27244,1,0,0:0:0:0:
109,192,27360,128,0,27706:0:0:0:0:
329,192,27706,128,0,28629:0:0:0:0:
256,192,27706,1,0,0:0:0:0:
36,192,27706,128,0,28167:0:0:0:0:
182,192,28167,1,0,0:0:0:0:
109,192,28283,128,0,28513:0:0:0:0:
475,192,28629,128,0,29552:0:0:0:0:
109,192,28629,1,0,0:0:0:0:
36,192,28629,128,0,28975:0:0:0:0:
109,192,29090,128,0,29436:0:0:0:0:
36,192,29552,128,0,30475:0:0:0:0:
182,192,29552,1,0,0:0:0:0:
329,192,29552,128,0,29667:0:0:0:0:
329,192,29783,128,0,30013:0:0:0:0:
475,192,29783,1,0,0:0:0:0:
402,192,30013,128,0,30129:0:0:0:0:
182,192,30013,1,0,0:0:0:0:
182,192,30244,1,0,0:0:0:0:
402,192,30244,128,0,30475:0:0:0:0:
475,192,30475,128,0,30936:0:0:0:0:
109,192,30475,1,0,0:0:0:0:
256,192,30475,128,0,30590:0:0:0:0:
256,192,30706,128,0,30936:0:0:0:0:
36,192,30936,1,0,0:0:0:0:
329,192,30936,1,0,0:0:0:0:
109,192,31052,1,0,0:0:0:0:
256,192,31052,1,0,0:0:0:0:
182,192,31167,1,0,0:0:0:0:
402,192,31167,1,0,0:0:0:0:
329,192,31283,1,0,0:0:0:0:
256,192,31283,1,0,0:0:0:0:
182,192,31398,1,0,0:0:0:0:
109,192,31398,1,0,0:0:0:50:Cymatics - Snare 2 - E.wav
36,192,31398,128,0,31629:0:0:0:50:LR_Kick Bass strong.wav
36,192,31744,1,0,0:0:0:0:
256,192,31744,1,0,0:0:0:0:
329,192,31860,128,0,31975:0:0:0:0:
182,192,31860,1,0,0:0:0:0:
475,192,31860,1,0,0:0:0:50:Cymatics - Snare 2 - E.wav
329,192,32090,128,0,32321:0:0:0:0:
109,192,32090,1,0,0:0:0:0:
402,192,32321,1,0,0:0:0:0:
109,192,32321,1,0,0:0:0:0:
182,192,32321,128,0,32667:0:0:0:50:Cymatics - Snare 2 - E.wav
475,192,32552,1,0,0:0:0:0:
329,192,32552,128,0,32667:0:0:0:0:
329,192,32783,1,0,0:0:0:0:
36,192,32783,128,0,33244:0:0:0:0:
182,192,32783,128,0,33244:0:0:0:50:Cymatics - Snare 2 - E.wav
256,192,33244,1,0,0:0:0:0:
475,192,33244,1,0,0:0:0:0:
329,192,33244,128,0,33475:0:0:0:50:Cymatics - Snare 2 - E.wav
329,192,33590,1,0,0:0:0:0:
182,192,33590,1,0,0:0:0:0:
256,192,33706,1,0,0:0:0:0:
36,192,33706,1,0,0:0:0:0:
109,192,33706,128,0,33821:0:0:0:50:Cymatics - Snare 2 - E.wav
109,192,33936,128,0,34167:0:0:0:0:
329,192,33936,1,0,0:0:0:0:
256,192,34167,1,0,0:0:0:0:
182,192,34167,1,0,0:0:0:0:
402,192,34167,128,0,34513:0:0:0:50:Cymatics - Snare 2 - E.wav
182,192,34398,128,0,34513:0:0:0:0:
36,192,34398,1,0,0:0:0:0:
402,192,34629,1,0,0:0:0:0:
109,192,34629,128,0,34975:0:0:0:0:
182,192,34629,128,0,34975:0:0:0:50:Cymatics - Snare 2 - E.wav
109,192,35090,1,0,0:0:0:0:
256,192,35090,1,0,0:0:0:0:
329,192,35090,128,0,35321:0:0:0:50:Cymatics - Snare 2 - E.wav
329,192,35436,1,0,0:0:0:0:
182,192,35436,1,0,0:0:0:0:
256,192,35552,1,0,0:0:0:0:
475,192,35552,1,0,0:0:0:0:
402,192,35552,128,0,35667:0:0:0:50:Cymatics - Snare 2 - E.wav
402,192,35783,128,0,36013:0:0:0:0:
182,192,35783,1,0,0:0:0:0:
256,192,36013,1,0,0:0:0:0:
36,192,36013,1,0,0:0:0:0:
109,192,36013,128,0,36129:0:0:0:50:Cymatics - Snare 2 - E.wav
109,192,36244,128,0,36475:0:0:0:0:
329,192,36244,1,0,0:0:0:0:
256,192,36475,1,0,0:0:0:0:
402,192,36475,128,0,36821:0:0:0:0:
182,192,36475,128,0,36821:0:0:0:50:Cymatics - Snare 2 - E.wav
329,192,36936,1,0,0:0:0:0:
36,192,36936,128,0,37167:0:0:0:0:
182,192,36936,1,0,0:0:0:50:Cymatics - Snare 2 - E.wav
36,192,37283,1,0,0:0:0:0:
256,192,37283,1,0,0:0:0:0:
182,192,37398,1,0,0:0:0:0:
475,192,37398,1,0,0:0:0:0:
402,192,37398,128,0,37513:0:0:0:50:Cymatics - Snare 2 - E.wav
256,192,37744,1,0,0:0:0:0:
402,192,37744,1,0,0:0:0:0:
109,192,37860,1,0,0:0:0:0:
329,192,37860,128,0,38090:0:0:0:0:
182,192,37860,1,0,0:0:0:50:Cymatics - Snare 2 - E.wav
182,192,38090,128,0,38206:0:0:0:0:
36,192,38090,1,0,0:0:0:0:
182,192,38321,1,0,0:0:0:0:
109,192,38321,128,0,38667:0:0:0:0:
402,192,38321,1,0,0:0:0:50:Cymatics - Snare 2 - E.wav
329,192,38436,1,0,0:0:0:0:
475,192,38552,1,0,0:0:0:0:
256,192,38667,1,0,0:0:0:0:
109,192,38783,1,0,0:0:0:0:
36,192,38783,1,0,0:0:0:50:LR_Kick Bass strong.wav
402,192,38783,128,0,39013:0:0:0:50:Cymatics - Snare 2 - E.wav
402,192,39129,1,0,0:0:0:0:
182,192,39129,1,0,0:0:0:0:
329,192,39244,1,0,0:0:0:0:
109,192,39244,1,0,0:0:0:0:
256,192,39244,128,0,39360:0:0:0:50:Cymatics - Snare 2 - E.wav
256,192,39475,128,0,39706:0:0:0:0:
402,192,39475,1,0,0:0:0:0:
36,192,39706,1,0,0:0:0:0:
329,192,39706,128,0,39821:0:0:0:0:
109,192,39706,1,0,0:0:0:50:Cymatics - Snare 2 - E.wav
329,192,39936,128,0,40167:0:0:0:0:
182,192,39936,1,0,0:0:0:0:
256,192,40167,1,0,0:0:0:0:
402,192,40167,128,0,40513:0:0:0:0:
36,192,40167,128,0,40513:0:0:0:50:Cymatics - Snare 2 - E.wav
36,192,40629,1,0,0:0:0:0:
329,192,40629,1,0,0:0:0:0:
182,192,40629,128,0,40860:0:0:0:50:Cymatics - Snare 2 - E.wav
182,192,40975,1,0,0:0:0:0:
402,192,40975,1,0,0:0:0:0:
329,192,41090,1,0,0:0:0:0:
36,192,41090,1,0,0:0:0:0:
109,192,41090,128,0,41206:0:0:0:50:Cymatics - Snare 2 - E.wav
109,192,41321,128,0,41552:0:0:0:0:
256,192,41321,1,0,0:0:0:0:
475,192,41552,1,0,0:0:0:0:
329,192,41552,128,0,41667:0:0:0:0:
182,192,41552,1,0,0:0:0:50:Cymatics - Snare 2 - E.wav
329,192,41783,128,0,42013:0:0:0:0:
109,192,41783,1,0,0:0:0:0:
256,192,42013,1,0,0:0:0:0:
182,192,42013,128,0,42360:0:0:0:0:
402,192,42013,128,0,42360:0:0:0:50:Cymatics - Snare 2 - E.wav
182,192,42475,1,0,0:0:0:0:
109,192,42475,1,0,0:0:0:0:
329,192,42475,128,0,42821:0:0:0:50:Cymatics - Snare 2 - E.wav
182,192,42821,1,0,0:0:0:0:
36,192,42821,1,0,0:0:0:0:
329,192,42936,1,0,0:0:0:0:
256,192,42936,1,0,0:0:0:0:
402,192,42936,128,0,43052:0:0:0:50:Cymatics - Snare 2 - E.wav
402,192,43167,1,0,0:0:0:0:
182,192,43167,128,0,43283:0:0:0:0:
182,192,43398,1,0,0:0:0:0:
109,192,43398,128,0,43629:0:0:0:0:
329,192,43398,1,0,0:0:0:50:Cymatics - Snare 2 - E.wav
256,192,43744,1,0,0:0:0:0:
402,192,43744,1,0,0:0:0:0:
182,192,43860,128,0,44206:0:0:0:0:
36,192,43860,1,0,0:0:0:0:
109,192,43860,128,0,44206:0:0:0:50:Cymatics - Snare 2 - E.wav
182,192,44321,1,0,0:0:0:0:
36,192,44321,1,0,0:0:0:0:
256,192,44321,128,0,44552:0:0:0:50:Cymatics - Snare 2 - E.wav
256,192,44667,1,0,0:0:0:0:
402,192,44667,1,0,0:0:0:0:
329,192,44783,1,0,0:0:0:0:
36,192,44783,1,0,0:0:0:0:
109,192,44783,128,0,45013:0:0:0:50:Cymatics - Snare 2 - E.wav
182,192,45129,1,0,0:0:0:0:
329,192,45129,1,0,0:0:0:0:
109,192,45244,1,0,0:0:0:0:
36,192,45244,1,0,0:0:0:0:
256,192,45244,128,0,45475:0:0:0:50:Cymatics - Snare 2 - E.wav
329,192,45475,128,0,45590:0:0:0:0:
475,192,45475,1,0,0:0:0:0:
329,192,45706,1,0,0:0:0:0:
256,192,45706,1,0,0:0:0:0:
109,192,45706,128,0,46052:0:0:0:50:Cymatics - Snare 2 - E.wav
402,192,45821,1,0,0:0:0:0:
182,192,45936,1,0,0:0:0:0:
329,192,46052,1,0,0:0:0:0:
256,192,46167,128,0,47783:0:0:0:0:
475,192,46167,1,0,0:0:0:0:
109,192,46167,1,0,0:0:0:0:
36,192,46167,1,0,0:0:0:0:
329,192,47090,128,0,47783:0:0:0:0:
182,192,47090,128,0,47783:0:0:0:0:
109,192,49860,1,0,0:0:0:0:
329,192,49860,1,0,0:0:0:0:
475,192,49860,128,0,50769:0:0:0:0:
182,192,49860,128,0,50011:0:0:0:50:LR_Kick Bass strong.wav
402,192,50163,1,0,0:0:0:0:
182,192,50163,128,0,50466:0:0:0:0:
256,192,50314,1,0,0:0:0:0:
36,192,50314,1,0,0:0:0:0:
329,192,50314,128,0,50617:0:0:0:0:
182,192,50617,1,0,0:0:0:0:
109,192,50617,128,0,50769:0:0:0:0:
329,192,50769,1,0,0:0:0:0:
256,192,50769,128,0,51223:0:0:0:0:
36,192,50769,1,0,0:0:0:70:Snare 3 - B.wav
475,192,51223,1,0,0:0:0:0:
36,192,51223,1,0,0:0:0:0:
182,192,51223,128,0,51375:0:0:0:0:
182,192,51526,1,0,0:0:0:0:
402,192,51526,128,0,51678:0:0:0:0:
109,192,51678,1,0,0:0:0:0:
36,192,51678,128,0,52587:0:0:0:0:
329,192,51678,128,0,51981:0:0:0:0:
256,192,51981,128,0,52132:0:0:0:0:
475,192,51981,1,0,0:0:0:0:
402,192,52132,128,0,52284:0:0:0:0:
182,192,52132,1,0,0:0:0:0:
109,192,52132,1,0,0:0:0:50:LR_Kick Bass strong.wav
402,192,52435,1,0,0:0:0:0:
182,192,52435,128,0,52587:0:0:0:0:
475,192,52587,128,0,53496:0:0:0:0:
256,192,52587,1,0,0:0:0:0:
329,192,52587,1,0,0:0:0:70:Snare 3 - B.wav
329,192,52738,1,0,0:0:0:0:
182,192,52890,1,0,0:0:0:0:
182,192,53041,1,0,0:0:0:0:
402,192,53041,128,0,53193:0:0:0:0:
109,192,53193,1,0,0:0:0:0:
402,192,53344,1,0,0:0:0:0:
182,192,53344,128,0,53496:0:0:0:0:
329,192,53496,128,0,54405:0:0:0:0:
256,192,53496,1,0,0:0:0:0:
36,192,53496,128,0,53647:0:0:0:50:LR_Kick Bass strong.wav
36,192,53799,128,0,54102:0:0:0:0:
182,192,53799,1,0,0:0:0:0:
182,192,53950,1,0,0:0:0:0:
475,192,53950,1,0,0:0:0:0:
256,192,53950,128,0,54253:0:0:0:0:
36,192,54253,1,0,0:0:0:0:
109,192,54253,128,0,54405:0:0:0:0:
182,192,54405,128,0,55314:0:0:0:0:
256,192,54405,1,0,0:0:0:0:
475,192,54405,128,0,54860:0:0:0:70:Snare 3 - B.wav
329,192,54708,1,0,0:0:0:0:
256,192,54860,1,0,0:0:0:0:
402,192,54860,128,0,55163:0:0:0:0:
36,192,54860,1,0,0:0:0:0:
329,192,55163,1,0,0:0:0:0:
36,192,55314,128,0,56223:0:0:0:0:
256,192,55314,128,0,55617:0:0:0:0:
475,192,55314,1,0,0:0:0:0:
329,192,55617,1,0,0:0:0:0:
109,192,55617,128,0,55769:0:0:0:0:
256,192,55769,1,0,0:0:0:0:
182,192,55769,1,0,0:0:0:0:
475,192,55769,1,0,0:0:0:50:LR_Kick Bass strong.wav
402,192,55844,1,0,0:0:0:0:
329,192,55920,1,0,0:0:0:0:
475,192,55996,1,0,0:0:0:0:
109,192,55996,1,0,0:0:0:0:
256,192,56072,1,0,0:0:0:0:
402,192,56147,1,0,0:0:0:0:
182,192,56223,128,0,57132:0:0:0:0:
329,192,56223,1,0,0:0:0:0:
109,192,56223,1,0,0:0:0:70:Snare 3 - B.wav
329,192,56375,1,0,0:0:0:0:
256,192,56526,1,0,0:0:0:0:
36,192,56678,1,0,0:0:0:0:
109,192,56678,128,0,56829:0:0:0:0:
329,192,56678,1,0,0:0:0:0:
329,192,56829,1,0,0:0:0:0:
402,192,56905,1,0,0:0:0:0:
475,192,56905,1,0,0:0:0:0:
256,192,56981,1,0,0:0:0:0:
329,192,56981,1,0,0:0:0:0:
402,192,57056,1,0,0:0:0:0:
475,192,57056,1,0,0:0:0:0:
109,192,57132,1,0,0:0:0:0:
36,192,57132,128,0,58041:0:0:0:0:
256,192,57132,128,0,57435:0:0:0:50:LR_Kick Bass strong.wav
329,192,57435,1,0,0:0:0:0:
182,192,57435,128,0,57587:0:0:0:0:
329,192,57587,128,0,57890:0:0:0:0:
402,192,57587,1,0,0:0:0:0:
109,192,57587,1,0,0:0:0:0:
256,192,57890,1,0,0:0:0:0:
475,192,57890,128,0,58041:0:0:0:0:
109,192,58041,128,0,58950:0:0:0:0:
182,192,58041,1,0,0:0:0:0:
329,192,58041,128,0,58344:0:0:0:70:Snare 3 - B.wav
256,192,58496,1,0,0:0:0:0:
329,192,58496,1,0,0:0:0:0:
475,192,58496,128,0,58799:0:0:0:0:
329,192,58799,128,0,58950:0:0:0:0:
36,192,58799,1,0,0:0:0:0:
182,192,58950,128,0,59860:0:0:0:0:
475,192,58950,1,0,0:0:0:0:
402,192,58950,128,0,59253:0:0:0:0:
256,192,59253,1,0,0:0:0:0:
109,192,59253,128,0,59405:0:0:0:0:
329,192,59405,1,0,0:0:0:0:
475,192,59405,1,0,0:0:0:0:
256,192,59405,128,0,59708:0:0:0:50:LR_Kick Bass strong.wav
329,192,59708,1,0,0:0:0:0:
109,192,59708,128,0,59860:0:0:0:0:
36,192,59860,128,0,60769:0:0:0:0:
256,192,59860,128,0,60163:0:0:0:0:
402,192,59860,1,0,0:0:0:70:Snare 3 - B.wav
182,192,60011,1,0,0:0:0:0:
329,192,60163,1,0,0:0:0:0:
475,192,60314,1,0,0:0:0:0:
109,192,60314,128,0,60617:0:0:0:0:
256,192,60314,1,0,0:0:0:0:
329,192,60466,1,0,0:0:0:0:
182,192,60617,1,0,0:0:0:0:
402,192,60617,128,0,60769:0:0:0:0:
475,192,60769,128,0,61678:0:0:0:0:
182,192,60769,1,0,0:0:0:0:
256,192,60769,128,0,60920:0:0:0:50:LR_Kick Bass strong.wav
256,192,61072,1,0,0:0:0:0:
329,192,61072,128,0,61375:0:0:0:0:
36,192,61223,1,0,0:0:0:0:
402,192,61223,1,0,0:0:0:0:
182,192,61223,128,0,61526:0:0:0:0:
109,192,61526,1,0,0:0:0:0:
329,192,61526,128,0,61678:0:0:0:0:
36,192,61678,128,0,62132:0:0:0:0:
402,192,61678,128,0,62587:0:0:0:0:
256,192,61678,1,0,0:0:0:70:Snare 3 - B.wav
475,192,62132,1,0,0:0:0:0:
182,192,62132,128,0,62587:0:0:0:0:
329,192,62132,1,0,0:0:0:0:
109,192,62435,1,0,0:0:0:0:
36,192,62435,128,0,62587:0:0:0:0:
329,192,62587,128,0,63496:0:0:0:0:
256,192,62587,1,0,0:0:0:0:
475,192,62587,128,0,62890:0:0:0:0:
182,192,62890,128,0,63041:0:0:0:0:
36,192,62890,1,0,0:0:0:0:
256,192,63041,1,0,0:0:0:0:
402,192,63041,1,0,0:0:0:0:
109,192,63041,128,0,63344:0:0:0:0:
182,192,63344,1,0,0:0:0:0:
402,192,63344,128,0,63496:0:0:0:0:
256,192,63496,1,0,0:0:0:0:
109,192,63496,1,0,0:0:0:0:
36,192,63496,1,0,0:0:0:50:LR_Kick Bass strong.wav
109,192,63647,1,0,0:0:0:0:
36,192,63647,1,0,0:0:0:0:
329,192,63647,1,0,0:0:0:50:LR_Kick Bass strong.wav
182,192,63799,1,0,0:0:0:0:
402,192,63799,1,0,0:0:0:0:
475,192,63799,1,0,0:0:0:50:LR_Kick Bass strong.wav
402,192,63950,1,0,0:0:0:0:
475,192,63950,1,0,0:0:0:0:
256,192,63950,1,0,0:0:0:50:LR_Kick Bass strong.wav
182,192,64102,1,0,0:0:0:0:
36,192,64102,1,0,0:0:0:0:
329,192,64102,1,0,0:0:0:50:LR_Kick Bass strong.wav
109,192,64253,1,0,0:0:0:0:
402,192,64253,1,0,0:0:0:0:
182,192,64253,1,0,0:0:0:50:LR_Kick Bass strong.wav
329,192,64405,1,0,0:0:0:0:
475,192,64405,1,0,0:0:0:0:
36,192,64405,128,0,65326:0:0:0:0:
256,192,64405,128,0,64750:0:0:0:50:LR_Kick Bass strong.wav
182,192,64750,1,0,0:0:0:0:
256,192,64865,1,0,0:0:0:0:
475,192,64865,1,0,0:0:0:0:
329,192,64865,128,0,65095:0:0:0:0:
182,192,65095,1,0,0:0:0:0:
402,192,65095,128,0,65211:0:0:0:0:
109,192,65326,128,0,65902:0:0:0:0:
329,192,65326,1,0,0:0:0:0:
256,192,65326,1,0,0:0:0:50:Cymatics - Snare 2 - E.wav
256,192,65441,128,0,65556:0:0:0:0:
402,192,65441,1,0,0:0:0:0:
182,192,65671,128,0,65902:0:0:0:0:
329,192,65671,1,0,0:0:0:0:
402,192,65786,1,0,0:0:0:0:
475,192,65786,1,0,0:0:0:0:
256,192,65786,128,0,65902:0:0:0:0:
36,192,66017,128,0,66247:0:0:0:0:
256,192,66017,1,0,0:0:0:0:
475,192,66094,1,0,0:0:0:0:
402,192,66170,1,0,0:0:0:0:
182,192,66247,128,0,67168:0:0:0:0:
109,192,66247,1,0,0:0:0:0:
329,192,66247,128,0,66477:0:0:0:0:
256,192,66477,128,0,66593:0:0:0:0:
36,192,66477,1,0,0:0:0:0:
36,192,66708,1,0,0:0:0:0:
109,192,66708,1,0,0:0:0:0:
256,192,66708,1,0,0:0:0:50:LR_Kick Bass strong.wav
402,192,66785,1,0,0:0:0:0:
329,192,66861,1,0,0:0:0:0:
475,192,66938,1,0,0:0:0:0:
256,192,66938,1,0,0:0:0:0:
402,192,67015,1,0,0:0:0:0:
329,192,67092,1,0,0:0:0:0:
256,192,67168,1,0,0:0:0:0:
36,192,67168,1,0,0:0:0:0:
109,192,67168,128,0,67629:0:0:0:50:Cymatics - Snare 2 - E.wav
329,192,67322,1,0,0:0:0:0:
402,192,67399,1,0,0:0:0:0:
256,192,67476,1,0,0:0:0:0:
402,192,67629,1,0,0:0:0:0:
475,192,67629,1,0,0:0:0:0:
329,192,67629,128,0,67783:0:0:0:0:
182,192,67783,1,0,0:0:0:0:
256,192,67859,1,0,0:0:0:0:
36,192,67859,1,0,0:0:0:0:
109,192,67936,1,0,0:0:0:0:
402,192,67936,1,0,0:0:0:0:
182,192,68013,1,0,0:0:0:0:
256,192,68013,1,0,0:0:0:0:
475,192,68090,128,0,69011:0:0:0:0:
329,192,68090,1,0,0:0:0:0:
36,192,68090,1,0,0:0:0:50:LR_Kick Bass strong.wav
109,192,68205,128,0,68435:0:0:0:0:
182,192,68205,1,0,0:0:0:0:
329,192,68435,1,0,0:0:0:0:
402,192,68435,1,0,0:0:0:0:
256,192,68550,1,0,0:0:0:0:
109,192,68550,1,0,0:0:0:0:
36,192,68550,128,0,68781:0:0:0:0:
182,192,68781,1,0,0:0:0:0:
329,192,68781,1,0,0:0:0:0:
402,192,69011,128,0,69932:0:0:0:0:
36,192,69011,1,0,0:0:0:0:
256,192,69011,128,0,69165:0:0:0:50:Cymatics - Snare 2 - E.wav
109,192,69165,128,0,69318:0:0:0:0:
182,192,69165,1,0,0:0:0:0:
256,192,69318,1,0,0:0:0:0:
329,192,69318,128,0,69472:0:0:0:0:
182,192,69472,1,0,0:0:0:0:
109,192,69472,1,0,0:0:0:0:
36,192,69472,128,0,69817:0:0:0:0:
36,192,69932,1,0,0:0:0:0:
109,192,69932,128,0,70047:0:0:0:0:
256,192,69932,128,0,70393:0:0:0:0:
182,192,70047,128,0,70278:0:0:0:0:
329,192,70047,1,0,0:0:0:0:
402,192,70278,1,0,0:0:0:0:
475,192,70278,1,0,0:0:0:0:
402,192,70393,1,0,0:0:0:0:
36,192,70393,1,0,0:0:0:0:
109,192,70393,1,0,0:0:0:50:LR_Kick Bass strong.wav
182,192,70470,1,0,0:0:0:0:
256,192,70547,1,0,0:0:0:0:
109,192,70623,1,0,0:0:0:0:
329,192,70623,1,0,0:0:0:0:
182,192,70700,1,0,0:0:0:0:
256,192,70777,1,0,0:0:0:0:
402,192,70854,1,0,0:0:0:0:
475,192,70854,1,0,0:0:0:0:
182,192,70854,128,0,71775:0:0:0:50:Cymatics - Snare 2 - E.wav
329,192,71007,1,0,0:0:0:0:
475,192,71084,1,0,0:0:0:0:
256,192,71161,1,0,0:0:0:0:
36,192,71314,1,0,0:0:0:0:
402,192,71314,1,0,0:0:0:0:
329,192,71314,128,0,71429:0:0:0:0:
109,192,71429,1,0,0:0:0:0:
256,192,71429,128,0,71545:0:0:0:0:
475,192,71545,1,0,0:0:0:0:
402,192,71545,1,0,0:0:0:0:
329,192,71621,1,0,0:0:0:0:
256,192,71621,1,0,0:0:0:0:
402,192,71698,1,0,0:0:0:0:
475,192,71698,1,0,0:0:0:0:
329,192,71775,128,0,71928:0:0:0:0:
36,192,71775,128,0,72696:0:0:0:0:
109,192,71775,1,0,0:0:0:50:LR_Kick Bass strong.wav
182,192,71928,128,0,72082:0:0:0:0:
256,192,71928,1,0,0:0:0:0:
329,192,72082,128,0,72236:0:0:0:0:
402,192,72082,1,0,0:0:0:0:
182,192,72236,1,0,0:0:0:0:
475,192,72236,1,0,0:0:0:0:
109,192,72236,128,0,72543:0:0:0:0:
329,192,72389,1,0,0:0:0:0:
256,192,72543,1,0,0:0:0:0:
109,192,72696,128,0,73618:0:0:0:0:
402,192,72696,1,0,0:0:0:0:
329,192,72696,128,0,72773:0:0:0:50:Cymatics - Snare 2 - E.wav
329,192,72850,1,0,0:0:0:0:
182,192,72850,128,0,72927:0:0:0:0:
475,192,72927,1,0,0:0:0:0:
402,192,73003,1,0,0:0:0:0:
256,192,73003,128,0,73080:0:0:0:0:
329,192,73157,1,0,0:0:0:0:
256,192,73157,1,0,0:0:0:0:
475,192,73157,128,0,73387:0:0:0:0:
329,192,73387,1,0,0:0:0:0:
475,192,73618,1,0,0:0:0:0:
402,192,73618,128,0,73694:0:0:0:0:
182,192,73618,128,0,74078:0:0:0:0:
402,192,73771,128,0,73925:0:0:0:0:
256,192,73771,1,0,0:0:0:0:
329,192,73925,128,0,74001:0:0:0:0:
109,192,73925,1,0,0:0:0:0:
256,192,74078,1,0,0:0:0:0:
36,192,74078,1,0,0:0:0:0:
329,192,74078,128,0,74232:0:0:0:50:LR_Kick Bass strong.wav
109,192,74155,1,0,0:0:0:0:
182,192,74232,1,0,0:0:0:0:
402,192,74232,128,0,74309:0:0:0:0:
256,192,74309,1,0,0:0:0:0:
182,192,74385,1,0,0:0:0:0:
402,192,74385,128,0,74539:0:0:0:0:
109,192,74462,1,0,0:0:0:0:
329,192,74539,1,0,0:0:0:0:
256,192,74539,1,0,0:0:0:0:
36,192,74539,128,0,74769:0:0:0:50:Cymatics - Snare 2 - E.wav
182,192,74692,1,0,0:0:0:0:
329,192,74769,1,0,0:0:0:0:
109,192,74846,128,0,74923:0:0:0:0:
256,192,75000,1,0,0:0:0:0:
182,192,75000,1,0,0:0:0:0:
475,192,75000,128,0,75115:0:0:0:0:
329,192,75115,1,0,0:0:0:0:
182,192,75115,128,0,75230:0:0:0:0:
402,192,75230,1,0,0:0:0:0:
475,192,75230,1,0,0:0:0:0:
256,192,75307,128,0,75383:0:0:0:0:
109,192,75307,1,0,0:0:0:0:
329,192,75383,1,0,0:0:0:0:
402,192,75383,1,0,0:0:0:0:
36,192,75460,128,0,76381:0:0:0:0:
256,192,75460,128,0,75614:0:0:0:0:
182,192,75460,1,0,0:0:0:50:LR_Kick Bass strong.wav
475,192,75614,1,0,0:0:0:0:
402,192,75614,128,0,75690:0:0:0:0:
402,192,75767,128,0,75921:0:0:0:0:
182,192,75767,1,0,0:0:0:0:
182,192,75921,1,0,0:0:0:0:
475,192,75921,1,0,0:0:0:0:
256,192,75921,128,0,75998:0:0:0:0:
256,192,76074,128,0,76305:0:0:0:0:
402,192,76074,1,0,0:0:0:0:
329,192,76228,1,0,0:0:0:0:
109,192,76228,1,0,0:0:0:0:
182,192,76381,128,0,77303:0:0:0:0:
256,192,76381,1,0,0:0:0:0:
402,192,76381,128,0,76458:0:0:0:50:Cymatics - Snare 2 - E.wav
402,192,76535,128,0,76689:0:0:0:0:
109,192,76535,1,0,0:0:0:0:
329,192,76689,128,0,76765:0:0:0:0:
36,192,76689,1,0,0:0:0:0:
329,192,76842,128,0,76996:0:0:0:0:
109,192,76842,1,0,0:0:0:0:
475,192,76842,1,0,0:0:0:0:
256,192,76996,128,0,77072:0:0:0:0:
402,192,76996,1,0,0:0:0:0:
256,192,77149,128,0,77303:0:0:0:0:
329,192,77149,1,0,0:0:0:0:
109,192,77303,128,0,78224:0:0:0:0:
475,192,77303,1,0,0:0:0:0:
402,192,77303,128,0,77380:0:0:0:50:Cymatics - Snare 2 - E.wav
402,192,77456,128,0,77687:0:0:0:0:
256,192,77456,1,0,0:0:0:0:
329,192,77610,128,0,77687:0:0:0:0:
182,192,77610,1,0,0:0:0:0:
329,192,77763,128,0,77917:0:0:0:0:
475,192,77763,1,0,0:0:0:0:
36,192,77763,1,0,0:0:0:50:Cymatics - Snare 2 - E.wav
329,192,77994,1,0,0:0:0:0:
402,192,77994,128,0,78109:0:0:0:0:
182,192,78224,128,0,78378:0:0:0:0:
329,192,78224,1,0,0:0:0:0:
36,192,78224,1,0,0:0:0:50:Cymatics - Snare 2 - E.wav
182,192,78454,1,0,0:0:0:0:
329,192,78454,128,0,78608:0:0:0:0:
329,192,78685,1,0,0:0:0:0:
256,192,78685,1,0,0:0:0:0:
36,192,78685,1,0,0:0:0:50:Cymatics - Snare 2 - E.wav
182,192,78838,1,0,0:0:0:50:Cymatics - Snare 2 - E.wav
329,192,78838,1,0,0:0:0:0:
109,192,78838,1,0,0:0:0:0:
109,192,78973,1,0,0:0:0:0:
182,192,78973,1,0,0:0:0:50:Cymatics - Snare 2 - E.wav
329,192,78973,1,0,0:0:0:0:
36,192,79119,1,0,0:0:0:0:
402,192,79119,1,0,0:0:0:0:
256,192,79119,128,0,79232:0:0:0:50:cymbal06.wav
475,192,79119,1,0,0:0:0:50:LR_Kick Bass strong.wav
402,192,79232,128,0,79459:0:0:0:0:
182,192,79232,1,0,0:0:0:0:
256,192,79346,1,0,0:0:0:0:
109,192,79346,128,0,79573:0:0:0:0:
329,192,79573,128,0,79914:0:0:0:0:
329,192,80028,1,0,0:0:0:0:
36,192,80028,1,0,0:0:0:0:
256,192,80028,128,0,80141:0:0:0:50:Cymatics - Snare 2 - E.wav
182,192,80141,128,0,80369:0:0:0:0:
475,192,80141,1,0,0:0:0:0:
329,192,80255,128,0,80482:0:0:0:0:
109,192,80255,128,0,80482:0:0:0:0:
402,192,80482,128,0,80823:0:0:0:0:
475,192,80937,1,0,0:0:0:0:
256,192,80937,128,0,81050:0:0:0:0:
182,192,80937,1,0,0:0:0:0:
329,192,81050,128,0,81278:0:0:0:0:
36,192,81050,1,0,0:0:0:0:
109,192,81164,128,0,81391:0:0:0:0:
402,192,81164,1,0,0:0:0:0:
475,192,81164,1,0,0:0:0:50:LR_Kick Bass strong.wav
182,192,81391,128,0,81732:0:0:0:0:
329,192,81505,1,0,0:0:0:0:
402,192,81505,1,0,0:0:0:0:
36,192,81505,1,0,0:0:0:50:LR_Kick Bass strong.wav
256,192,81846,1,0,0:0:0:0:
182,192,81846,1,0,0:0:0:0:
475,192,81846,128,0,81959:0:0:0:50:Cymatics - Snare 2 - E.wav
256,192,81959,128,0,82073:0:0:0:0:
36,192,81959,1,0,0:0:0:0:
109,192,82073,128,0,82300:0:0:0:0:
402,192,82073,128,0,82300:0:0:0:0:
329,192,82300,128,0,82641:0:0:0:0:
182,192,82528,128,0,82641:0:0:0:0:
36,192,82528,1,0,0:0:0:0:
182,192,82755,1,0,0:0:0:0:
329,192,82755,1,0,0:0:0:0:
109,192,82755,128,0,83209:0:0:0:50:LR_Kick Bass strong.wav
256,192,83209,1,0,0:0:0:0:
36,192,83209,1,0,0:0:0:0:
182,192,83437,128,0,83550:0:0:0:0:
402,192,83437,1,0,0:0:0:0:
256,192,83664,128,0,83778:0:0:0:0:
36,192,83664,1,0,0:0:0:0:
182,192,83664,1,0,0:0:0:50:Cymatics - Snare 2 - E.wav
256,192,83891,128,0,84119:0:0:0:0:
109,192,83891,1,0,0:0:0:0:
329,192,84119,128,0,84232:0:0:0:0:
475,192,84119,1,0,0:0:0:0:
182,192,84119,128,0,84573:0:0:0:0:
329,192,84346,128,0,84573:0:0:0:0:
475,192,84573,128,0,84800:0:0:0:0:
256,192,84573,1,0,0:0:0:0:
109,192,84573,128,0,84800:0:0:0:0:
402,192,84800,128,0,84914:0:0:0:0:
182,192,84800,1,0,0:0:0:0:
256,192,84800,1,0,0:0:0:50:LR_Kick Bass strong.wav
36,192,84914,1,0,0:0:0:0:
329,192,84914,1,0,0:0:0:0:
109,192,85028,1,0,0:0:0:0:
256,192,85028,128,0,85255:0:0:0:0:
402,192,85141,1,0,0:0:0:0:
475,192,85141,1,0,0:0:0:0:
182,192,85141,1,0,0:0:0:50:LR_Kick Bass strong.wav
329,192,85255,128,0,85369:0:0:0:0:
36,192,85255,1,0,0:0:0:0:
256,192,85369,1,0,0:0:0:0:
475,192,85369,1,0,0:0:0:0:
329,192,85482,128,0,85709:0:0:0:0:
109,192,85482,1,0,0:0:0:0:
182,192,85482,128,0,85937:0:0:0:50:Cymatics - Snare 2 - E.wav
256,192,85709,1,0,0:0:0:0:
475,192,85709,128,0,85823:0:0:0:0:
329,192,85823,128,0,85937:0:0:0:0:
109,192,85823,1,0,0:0:0:0:
402,192,85937,128,0,86278:0:0:0:0:
36,192,85937,128,0,86164:0:0:0:0:
256,192,85937,1,0,0:0:0:0:
109,192,86050,128,0,86278:0:0:0:0:
329,192,86050,1,0,0:0:0:0:
182,192,86164,128,0,86278:0:0:0:0:
475,192,86164,1,0,0:0:0:0:
329,192,86278,1,0,0:0:0:0:
109,192,86391,1,0,0:0:0:0:
475,192,86391,1,0,0:0:0:0:
256,192,86391,128,0,86505:0:0:0:50:LR_Kick Bass strong.wav
109,192,86505,128,0,86732:0:0:0:0:
329,192,86505,1,0,0:0:0:0:
256,192,86619,1,0,0:0:0:0:
402,192,86619,128,0,86846:0:0:0:0:
182,192,86846,128,0,87187:0:0:0:0:
329,192,86846,128,0,87187:0:0:0:0:
36,192,86846,128,0,87187:0:0:0:0:
475,192,87300,1,0,0:0:0:0:
256,192,87300,128,0,87414:0:0:0:0:
182,192,87300,1,0,0:0:0:50:Cymatics - Snare 2 - E.wav
329,192,87414,128,0,87641:0:0:0:0:
36,192,87414,1,0,0:0:0:0:
182,192,87528,128,0,87641:0:0:0:0:
402,192,87528,128,0,87641:0:0:0:0:
329,192,87755,128,0,88096:0:0:0:0:
109,192,87755,128,0,87869:0:0:0:0:
256,192,87755,1,0,0:0:0:0:
109,192,87982,128,0,88209:0:0:0:0:
402,192,87982,1,0,0:0:0:0:
182,192,88096,1,0,0:0:0:0:
36,192,88209,1,0,0:0:0:0:
256,192,88209,128,0,88323:0:0:0:0:
329,192,88209,1,0,0:0:0:50:LR_Kick Bass strong.wav
182,192,88323,128,0,88550:0:0:0:0:
475,192,88323,1,0,0:0:0:0:
402,192,88437,128,0,88550:0:0:0:0:
36,192,88437,1,0,0:0:0:0:
329,192,88550,1,0,0:0:0:0:
109,192,88550,1,0,0:0:0:0:
256,192,88550,128,0,88891:0:0:0:50:LR_Kick Bass strong.wav
329,192,88664,1,0,0:0:0:0:
109,192,88891,1,0,0:0:0:0:
402,192,88891,1,0,0:0:0:0:
182,192,88891,128,0,89005:0:0:0:50:LR_Kick Bass strong.wav
256,192,89119,1,0,0:0:0:0:
329,192,89119,1,0,0:0:0:0:
36,192,89119,128,0,89232:0:0:0:50:Cymatics - Snare 2 - E.wav
256,192,89232,128,0,89346:0:0:0:0:
475,192,89232,1,0,0:0:0:0:
402,192,89346,128,0,89573:0:0:0:0:
109,192,89346,128,0,89573:0:0:0:0:
182,192,89573,128,0,89914:0:0:0:0:
256,192,89573,128,0,89914:0:0:0:0:
36,192,89687,128,0,89800:0:0:0:0:
109,192,89687,128,0,89800:0:0:0:0:
329,192,89800,128,0,89914:0:0:0:0:
475,192,89800,128,0,89914:0:0:0:0:
109,192,89914,128,0,90028:0:0:0:0:
36,192,89914,128,0,90028:0:0:0:0:
182,192,90028,1,0,0:0:0:0:
402,192,90028,128,0,90482:0:0:0:0:
329,192,90028,128,0,90255:0:0:0:50:LR_Kick Bass strong.wav
109,192,90255,128,0,90369:0:0:0:0:
256,192,90255,1,0,0:0:0:0:
475,192,90482,128,0,90823:0:0:0:0:
36,192,90482,1,0,0:0:0:0:
182,192,90482,1,0,0:0:0:0:
256,192,90539,1,0,0:0:0:0:
109,192,90596,1,0,0:0:0:0:
182,192,90653,1,0,0:0:0:0:
36,192,90709,1,0,0:0:0:0:
256,192,90709,1,0,0:0:0:0:
109,192,90766,1,0,0:0:0:0:
182,192,90823,1,0,0:0:0:0:
256,192,90880,1,0,0:0:0:0:
109,192,90937,128,0,91166:0:0:0:0:
402,192,90937,1,0,0:0:0:0:
329,192,90937,128,0,91051:0:0:0:50:Cymatics - Snare 2 - E.wav
256,192,91166,128,0,91395:0:0:0:0:
402,192,91166,128,0,91280:0:0:0:0:
36,192,91395,1,0,0:0:0:0:
182,192,91395,128,0,91738:0:0:0:0:
329,192,91395,128,0,91738:0:0:0:0:
36,192,91853,128,0,92082:0:0:0:0:
182,192,91853,1,0,0:0:0:0:
402,192,91853,128,0,92082:0:0:0:50:LR_Kick Bass strong.wav
182,192,92196,1,0,0:0:0:0:
109,192,92196,1,0,0:0:0:0:
329,192,92196,1,0,0:0:0:50:LR_Kick Bass strong.wav
256,192,92311,128,0,92540:0:0:0:0:
402,192,92311,128,0,92540:0:0:0:0:
36,192,92540,5,0,0:0:0:0:
329,192,92540,1,0,0:0:0:0:
109,192,92540,128,0,92654:0:0:0:50:LR_Kick Bass strong.wav
329,192,92769,128,0,92998:0:0:0:0:
402,192,92769,1,0,0:0:0:0:
182,192,92769,1,0,0:0:0:50:Cymatics - Snare 2 - E.wav
36,192,92998,1,0,0:0:0:0:
256,192,92998,1,0,0:0:0:0:
109,192,92998,128,0,93112:0:0:0:50:LR_Kick Bass strong.wav
109,192,93227,1,0,0:0:0:0:
329,192,93227,128,0,93570:0:0:0:0:
475,192,93227,1,0,0:0:0:0:
182,192,93570,1,0,0:0:0:0:
36,192,93685,128,0,95531:0:0:0:0:
402,192,93685,128,0,94146:0:0:0:50:Cymatics - Snare 2 - E.wav
256,192,93685,1,0,0:0:0:50:cymbal06.wav
182,192,93685,1,0,0:0:0:50:LR_Kick Bass strong.wav
329,192,94146,1,0,0:0:0:0:
475,192,94146,1,0,0:0:0:0:
182,192,94146,128,0,94261:0:0:0:50:Cymatics - Snare 2 - E.wav
182,192,94377,128,0,94608:0:0:0:0:
402,192,94377,1,0,0:0:0:0:
256,192,94608,1,0,0:0:0:0:
329,192,94608,128,0,94723:0:0:0:0:
109,192,94608,1,0,0:0:0:50:Cymatics - Snare 2 - E.wav
329,192,94838,128,0,95069:0:0:0:0:
182,192,94838,1,0,0:0:0:0:
256,192,95069,1,0,0:0:0:0:
475,192,95069,1,0,0:0:0:0:
402,192,95069,128,0,95185:0:0:0:50:Cymatics - Snare 2 - E.wav
402,192,95300,128,0,95531:0:0:0:0:
182,192,95300,1,0,0:0:0:0:
329,192,95531,1,0,0:0:0:0:
109,192,95531,128,0,95761:0:0:0:0:
256,192,95531,128,0,96454:0:0:0:50:Cymatics - Snare 2 - E.wav
182,192,95761,128,0,95877:0:0:0:0:
475,192,95761,1,0,0:0:0:0:
36,192,95992,128,0,96223:0:0:0:0:
182,192,95992,1,0,0:0:0:0:
402,192,95992,128,0,96223:0:0:0:50:Cymatics - Snare 2 - E.wav
109,192,96223,128,0,96338:0:0:0:0:
329,192,96223,1,0,0:0:0:0:
109,192,96454,1,0,0:0:0:0:
182,192,96454,128,0,96915:0:0:0:0:
402,192,96454,128,0,96569:0:0:0:50:Cymatics - Snare 2 - E.wav
475,192,96685,128,0,96915:0:0:0:0:
402,192,96685,1,0,0:0:0:0:
256,192,96800,1,0,0:0:0:50:Cymatics - Snare 2 - E.wav
36,192,96915,1,0,0:0:0:0:
109,192,96915,128,0,97031:0:0:0:0:
329,192,96915,1,0,0:0:0:50:Cymatics - Snare 2 - E.wav
256,192,97031,1,0,0:0:0:0:
109,192,97146,128,0,97377:0:0:0:0:
182,192,97146,1,0,0:0:0:0:
329,192,97377,1,0,0:0:0:0:
256,192,97377,128,0,97492:0:0:0:50:Cymatics - Snare 2 - E.wav
475,192,97377,128,0,99223:0:0:0:50:LR_Kick Bass strong.wav
256,192,97608,128,0,97838:0:0:0:0:
36,192,97608,1,0,0:0:0:0:
182,192,97838,128,0,97954:0:0:0:0:
402,192,97838,1,0,0:0:0:0:
109,192,97838,1,0,0:0:0:50:Cymatics - Snare 2 - E.wav
182,192,98069,128,0,98300:0:0:0:0:
329,192,98069,1,0,0:0:0:0:
256,192,98300,1,0,0:0:0:0:
402,192,98300,128,0,98415:0:0:0:0:
36,192,98300,1,0,0:0:0:50:Cymatics - Snare 2 - E.wav
182,192,98531,1,0,0:0:0:0:
402,192,98531,128,0,98761:0:0:0:0:
109,192,98761,128,0,98877:0:0:0:0:
36,192,98761,1,0,0:0:0:0:
256,192,98761,1,0,0:0:0:50:Cymatics - Snare 2 - E.wav
109,192,98992,128,0,99223:0:0:0:0:
329,192,98992,1,0,0:0:0:0:
402,192,99223,128,0,101069:0:0:0:0:
182,192,99223,1,0,0:0:0:0:
256,192,99223,128,0,99338:0:0:0:50:Cymatics - Snare 2 - E.wav
256,192,99454,128,0,99685:0:0:0:0:
109,192,99454,1,0,0:0:0:0:
36,192,99685,1,0,0:0:0:0:
182,192,99685,128,0,99800:0:0:0:50:Cymatics - Snare 2 - E.wav
182,192,99915,128,0,100146:0:0:0:0:
329,192,99915,1,0,0:0:0:0:
36,192,100146,1,0,0:0:0:0:
109,192,100146,128,0,100377:0:0:0:0:
256,192,100146,1,0,0:0:0:50:Cymatics - Snare 2 - E.wav
182,192,100377,128,0,100492:0:0:0:0:
329,192,100377,1,0,0:0:0:0:
36,192,100492,1,0,0:0:0:0:
109,192,100550,1,0,0:0:0:0:
182,192,100608,1,0,0:0:0:0:
475,192,100608,1,0,0:0:0:0:
256,192,100608,128,0,100723:0:0:0:50:Cymatics - Snare 2 - E.wav
329,192,100723,1,0,0:0:0:0:
109,192,100838,128,0,101069:0:0:0:0:
256,192,100838,1,0,0:0:0:0:
182,192,100954,1,0,0:0:0:0:
36,192,101069,128,0,102915:0:0:0:0:
256,192,101069,1,0,0:0:0:50:Cymatics - Snare 2 - E.wav
329,192,101069,128,0,101185:0:0:0:50:LR_Kick Bass strong.wav
109,192,101300,1,0,0:0:0:0:
329,192,101300,1,0,0:0:0:0:
182,192,101531,128,0,101646:0:0:0:0:
256,192,101531,1,0,0:0:0:0:
475,192,101531,128,0,101761:0:0:0:50:Cymatics - Snare 2 - E.wav
182,192,101761,1,0,0:0:0:0:
109,192,101761,128,0,101877:0:0:0:0:
402,192,101877,1,0,0:0:0:0:
329,192,101877,128,0,101992:0:0:0:0:
256,192,101992,1,0,0:0:0:0:
109,192,101992,1,0,0:0:0:0:
182,192,101992,128,0,102108:0:0:0:50:Cymatics - Snare 2 - E.wav
182,192,102223,128,0,102454:0:0:0:0:
329,192,102223,1,0,0:0:0:0:
475,192,102454,128,0,102915:0:0:0:0:
329,192,102454,1,0,0:0:0:0:
256,192,102454,128,0,102915:0:0:0:50:Cymatics - Snare 2 - E.wav
182,192,102915,128,0,104761:0:0:0:0:
109,192,102915,1,0,0:0:0:0:
402,192,102915,128,0,103031:0:0:0:50:Cymatics - Snare 2 - E.wav
329,192,103031,1,0,0:0:0:0:
256,192,103031,128,0,103146:0:0:0:0:
402,192,103146,1,0,0:0:0:0:
475,192,103146,128,0,103261:0:0:0:0:
36,192,103261,1,0,0:0:0:0:
109,192,103261,128,0,103377:0:0:0:0:
256,192,103377,1,0,0:0:0:0:
475,192,103377,1,0,0:0:0:0:
329,192,103377,128,0,103492:0:0:0:50:Cymatics - Snare 2 - E.wav
402,192,103492,1,0,0:0:0:0:
36,192,103492,128,0,103608:0:0:0:0:
329,192,103608,1,0,0:0:0:0:
109,192,103608,128,0,103723:0:0:0:0:
402,192,103723,1,0,0:0:0:0:
256,192,103723,128,0,103838:0:0:0:0:
109,192,103838,1,0,0:0:0:0:
36,192,103838,1,0,0:0:0:0:
329,192,103838,128,0,103954:0:0:0:50:Cymatics - Snare 2 - E.wav
329,192,104069,128,0,104300:0:0:0:0:
256,192,104069,1,0,0:0:0:0:
109,192,104300,1,0,0:0:0:0:
475,192,104300,1,0,0:0:0:0:
402,192,104300,128,0,104415:0:0:0:50:Cymatics - Snare 2 - E.wav
402,192,104531,128,0,104761:0:0:0:0:
256,192,104531,1,0,0:0:0:0:
329,192,104761,128,0,106146:0:0:0:0:
109,192,104761,1,0,0:0:0:50:Cymatics - Snare 2 - E.wav
36,192,104761,1,0,0:0:0:50:LR_Kick Bass strong.wav
182,192,104992,128,0,105108:0:0:0:0:
402,192,104992,1,0,0:0:0:50:Cymatics - Snare 2 - E.wav
182,192,105223,1,0,0:0:0:0:
256,192,105223,1,0,0:0:0:0:
109,192,105223,128,0,105338:0:0:0:50:Cymatics - Snare 2 - E.wav
475,192,105338,1,0,0:0:0:0:
402,192,105338,128,0,105454:0:0:0:0:
109,192,105454,1,0,0:0:0:0:
36,192,105454,128,0,105569:0:0:0:50:Cymatics - Snare 2 - E.wav
182,192,105569,1,0,0:0:0:0:
256,192,105569,128,0,105685:0:0:0:0:
475,192,105685,1,0,0:0:0:0:
109,192,105685,1,0,0:0:0:0:
402,192,105685,128,0,105800:0:0:0:50:Cymatics - Snare 2 - E.wav
402,192,105915,128,0,106146:0:0:0:0:
182,192,105915,1,0,0:0:0:50:Cymatics - Snare 2 - E.wav
182,192,106146,1,0,0:0:0:0:
256,192,106146,1,0,0:0:0:0:
36,192,106146,128,0,106608:0:0:0:50:Cymatics - Snare 2 - E.wav
329,192,106261,1,0,0:0:0:0:
402,192,106377,1,0,0:0:0:0:
182,192,106377,1,0,0:0:0:50:Cymatics - Snare 2 - E.wav
329,192,106492,1,0,0:0:0:0:
256,192,106608,1,0,0:0:0:0:
475,192,106608,128,0,107069:0:0:0:0:
182,192,106608,128,0,106723:0:0:0:50:Cymatics - Snare 2 - E.wav
36,192,106723,128,0,106838:0:0:0:0:
109,192,106723,1,0,0:0:0:50:Cymatics - Snare 2 - E.wav
256,192,106838,128,0,106954:0:0:0:0:
329,192,106838,1,0,0:0:0:50:Cymatics - Snare 2 - E.wav
109,192,106954,128,0,107069:0:0:0:0:
36,192,106954,1,0,0:0:0:50:Cymatics - Snare 2 - E.wav
182,192,107069,1,0,0:0:0:0:
402,192,107069,1,0,0:0:0:0:
329,192,107069,128,0,107300:0:0:0:50:Cymatics - Snare 2 - E.wav
256,192,107185,128,0,107415:0:0:0:0:
109,192,107185,1,0,0:0:0:50:Cymatics - Snare 2 - E.wav
182,192,107300,128,0,107531:0:0:0:0:
475,192,107300,1,0,0:0:0:50:Cymatics - Snare 2 - E.wav
402,192,107415,1,0,0:0:0:0:
109,192,107415,128,0,107531:0:0:0:50:Cymatics - Snare 2 - E.wav
256,192,107531,1,0,0:0:0:0:
329,192,107531,128,0,107646:0:0:0:0:
36,192,107531,128,0,107646:0:0:0:50:VEC4 Snares 151.wav
36,192,107761,128,0,107992:0:0:0:0:
329,192,107761,128,0,107992:0:0:0:0:
109,192,107992,1,0,0:0:0:0:
182,192,107992,128,0,108338:0:0:0:0:
402,192,107992,128,0,108338:0:0:0:50:LR_Kick Bass strong.wav
256,192,108223,1,0,0:0:0:0:
36,192,108223,1,0,0:0:0:0:
182,192,108454,1,0,0:0:0:0:
109,192,108454,1,0,0:0:0:0:
329,192,108454,1,0,0:0:0:0:
402,192,108454,1,0,0:0:0:0:
475,192,108915,128,0,109031:0:0:0:0:
329,192,109146,128,0,109261:0:0:0:0:
182,192,109377,128,0,109608:0:0:0:0:
36,192,109838,128,0,110069:0:0:0:0:
182,192,110300,128,0,110531:0:0:0:0:
329,192,110761,128,0,110877:0:0:0:0:
109,192,110992,128,0,111108:0:0:0:0:
182,192,111223,1,0,0:0:0:0:
402,192,111223,128,0,111338:0:0:0:0:
475,192,111223,1,0,0:0:0:0:
402,192,111454,128,0,111685:0:0:0:0:
182,192,111685,128,0,111915:0:0:0:0:
475,192,111915,128,0,112031:0:0:0:0:
182,192,112031,1,0,0:0:0:0:
256,192,112146,1,0,0:0:0:0:
329,192,112146,1,0,0:0:0:0:
36,192,112146,128,0,112608:0:0:0:0:
402,192,112261,1,0,0:0:0:0:
256,192,112377,1,0,0:0:0:0:
329,192,112492,1,0,0:0:0:0:
182,192,112608,1,0,0:0:0:0:
475,192,112608,128,0,112723:0:0:0:0:
256,192,112723,1,0,0:0:0:0:
109,192,112838,1,0,0:0:0:0:
402,192,112838,128,0,113069:0:0:0:0:
182,192,112954,1,0,0:0:0:0:
36,192,113069,1,0,0:0:0:0:
256,192,113069,1,0,0:0:0:0:
329,192,113069,128,0,113415:0:0:0:70:Snare 3 - B.wav
109,192,113185,1,0,0:0:0:0:
182,192,113300,1,0,0:0:0:0:
256,192,113415,1,0,0:0:0:0:
329,192,113531,1,0,0:0:0:0:
109,192,113531,128,0,113877:0:0:0:0:
256,192,113646,1,0,0:0:0:0:
402,192,113761,1,0,0:0:0:0:
329,192,113877,1,0,0:0:0:0:
256,192,113992,1,0,0:0:0:0:
109,192,113992,1,0,0:0:0:0:
36,192,113992,1,0,0:0:0:70:Snare 3 - B.wav
329,192,114146,1,0,0:0:0:0:
109,192,114146,1,0,0:0:0:70:Snare 3 - B.wav
182,192,114300,1,0,0:0:0:0:
475,192,114300,1,0,0:0:0:70:Snare 3 - B.wav
402,192,114454,1,0,0:0:0:0:
256,192,114454,1,0,0:0:0:0:
36,192,114454,1,0,0:0:0:70:Snare 3 - B.wav
402,192,114608,1,0,0:0:0:0:
182,192,114608,1,0,0:0:0:70:Snare 3 - B.wav
329,192,114761,1,0,0:0:0:0:
109,192,114761,1,0,0:0:0:70:Snare 3 - B.wav
256,192,114915,1,0,0:0:0:0:
36,192,114915,1,0,0:0:0:0:
402,192,114915,1,0,0:0:0:50:LR_Tom Normal.wav
109,192,115031,1,0,0:0:0:0:
329,192,115031,1,0,0:0:0:50:LR_Tom Normal.wav
182,192,115146,1,0,0:0:0:0:
475,192,115146,1,0,0:0:0:50:LR_Tom Normal.wav
402,192,115261,1,0,0:0:0:0:
256,192,115261,1,0,0:0:0:50:LR_Tom Normal.wav
36,192,115377,1,0,0:0:0:0:
109,192,115377,1,0,0:0:0:0:
329,192,115377,128,0,115723:0:0:0:50:LR_Tom Drop.wav
256,192,115492,128,0,115723:0:0:0:50:LR_Tom Drop.wav
182,192,115608,128,0,115723:0:0:0:50:LR_Tom Drop.wav
109,192,115723,1,0,0:0:0:50:LR_Tom Drop.wav
182,192,115838,1,0,0:0:0:0:
256,192,115838,1,0,0:0:0:0:
402,192,115838,128,0,116069:0:0:0:0:
475,192,115838,128,0,116069:0:0:0:0:
329,192,115838,128,0,116069:0:0:0:50:LR_Kick Bass strong.wav
256,192,116300,1,0,0:0:0:0:
109,192,116300,128,0,116531:0:0:0:0:
329,192,116300,1,0,0:0:0:0:
182,192,116300,128,0,116531:0:0:0:0:
36,192,116300,128,0,116531:0:0:0:50:LR_Kick Bass strong.wav
109,192,116761,1,0,0:0:0:0:
36,192,116761,1,0,0:0:0:0:
329,192,116761,128,0,116992:0:0:0:0:
475,192,116761,128,0,116992:0:0:0:0:
402,192,116761,128,0,116992:0:0:0:50:LR_Kick Bass strong.wav
182,192,116877,1,0,0:0:0:0:
256,192,116992,1,0,0:0:0:0:
182,192,117108,1,0,0:0:0:0:
475,192,117223,1,0,0:0:0:0:
36,192,117223,1,0,0:0:0:0:
329,192,117223,128,0,117338:0:0:0:0:
256,192,117223,128,0,117338:0:0:0:50:LR_Kick Bass strong.wav
36,192,117454,1,0,0:0:0:0:
475,192,117454,1,0,0:0:0:0:
256,192,117454,128,0,117685:0:0:0:0:
329,192,117454,128,0,117685:0:0:0:50:LR_Kick Bass strong.wav
182,192,117685,1,0,0:0:0:0:
109,192,117685,128,0,117915:0:0:0:0:
36,192,117685,128,0,117915:0:0:0:0:
329,192,117800,1,0,0:0:0:0:
256,192,117915,1,0,0:0:0:0:
475,192,117915,1,0,0:0:0:50:LR_Kick Bass strong.wav
402,192,117973,1,0,0:0:0:50:LR_Kick Bass strong.wav
329,192,118031,1,0,0:0:0:0:
36,192,118031,1,0,0:0:0:50:LR_Kick Bass strong.wav
109,192,118088,1,0,0:0:0:50:LR_Kick Bass strong.wav
256,192,118146,1,0,0:0:0:0:
475,192,118146,1,0,0:0:0:0:
182,192,118146,128,0,118261:0:0:0:50:LR_Kick Bass strong.wav
182,192,118377,128,0,118608:0:0:0:0:
329,192,118377,1,0,0:0:0:0:
475,192,118608,1,0,0:0:0:0:
256,192,118608,1,0,0:0:0:0:
402,192,118608,128,0,118723:0:0:0:50:Cymatics - Snare 2 - E.wav
182,192,118723,1,0,0:0:0:0:
109,192,118723,128,0,118954:0:0:0:0:
329,192,118954,1,0,0:0:0:0:
475,192,118954,1,0,0:0:0:0:
109,192,119069,1,0,0:0:0:0:
36,192,119069,128,0,119377:0:0:0:0:
256,192,119069,128,0,119377:0:0:0:50:LR_Kick Bass strong.wav
402,192,119223,128,0,119377:0:0:0:0:
475,192,119223,128,0,119377:0:0:0:70:Snare 3 - B.wav
182,192,119377,1,0,0:0:0:0:
109,192,119377,1,0,0:0:0:70:Snare 3 - B.wav
329,192,119531,128,0,119761:0:0:0:0:
475,192,119531,128,0,119761:0:0:0:0:
256,192,119531,128,0,119761:0:0:0:0:
36,192,119531,128,0,119761:0:0:0:50:LR_Kick Bass strong.wav
329,192,119992,1,0,0:0:0:0:
109,192,119992,128,0,120108:0:0:0:0:
36,192,119992,128,0,120108:0:0:0:70:Snare 3 - B.wav
109,192,120223,128,0,120454:0:0:0:0:
182,192,120223,128,0,120915:0:0:0:0:
475,192,120454,1,0,0:0:0:0:
256,192,120454,128,0,120915:0:0:0:0:
329,192,120454,128,0,120915:0:0:0:0:
36,192,120454,1,0,0:0:0:70:Snare 3 - B.wav
36,192,120915,1,0,0:0:0:0:
109,192,120915,128,0,121377:0:0:0:0:
402,192,120915,128,0,121377:0:0:0:50:LR_Kick Bass strong.wav
36,192,121377,1,0,0:0:0:0:
256,192,121377,128,0,121492:0:0:0:0:
329,192,121377,1,0,0:0:0:0:
256,192,121608,128,0,121838:0:0:0:0:
109,192,121608,1,0,0:0:0:0:
402,192,121608,128,0,121838:0:0:0:50:LR_Kick Bass strong.wav
109,192,121838,128,0,122185:0:0:0:0:
182,192,121838,128,0,122185:0:0:0:0:
329,192,121838,128,0,122185:0:0:0:50:LR_Kick Bass strong.wav
36,192,122300,128,0,122646:0:0:0:0:
109,192,122300,128,0,122646:0:0:0:0:
256,192,122300,1,0,0:0:0:50:Cymatics - Snare 2 - E.wav
402,192,122454,1,0,0:0:0:50:Cymatics - Snare 2 - E.wav
475,192,122454,1,0,0:0:0:0:
329,192,122608,1,0,0:0:0:50:Cymatics - Snare 2 - E.wav
256,192,122608,1,0,0:0:0:0:
182,192,122761,1,0,0:0:0:0:
109,192,122761,1,0,0:0:0:0:
36,192,122761,1,0,0:0:0:70:Snare 3 - B.wav
329,192,122915,1,0,0:0:0:0:
402,192,122915,1,0,0:0:0:0:
182,192,122915,1,0,0:0:0:70:Snare 3 - B.wav
256,192,123069,1,0,0:0:0:0:
109,192,123069,1,0,0:0:0:0:
36,192,123069,1,0,0:0:0:70:Snare 3 - B.wav
475,192,123223,128,0,123338:0:0:0:0:
182,192,123223,1,0,0:0:0:0:
36,192,123223,1,0,0:0:0:0:
402,192,123223,128,0,123338:0:0:0:50:LR_Kick Bass strong.wav
475,192,123454,128,0,123685:0:0:0:0:
182,192,123454,1,0,0:0:0:0:
402,192,123454,128,0,123685:0:0:0:0:
109,192,123685,128,0,123800:0:0:0:0:
36,192,123685,128,0,123800:0:0:0:0:
256,192,123685,1,0,0:0:0:0:
329,192,123685,1,0,0:0:0:50:LR_Kick Bass strong.wav
109,192,123915,128,0,124146:0:0:0:0:
36,192,123915,128,0,124146:0:0:0:0:
329,192,123915,1,0,0:0:0:0:
475,192,124146,128,0,124838:0:0:0:0:
182,192,124146,128,0,124261:0:0:0:0:
256,192,124146,1,0,0:0:0:0:
402,192,124146,1,0,0:0:0:50:Cymatics - Snare 2 - E.wav
182,192,124377,128,0,124608:0:0:0:0:
329,192,124377,1,0,0:0:0:0:
36,192,124377,1,0,0:0:0:50:LR_Kick Bass strong.wav
329,192,124608,1,0,0:0:0:0:
256,192,124608,128,0,124723:0:0:0:0:
36,192,124608,1,0,0:0:0:50:LR_Kick Bass strong.wav
109,192,124723,1,0,0:0:0:0:
182,192,124781,1,0,0:0:0:0:
402,192,124838,1,0,0:0:0:0:
329,192,124838,128,0,124954:0:0:0:0:
256,192,124838,1,0,0:0:0:50:LR_Kick Bass strong.wav
36,192,124954,1,0,0:0:0:0:
109,192,125069,1,0,0:0:0:0:
256,192,125069,1,0,0:0:0:0:
329,192,125069,128,0,125415:0:0:0:50:Cymatics - Snare 2 - E.wav
182,192,125300,1,0,0:0:0:0:
109,192,125300,1,0,0:0:0:0:
402,192,125300,1,0,0:0:0:50:LR_Kick Bass strong.wav
182,192,125415,128,0,125531:0:0:0:0:
475,192,125415,1,0,0:0:0:0:
402,192,125531,128,0,125761:0:0:0:0:
36,192,125531,128,0,125761:0:0:0:0:
329,192,125531,1,0,0:0:0:50:LR_Kick Bass strong.wav
256,192,125761,1,0,0:0:0:0:
109,192,125761,128,0,125877:0:0:0:0:
329,192,125877,1,0,0:0:0:0:
182,192,125877,128,0,125992:0:0:0:0:
402,192,125992,1,0,0:0:0:0:
256,192,125992,1,0,0:0:0:0:
475,192,125992,128,0,126338:0:0:0:50:Cymatics - Snare 2 - E.wav
36,192,126050,1,0,0:0:0:0:
109,192,126108,1,0,0:0:0:0:
182,192,126165,1,0,0:0:0:0:
329,192,126223,1,0,0:0:0:0:
256,192,126223,1,0,0:0:0:50:LR_Kick Bass strong.wav
36,192,126281,1,0,0:0:0:0:
109,192,126338,1,0,0:0:0:0:
182,192,126396,1,0,0:0:0:0:
256,192,126454,1,0,0:0:0:0:
475,192,126454,1,0,0:0:0:0:
402,192,126454,128,0,126569:0:0:0:50:Cymatics - Snare 2 - E.wav
402,192,126685,128,0,126915:0:0:0:0:
182,192,126685,1,0,0:0:0:0:
36,192,126685,1,0,0:0:0:50:Cymatics - Snare 2 - E.wav
329,192,126915,1,0,0:0:0:0:
256,192,126915,1,0,0:0:0:0:
36,192,126915,1,0,0:0:0:50:LR_Kick Bass strong.wav
109,192,127069,1,0,0:0:0:0:
329,192,127069,1,0,0:0:0:0:
182,192,127069,1,0,0:0:0:50:LR_Kick Bass strong.wav
402,192,127223,1,0,0:0:0:0:
109,192,127223,1,0,0:0:0:0:
256,192,127223,1,0,0:0:0:50:LR_Kick Bass strong.wav
256,192,127377,1,0,0:0:0:0:
182,192,127377,1,0,0:0:0:0:
475,192,127377,1,0,0:0:0:50:LR_Kick Bass strong.wav
256,192,127838,1,0,0:0:0:0:
329,192,127838,1,0,0:0:0:0:
109,192,127838,1,0,0:0:0:50:LR_Kick Bass strong.wav
329,192,127992,1,0,0:0:0:0:
182,192,127992,1,0,0:0:0:0:
475,192,127992,1,0,0:0:0:50:LR_Kick Bass strong.wav
256,192,128146,1,0,0:0:0:0:
182,192,128146,1,0,0:0:0:0:
402,192,128146,1,0,0:0:0:50:LR_Kick Bass strong.wav
256,192,128300,1,0,0:0:0:0:
329,192,128300,1,0,0:0:0:0:
109,192,128300,1,0,0:0:0:50:LR_Kick Bass strong.wav
329,192,128761,1,0,0:0:0:0:
109,192,128761,1,0,0:0:0:0:
182,192,128761,1,0,0:0:0:50:LR_Kick Bass strong.wav
182,192,128915,1,0,0:0:0:0:
475,192,128915,1,0,0:0:0:0:
402,192,128915,1,0,0:0:0:50:LR_Kick Bass strong.wav
402,192,129069,1,0,0:0:0:0:
256,192,129069,1,0,0:0:0:0:
109,192,129069,1,0,0:0:0:50:LR_Kick Bass strong.wav
182,192,129223,1,0,0:0:0:0:
109,192,129223,1,0,0:0:0:0:
329,192,129223,1,0,0:0:0:50:LR_Kick Bass strong.wav
475,192,129377,1,0,0:0:0:0:
329,192,129377,1,0,0:0:0:0:
256,192,129377,1,0,0:0:0:50:LR_Kick Bass strong.wav
256,192,129531,1,0,0:0:0:0:
36,192,129531,1,0,0:0:0:0:
109,192,129531,1,0,0:0:0:50:LR_Kick Bass strong.wav
182,192,129685,1,0,0:0:0:0:
329,192,129685,1,0,0:0:0:0:
402,192,129685,1,0,0:0:0:50:LR_Kick Bass strong.wav
109,192,129838,1,0,0:0:0:0:
329,192,129838,1,0,0:0:0:0:
182,192,129992,1,0,0:0:0:0:
402,192,129992,1,0,0:0:0:0:
329,192,130146,1,0,0:0:0:0:
256,192,130146,128,0,130492:0:0:0:0:
36,192,130146,128,0,130492:0:0:0:0:
182,192,130377,128,0,130492:0:0:0:0:
329,192,130377,128,0,130492:0:0:0:0:
475,192,130377,1,0,0:0:0:0:
182,192,130608,1,0,0:0:0:0:
256,192,130608,1,0,0:0:0:0:
402,192,130608,1,0,0:0:0:0:
36,192,130608,1,0,0:0:0:50:LR_Kick Bass strong.wav
256,192,130723,1,0,0:0:0:0:
182,192,130723,1,0,0:0:0:0:
36,192,130723,1,0,0:0:0:0:
402,192,130723,1,0,0:0:0:50:LR_Kick Bass strong.wav
329,192,131069,1,0,0:0:0:0:
109,192,131069,1,0,0:0:0:0:
256,192,131069,128,0,131185:0:0:0:0:
475,192,131069,1,0,0:0:0:50:LR_Kick Bass strong.wav
109,192,131185,128,0,131415:0:0:0:0:
402,192,131185,128,0,131415:0:0:0:0:
475,192,131415,1,0,0:0:0:0:
256,192,131415,1,0,0:0:0:0:
329,192,131415,1,0,0:0:0:0:
109,192,131531,1,0,0:0:0:0:
36,192,131531,1,0,0:0:0:0:
182,192,131531,128,0,131646:0:0:0:50:Cymatics - Snare 2 - E.wav
182,192,131761,128,0,131992:0:0:0:0:
402,192,131761,128,0,131992:0:0:0:0:
329,192,131992,1,0,0:0:0:0:
256,192,131992,1,0,0:0:0:0:
36,192,131992,1,0,0:0:0:50:LR_Kick Bass strong.wav
329,192,132108,128,0,132223:0:0:0:0:
109,192,132108,128,0,132223:0:0:0:0:
182,192,132223,128,0,132454:0:0:0:0:
402,192,132223,128,0,132454:0:0:0:0:
256,192,132454,1,0,0:0:0:0:
36,192,132454,1,0,0:0:0:0:
475,192,132454,1,0,0:0:0:0:
182,192,132915,1,0,0:0:0:0:
329,192,132915,1,0,0:0:0:0:
402,192,132915,128,0,133031:0:0:0:0:
182,192,133031,128,0,133261:0:0:0:0:
36,192,133031,128,0,133261:0:0:0:0:
329,192,133146,128,0,133492:0:0:0:0:
475,192,133146,128,0,133492:0:0:0:0:
36,192,133377,1,0,0:0:0:0:
109,192,133377,128,0,133608:0:0:0:0:
256,192,133377,1,0,0:0:0:50:Cymatics - Snare 2 - E.wav
182,192,133608,1,0,0:0:0:0:
329,192,133608,128,0,133723:0:0:0:50:LR_Kick Bass strong.wav
109,192,133838,1,0,0:0:0:0:
329,192,133838,1,0,0:0:0:0:
256,192,133838,1,0,0:0:0:0:
256,192,133954,128,0,134069:0:0:0:0:
402,192,133954,128,0,134069:0:0:0:0:
182,192,134069,128,0,134185:0:0:0:0:
36,192,134069,128,0,134185:0:0:0:0:
329,192,134185,1,0,0:0:0:0:
402,192,134185,1,0,0:0:0:0:
475,192,134185,1,0,0:0:0:0:
329,192,134300,128,0,134646:0:0:0:0:
402,192,134300,128,0,134646:0:0:0:0:
475,192,134300,128,0,134646:0:0:0:0:
109,192,134300,1,0,0:0:0:0:
36,192,134300,1,0,0:0:0:50:LR_Kick Bass strong.wav
256,192,134761,1,0,0:0:0:0:
109,192,134761,1,0,0:0:0:0:
329,192,134761,1,0,0:0:0:0:
109,192,134877,128,0,134992:0:0:0:0:
329,192,134877,128,0,134992:0:0:0:0:
402,192,134992,128,0,135223:0:0:0:0:
182,192,134992,128,0,135223:0:0:0:0:
329,192,135223,1,0,0:0:0:0:
36,192,135223,1,0,0:0:0:0:
256,192,135223,128,0,135338:0:0:0:50:Cymatics - Snare 2 - E.wav
256,192,135454,128,0,135685:0:0:0:0:
109,192,135454,1,0,0:0:0:0:
182,192,135685,1,0,0:0:0:0:
109,192,135685,1,0,0:0:0:0:
329,192,135685,1,0,0:0:0:50:LR_Kick Bass strong.wav
182,192,135800,128,0,136031:0:0:0:0:
109,192,135800,128,0,136031:0:0:0:0:
329,192,135915,128,0,136031:0:0:0:0:
402,192,135915,128,0,136031:0:0:0:0:
182,192,136146,1,0,0:0:0:50:Cymatics - Snare 2 - E.wav
36,192,136146,128,0,136377:0:0:0:0:
256,192,136146,128,0,136377:0:0:0:0:
109,192,136377,128,0,136492:0:0:0:0:
329,192,136377,128,0,136492:0:0:0:0:
475,192,136377,1,0,0:0:0:50:LR_Kick Bass strong.wav
109,192,136608,128,0,136838:0:0:0:0:
256,192,136608,1,0,0:0:0:0:
329,192,136608,128,0,137069:0:0:0:50:LR_Kick Bass strong.wav
182,192,136838,128,0,136954:0:0:0:0:
402,192,136838,1,0,0:0:0:0:
256,192,137069,1,0,0:0:0:0:
36,192,137069,128,0,137415:0:0:0:0:
182,192,137069,128,0,137415:0:0:0:50:Cymatics - Snare 2 - E.wav
109,192,137300,128,0,137415:0:0:0:0:
329,192,137300,128,0,137415:0:0:0:0:
402,192,137300,1,0,0:0:0:50:LR_Kick Bass strong.wav
182,192,137531,1,0,0:0:0:0:
109,192,137531,128,0,137877:0:0:0:0:
329,192,137531,1,0,0:0:0:50:LR_Kick Bass strong.wav
256,192,137761,1,0,0:0:0:0:
329,192,137761,1,0,0:0:0:50:LR_Kick Bass strong.wav
256,192,137992,1,0,0:0:0:0:
109,192,137992,1,0,0:0:0:0:
36,192,137992,1,0,0:0:0:0:
402,192,137992,128,0,138338:0:0:0:0:
475,192,137992,128,0,138338:0:0:0:50:LR_Kick Bass strong.wav
402,192,138454,1,0,0:0:0:0:
329,192,138454,1,0,0:0:0:0:
182,192,138454,1,0,0:0:0:0:
329,192,138569,128,0,138800:0:0:0:0:
402,192,138569,128,0,138800:0:0:0:0:
109,192,138685,128,0,138800:0:0:0:0:
36,192,138685,128,0,138800:0:0:0:0:
256,192,138915,1,0,0:0:0:0:
475,192,138915,1,0,0:0:0:0:
182,192,138915,128,0,139031:0:0:0:50:Cymatics - Snare 2 - E.wav
329,192,139146,1,0,0:0:0:0:
182,192,139146,128,0,139377:0:0:0:0:
256,192,139377,1,0,0:0:0:0:
329,192,139377,1,0,0:0:0:0:
475,192,139377,1,0,0:0:0:50:LR_Kick Bass strong.wav
256,192,139492,128,0,139723:0:0:0:0:
329,192,139492,128,0,139723:0:0:0:0:
109,192,139608,128,0,139723:0:0:0:0:
36,192,139608,128,0,139723:0:0:0:0:
36,192,139838,1,0,0:0:0:0:
182,192,139838,1,0,0:0:0:0:
109,192,139838,1,0,0:0:0:0:
109,192,139954,128,0,140185:0:0:0:0:
182,192,139954,128,0,140185:0:0:0:0:
329,192,140069,128,0,140185:0:0:0:0:
402,192,140069,128,0,140185:0:0:0:0:
329,192,140300,1,0,0:0:0:0:
256,192,140300,1,0,0:0:0:0:
36,192,140300,1,0,0:0:0:50:LR_Kick Bass strong.wav
256,192,140415,128,0,140646:0:0:0:0:
329,192,140415,128,0,140646:0:0:0:0:
36,192,140531,128,0,140646:0:0:0:0:
109,192,140531,128,0,140646:0:0:0:0:
182,192,140646,128,0,140761:0:0:0:0:
402,192,140646,128,0,140761:0:0:0:0:
256,192,140761,1,0,0:0:0:0:
329,192,140761,1,0,0:0:0:0:
36,192,140761,128,0,140992:0:0:0:50:LR_Kick Bass strong.wav
109,192,140761,128,0,140992:0:0:0:50:Cymatics - Snare 2 - E.wav
182,192,140992,128,0,141108:0:0:0:50:LR_Kick Bass strong.wav
256,192,140992,128,0,141108:0:0:0:0:
402,192,141108,128,0,141223:0:0:0:0:
475,192,141108,128,0,141223:0:0:0:0:
36,192,141223,1,0,0:0:0:0:
109,192,141223,1,0,0:0:0:0:
182,192,141223,1,0,0:0:0:0:
256,192,141223,1,0,0:0:0:50:LR_Tom Normal.wav
329,192,141377,1,0,0:0:0:0:
402,192,141377,1,0,0:0:0:0:
475,192,141377,1,0,0:0:0:50:LR_Tom Drop.wav
36,192,141531,1,0,0:0:0:0:
182,192,141531,1,0,0:0:0:0:
109,192,141531,1,0,0:0:0:50:LR_Tom Drop.wav
256,192,141685,1,0,0:0:0:0:
329,192,141685,1,0,0:0:0:0:
475,192,141685,128,0,142031:0:0:0:0:
402,192,141685,128,0,142031:0:0:0:50:LR_Kick Bass strong.wav
402,192,142146,1,0,0:0:0:0:
109,192,142146,1,0,0:0:0:0:
182,192,142146,128,0,142261:0:0:0:0:
182,192,142377,128,0,142608:0:0:0:0:
329,192,142377,1,0,0:0:0:0:
256,192,142608,1,0,0:0:0:0:
475,192,142608,1,0,0:0:0:0:
402,192,142608,128,0,142723:0:0:0:50:Cymatics - Snare 2 - E.wav
402,192,142838,128,0,143069:0:0:0:0:
109,192,142838,1,0,0:0:0:0:
256,192,142954,1,0,0:0:0:0:
182,192,142954,128,0,143069:0:0:0:0:
36,192,143069,128,0,143185:0:0:0:0:
109,192,143069,1,0,0:0:0:0:
329,192,143069,1,0,0:0:0:50:LR_Kick Bass strong.wav
36,192,143300,128,0,143531:0:0:0:0:
182,192,143300,1,0,0:0:0:0:
402,192,143358,1,0,0:0:0:0:
329,192,143415,1,0,0:0:0:0:
256,192,143473,1,0,0:0:0:0:
182,192,143531,1,0,0:0:0:0:
475,192,143531,1,0,0:0:0:0:
109,192,143531,128,0,143646:0:0:0:50:LR_Kick Bass strong.wav
402,192,143646,1,0,0:0:0:0:
109,192,143761,128,0,143992:0:0:0:0:
329,192,143761,1,0,0:0:0:0:
256,192,143877,1,0,0:0:0:0:
182,192,143992,1,0,0:0:0:0:
402,192,143992,1,0,0:0:0:0:
329,192,143992,128,0,144223:0:0:0:0:
36,192,144223,1,0,0:0:0:0:
109,192,144300,1,0,0:0:0:0:
182,192,144377,1,0,0:0:0:0:
256,192,144454,1,0,0:0:0:0:
329,192,144454,1,0,0:0:0:0:
109,192,144608,1,0,0:0:0:0:
329,192,144608,1,0,0:0:0:0:
182,192,144761,1,0,0:0:0:0:
475,192,144761,1,0,0:0:0:0:
475,192,144915,1,0,0:0:0:0:
329,192,144915,1,0,0:0:0:0:
256,192,144915,1,0,0:0:0:0:
36,192,144915,1,0,0:0:0:70:VEC4 Snares 151.wav
182,192,145377,1,0,0:0:0:0:
329,192,145377,1,0,0:0:0:50:cymbal06.wav
109,192,145723,128,0,145838:0:0:0:0:
329,192,145838,128,0,146069:0:0:0:0:
329,192,146300,1,0,0:0:0:0:
475,192,146300,1,0,0:0:0:0:
109,192,146300,128,0,146531:0:0:0:70:Snare 3 - B.wav
182,192,146761,128,0,146992:0:0:0:0:
256,192,147223,128,0,147454:0:0:0:0:
402,192,147223,1,0,0:0:0:0:
36,192,147223,1,0,0:0:0:0:
256,192,147569,128,0,147685:0:0:0:0:
109,192,147685,128,0,148031:0:0:0:0:
329,192,147685,1,0,0:0:0:0:
475,192,147685,1,0,0:0:0:0:
256,192,148031,128,0,148146:0:0:0:0:
402,192,148146,128,0,148377:0:0:0:0:
182,192,148146,1,0,0:0:0:0:
36,192,148146,1,0,0:0:0:0:
256,192,148300,1,0,0:0:0:0:
109,192,148454,1,0,0:0:0:0:
329,192,148608,1,0,0:0:0:0:
182,192,148608,1,0,0:0:0:0:
402,192,148608,1,0,0:0:0:70:electronic32.wav
329,192,148761,1,0,0:0:0:0:
402,192,148761,1,0,0:0:0:0:
36,192,148838,1,0,0:0:0:0:
109,192,148838,1,0,0:0:0:50:LR_Kick Bass strong.wav
182,192,148915,1,0,0:0:0:0:
256,192,148915,1,0,0:0:0:50:LR_Kick Bass strong.wav
329,192,148992,1,0,0:0:0:0:
402,192,148992,1,0,0:0:0:50:LR_Kick Bass strong.wav
475,192,149069,128,0,149300:0:0:0:0:
109,192,149069,128,0,149300:0:0:0:50:cymbal06.wav
36,192,149069,128,0,149300:0:0:0:50:LR_Kick Bass strong.wav
402,192,149415,1,0,0:0:0:0:
475,192,149415,1,0,0:0:0:50:LR_Kick Bass strong.wav
329,192,149531,1,0,0:0:0:0:
36,192,149531,1,0,0:0:0:0:
256,192,149531,128,0,149646:0:0:0:50:Cymatics - Snare 2 - E.wav
256,192,149761,1,0,0:0:0:0:
182,192,149761,128,0,149877:0:0:0:50:LR_Kick Bass strong.wav
182,192,149992,1,0,0:0:0:0:
402,192,149992,1,0,0:0:0:0:
109,192,149992,128,0,150223:0:0:0:0:
329,192,150223,128,0,150338:0:0:0:0:
256,192,150223,1,0,0:0:0:50:LR_Kick Bass strong.wav
329,192,150454,1,0,0:0:0:0:
109,192,150454,1,0,0:0:0:0:
182,192,150454,128,0,150569:0:0:0:50:Cymatics - Snare 2 - E.wav
256,192,150685,1,0,0:0:0:0:
329,192,150685,128,0,150800:0:0:0:0:
36,192,150800,1,0,0:0:0:0:
109,192,150800,128,0,150915:0:0:0:0:
182,192,150915,1,0,0:0:0:0:
329,192,150915,1,0,0:0:0:0:
402,192,150915,128,0,151146:0:0:0:50:LR_Kick Bass strong.wav
109,192,151031,1,0,0:0:0:0:
256,192,151031,128,0,151146:0:0:0:0:
182,192,151146,128,0,151261:0:0:0:0:
475,192,151146,1,0,0:0:0:0:
329,192,151261,128,0,151377:0:0:0:0:
402,192,151261,1,0,0:0:0:0:
36,192,151261,1,0,0:0:0:50:LR_Kick Bass strong.wav
256,192,151377,128,0,151492:0:0:0:0:
109,192,151377,1,0,0:0:0:0:
182,192,151377,1,0,0:0:0:50:Cymatics - Snare 2 - E.wav
402,192,151492,128,0,151723:0:0:0:0:
475,192,151492,1,0,0:0:0:0:
329,192,151608,128,0,151838:0:0:0:0:
256,192,151608,1,0,0:0:0:0:
109,192,151608,1,0,0:0:0:50:LR_Kick Bass strong.wav
475,192,151723,128,0,151838:0:0:0:0:
182,192,151723,1,0,0:0:0:0:
402,192,151838,128,0,151954:0:0:0:0:
256,192,151838,1,0,0:0:0:0:
36,192,151838,128,0,152185:0:0:0:0:
109,192,151954,128,0,152185:0:0:0:0:
182,192,151954,1,0,0:0:0:0:
475,192,152069,1,0,0:0:0:0:
402,192,152069,1,0,0:0:0:0:
329,192,152069,128,0,152185:0:0:0:50:LR_Kick Bass strong.wav
256,192,152185,128,0,152300:0:0:0:0:
182,192,152185,1,0,0:0:0:0:
329,192,152300,1,0,0:0:0:0:
109,192,152300,128,0,152415:0:0:0:0:
36,192,152300,128,0,152415:0:0:0:50:Cymatics - Snare 2 - E.wav
256,192,152415,128,0,152531:0:0:0:0:
109,192,152531,128,0,152761:0:0:0:0:
36,192,152531,128,0,152761:0:0:0:0:
329,192,152646,128,0,152761:0:0:0:0:
402,192,152646,128,0,152761:0:0:0:0:
182,192,152761,1,0,0:0:0:0:
475,192,152761,1,0,0:0:0:0:
256,192,152761,128,0,152992:0:0:0:0:
109,192,153223,1,0,0:0:0:0:
36,192,153223,1,0,0:0:0:50:LR_Kick Bass strong.wav
329,192,153223,1,0,0:0:0:50:Cymatics - Snare 2 - E.wav
109,192,153338,1,0,0:0:0:0:
256,192,153338,1,0,0:0:0:50:VEC4 Snares 151.wav
402,192,153454,128,0,153569:0:0:0:0:
475,192,153454,128,0,153569:0:0:0:0:
329,192,153454,1,0,0:0:0:50:LR_Kick Bass strong.wav
402,192,153685,128,0,153915:0:0:0:0:
475,192,153685,128,0,153915:0:0:0:0:
182,192,153685,1,0,0:0:0:0:
256,192,153915,128,0,154031:0:0:0:0:
109,192,153915,1,0,0:0:0:0:
329,192,153915,1,0,0:0:0:50:LR_Kick Bass strong.wav
256,192,154146,1,0,0:0:0:0:
402,192,154146,1,0,0:0:0:0:
182,192,154146,128,0,154261:0:0:0:50:Cymatics - Snare 2 - E.wav
182,192,154377,128,0,154608:0:0:0:0:
329,192,154377,1,0,0:0:0:0:
109,192,154492,1,0,0:0:0:0:
36,192,154492,128,0,154608:0:0:0:0:
329,192,154608,1,0,0:0:0:0:
256,192,154608,128,0,154954:0:0:0:0:
475,192,154608,1,0,0:0:0:50:LR_Kick Bass strong.wav
182,192,154723,128,0,154838:0:0:0:0:
402,192,154838,128,0,154954:0:0:0:0:
475,192,154838,1,0,0:0:0:0:
182,192,154954,1,0,0:0:0:0:
109,192,154954,1,0,0:0:0:0:
36,192,154954,1,0,0:0:0:50:LR_Kick Bass strong.wav
182,192,155069,1,0,0:0:0:0:
109,192,155069,1,0,0:0:0:0:
329,192,155069,128,0,155300:0:0:0:50:Cymatics - Snare 2 - E.wav
256,192,155185,128,0,155415:0:0:0:0:
36,192,155185,1,0,0:0:0:0:
402,192,155300,128,0,155415:0:0:0:0:
109,192,155300,1,0,0:0:0:0:
182,192,155300,1,0,0:0:0:50:LR_Kick Bass strong.wav
329,192,155415,128,0,155531:0:0:0:0:
109,192,155415,1,0,0:0:0:0:
256,192,155531,128,0,155646:0:0:0:0:
182,192,155531,1,0,0:0:0:0:
475,192,155531,128,0,155761:0:0:0:0:
402,192,155646,128,0,155877:0:0:0:0:
109,192,155646,1,0,0:0:0:0:
329,192,155761,128,0,155992:0:0:0:0:
256,192,155761,1,0,0:0:0:0:
36,192,155761,1,0,0:0:0:50:LR_Kick Bass strong.wav
475,192,155877,128,0,155992:0:0:0:0:
182,192,155877,1,0,0:0:0:0:
402,192,155992,128,0,156108:0:0:0:0:
36,192,155992,1,0,0:0:0:50:LR_Kick Bass strong.wav
109,192,155992,128,0,156108:0:0:0:50:Cymatics - Snare 2 - E.wav
182,192,156108,1,0,0:0:0:0:
256,192,156108,128,0,156223:0:0:0:50:LR_Kick Bass strong.wav
329,192,156223,1,0,0:0:0:0:
109,192,156223,1,0,0:0:0:0:
402,192,156223,128,0,156338:0:0:0:50:LR_Kick Bass strong.wav
256,192,156338,1,0,0:0:0:0:
182,192,156338,128,0,156454:0:0:0:50:LR_Kick Bass strong.wav
109,192,156454,1,0,0:0:0:0:
36,192,156454,1,0,0:0:0:0:
402,192,156454,128,0,156800:0:0:0:0:
475,192,156454,128,0,156800:0:0:0:50:LR_Kick Bass strong.wav
182,192,156685,128,0,156800:0:0:0:0:
36,192,156685,1,0,0:0:0:0:
109,192,156800,1,0,0:0:0:0:
256,192,156800,1,0,0:0:0:0:
329,192,156800,1,0,0:0:0:50:LR_Kick Bass strong.wav
256,192,156915,128,0,157146:0:0:0:0:
182,192,156915,1,0,0:0:0:0:
402,192,156915,1,0,0:0:0:50:Cymatics - Snare 2 - E.wav
109,192,157031,1,0,0:0:0:0:
36,192,157031,128,0,157146:0:0:0:0:
402,192,157146,1,0,0:0:0:0:
475,192,157146,1,0,0:0:0:0:
329,192,157146,128,0,157261:0:0:0:50:LR_Kick Bass strong.wav
109,192,157261,1,0,0:0:0:0:
182,192,157261,128,0,157377:0:0:0:0:
329,192,157377,1,0,0:0:0:0:
475,192,157377,1,0,0:0:0:0:
256,192,157377,128,0,157492:0:0:0:0:
402,192,157608,128,0,157723:0:0:0:0:
256,192,157608,128,0,157723:0:0:0:0:
182,192,157608,1,0,0:0:0:50:LR_Kick Bass strong.wav
109,192,157723,128,0,157838:0:0:0:0:
36,192,157723,128,0,157838:0:0:0:0:
402,192,157838,128,0,158069:0:0:0:0:
182,192,157838,128,0,157954:0:0:0:0:
329,192,157838,1,0,0:0:0:50:Cymatics - Snare 2 - E.wav
256,192,157954,128,0,158185:0:0:0:0:
182,192,158069,128,0,158300:0:0:0:0:
475,192,158069,1,0,0:0:0:0:
109,192,158185,128,0,158300:0:0:0:0:
402,192,158185,1,0,0:0:0:0:
329,192,158300,1,0,0:0:0:0:
36,192,158300,1,0,0:0:0:0:
256,192,158300,128,0,158531:0:0:0:50:LR_Kick Bass strong.wav
182,192,158415,128,0,158646:0:0:0:0:
109,192,158415,1,0,0:0:0:0:
329,192,158531,128,0,158646:0:0:0:0:
402,192,158531,1,0,0:0:0:0:
256,192,158646,128,0,158761:0:0:0:0:
36,192,158646,1,0,0:0:0:0:
109,192,158646,1,0,0:0:0:50:LR_Kick Bass strong.wav
329,192,158761,1,0,0:0:0:0:
402,192,158761,128,0,158992:0:0:0:0:
475,192,158761,128,0,158992:0:0:0:0:
182,192,158761,1,0,0:0:0:50:Cymatics - Snare 2 - E.wav
109,192,158877,128,0,158992:0:0:0:0:
36,192,158877,128,0,158992:0:0:0:0:
256,192,158992,128,0,159108:0:0:0:0:
182,192,158992,1,0,0:0:0:0:
329,192,158992,128,0,159108:0:0:0:50:LR_Kick Bass strong.wav
109,192,159108,128,0,159338:0:0:0:0:
36,192,159108,128,0,159338:0:0:0:0:
256,192,159223,1,0,0:0:0:0:
329,192,159223,128,0,159338:0:0:0:0:
475,192,159223,128,0,159338:0:0:0:0:
109,192,159454,128,0,159569:0:0:0:0:
182,192,159454,128,0,159569:0:0:0:0:
402,192,159454,1,0,0:0:0:50:LR_Kick Bass strong.wav
329,192,159569,1,0,0:0:0:0:
182,192,159685,1,0,0:0:0:0:
256,192,159685,128,0,159800:0:0:0:0:
36,192,159685,128,0,159800:0:0:0:50:Cymatics - Snare 2 - E.wav
36,192,159915,128,0,160146:0:0:0:0:
256,192,159915,128,0,160146:0:0:0:0:
182,192,160031,128,0,160146:0:0:0:0:
402,192,160031,128,0,160146:0:0:0:0:
329,192,160146,128,0,160261:0:0:0:0:
475,192,160146,128,0,160261:0:0:0:0:
109,192,160146,128,0,160261:0:0:0:50:LR_Kick Bass strong.wav
329,192,160377,128,0,160492:0:0:0:0:
475,192,160377,128,0,160492:0:0:0:0:
182,192,160377,128,0,160492:0:0:0:0:
109,192,160492,1,0,0:0:0:0:
36,192,160492,1,0,0:0:0:50:LR_Kick Bass strong.wav
182,192,160608,128,0,160723:0:0:0:0:
256,192,160608,128,0,160723:0:0:0:0:
36,192,160608,1,0,0:0:0:50:Cymatics - Snare 2 - E.wav
182,192,160838,128,0,161069:0:0:0:0:
256,192,160838,128,0,161069:0:0:0:0:
402,192,160838,1,0,0:0:0:50:LR_Kick Bass strong.wav
109,192,160954,128,0,161069:0:0:0:0:
36,192,160954,128,0,161069:0:0:0:0:
402,192,161069,1,0,0:0:0:0:
329,192,161069,1,0,0:0:0:0:
475,192,161069,1,0,0:0:0:0:
402,192,161185,128,0,161415:0:0:0:0:
475,192,161185,128,0,161415:0:0:0:0:
182,192,161300,1,0,0:0:0:0:
109,192,161300,1,0,0:0:0:50:LR_Kick Bass strong.wav
329,192,161415,1,0,0:0:0:0:
109,192,161415,1,0,0:0:0:0:
36,192,161415,1,0,0:0:0:0:
182,192,161531,128,0,161761:0:0:0:0:
256,192,161531,128,0,161761:0:0:0:0:
402,192,161531,1,0,0:0:0:50:Cymatics - Snare 2 - E.wav
109,192,161877,128,0,161992:0:0:0:0:
182,192,161877,128,0,161992:0:0:0:0:
402,192,161992,1,0,0:0:0:0:
329,192,161992,1,0,0:0:0:0:
475,192,161992,1,0,0:0:0:50:LR_Kick Bass strong.wav
402,192,162108,128,0,162338:0:0:0:0:
256,192,162108,128,0,162338:0:0:0:0:
109,192,162338,1,0,0:0:0:0:
36,192,162338,1,0,0:0:0:0:
182,192,162338,1,0,0:0:0:50:LR_Kick Bass strong.wav
109,192,162454,128,0,162685:0:0:0:0:
36,192,162454,128,0,162685:0:0:0:0:
329,192,162454,1,0,0:0:0:50:Cymatics - Snare 2 - E.wav
329,192,162685,1,0,0:0:0:0:
475,192,162685,1,0,0:0:0:0:
256,192,162685,128,0,162800:0:0:0:50:LR_Kick Bass strong.wav
256,192,162915,1,0,0:0:0:0:
402,192,162915,1,0,0:0:0:0:
402,192,163031,128,0,163261:0:0:0:0:
182,192,163031,128,0,163261:0:0:0:0:
256,192,163146,128,0,163261:0:0:0:0:
329,192,163146,128,0,163261:0:0:0:0:
36,192,163146,128,0,163261:0:0:0:50:LR_Kick Bass strong.wav
182,192,163377,1,0,0:0:0:0:
109,192,163377,1,0,0:0:0:50:LR_Kick Bass strong.wav
36,192,163377,1,0,0:0:0:50:Cymatics - Snare 2 - E.wav
36,192,163492,128,0,163723:0:0:0:0:
109,192,163492,128,0,163723:0:0:0:0:
182,192,163492,128,0,163723:0:0:0:50:LR_Kick Bass strong.wav
475,192,163608,1,0,0:0:0:0:
402,192,163608,1,0,0:0:0:0:
329,192,163608,1,0,0:0:0:50:LR_Kick Bass strong.wav
329,192,163723,128,0,163838:0:0:0:0:
402,192,163723,128,0,163838:0:0:0:0:
475,192,163723,128,0,163838:0:0:0:50:LR_Kick Bass strong.wav
182,192,163838,1,0,0:0:0:0:
256,192,163838,1,0,0:0:0:0:
109,192,163838,128,0,164185:0:0:0:50:cymbal06.wav
36,192,163838,128,0,164185:0:0:0:50:LR_Kick Bass strong.wav
329,192,164069,128,0,164185:0:0:0:0:
475,192,164069,128,0,164185:0:0:0:0:
182,192,164185,128,0,164300:0:0:0:0:
256,192,164185,128,0,164300:0:0:0:50:LR_Kick Bass strong.wav
36,192,164300,1,0,0:0:0:0:
402,192,164300,128,0,164531:0:0:0:0:
329,192,164300,128,0,164531:0:0:0:50:Cymatics - Snare 2 - E.wav
109,192,164531,128,0,164646:0:0:0:0:
36,192,164531,128,0,164646:0:0:0:0:
256,192,164531,1,0,0:0:0:50:LR_Kick Bass strong.wav
109,192,164761,128,0,164992:0:0:0:0:
36,192,164761,128,0,164992:0:0:0:0:
329,192,164761,1,0,0:0:0:0:
256,192,164992,128,0,165108:0:0:0:0:
402,192,164992,1,0,0:0:0:0:
182,192,164992,128,0,165108:0:0:0:50:LR_Kick Bass strong.wav
109,192,165108,1,0,0:0:0:0:
36,192,165108,1,0,0:0:0:0:
256,192,165223,128,0,165454:0:0:0:0:
36,192,165223,128,0,165454:0:0:0:0:
329,192,165223,1,0,0:0:0:50:Cymatics - Snare 2 - E.wav
402,192,165338,128,0,165454:0:0:0:0:
475,192,165338,128,0,165454:0:0:0:0:
182,192,165454,128,0,165569:0:0:0:0:
256,192,165569,1,0,0:0:0:0:
36,192,165685,128,0,166031:0:0:0:0:
109,192,165685,1,0,0:0:0:0:
329,192,165685,128,0,165800:0:0:0:50:LR_Kick Bass strong.wav
256,192,165800,128,0,166031:0:0:0:0:
182,192,165800,1,0,0:0:0:0:
402,192,165915,128,0,166031:0:0:0:0:
475,192,165915,1,0,0:0:0:0:
329,192,166031,128,0,166146:0:0:0:0:
109,192,166031,1,0,0:0:0:0:
182,192,166031,1,0,0:0:0:50:LR_Kick Bass strong.wav
256,192,166146,1,0,0:0:0:0:
109,192,166146,128,0,166261:0:0:0:0:
475,192,166146,1,0,0:0:0:50:Cymatics - Snare 2 - E.wav
109,192,166377,1,0,0:0:0:0:
182,192,166377,128,0,166492:0:0:0:0:
329,192,166377,1,0,0:0:0:50:LR_Kick Bass strong.wav
182,192,166608,1,0,0:0:0:0:
256,192,166608,128,0,166954:0:0:0:0:
402,192,166608,128,0,166954:0:0:0:0:
329,192,166838,128,0,166954:0:0:0:0:
109,192,166838,128,0,166954:0:0:0:0:
36,192,166838,1,0,0:0:0:50:LR_Kick Bass strong.wav
182,192,166954,1,0,0:0:0:0:
475,192,166954,128,0,167069:0:0:0:0:
329,192,167069,1,0,0:0:0:0:
256,192,167069,1,0,0:0:0:0:
109,192,167069,1,0,0:0:0:50:Cymatics - Snare 2 - E.wav
329,192,167185,128,0,167415:0:0:0:0:
182,192,167185,1,0,0:0:0:0:
109,192,167300,128,0,167415:0:0:0:0:
36,192,167300,1,0,0:0:0:0:
256,192,167415,1,0,0:0:0:0:
402,192,167415,128,0,167531:0:0:0:0:
182,192,167531,1,0,0:0:0:0:
109,192,167531,1,0,0:0:0:0:
36,192,167531,1,0,0:0:0:50:LR_Kick Bass strong.wav
36,192,167646,128,0,167877:0:0:0:0:
109,192,167646,128,0,167877:0:0:0:0:
475,192,167761,128,0,167877:0:0:0:0:
329,192,167761,1,0,0:0:0:0:
256,192,167877,1,0,0:0:0:0:
182,192,167877,1,0,0:0:0:0:
402,192,167877,1,0,0:0:0:50:LR_Kick Bass strong.wav
329,192,167992,128,0,168223:0:0:0:0:
402,192,167992,128,0,168223:0:0:0:0:
109,192,167992,1,0,0:0:0:50:Cymatics - Snare 2 - E.wav
182,192,168223,128,0,168338:0:0:0:0:
36,192,168223,128,0,168338:0:0:0:0:
256,192,168223,1,0,0:0:0:50:LR_Kick Bass strong.wav
182,192,168454,128,0,168685:0:0:0:0:
36,192,168454,128,0,168685:0:0:0:0:
329,192,168454,1,0,0:0:0:0:
256,192,168685,128,0,168800:0:0:0:0:
402,192,168685,1,0,0:0:0:50:LR_Kick Bass strong.wav
109,192,168800,1,0,0:0:0:0:
36,192,168800,1,0,0:0:0:0:
36,192,168915,128,0,169146:0:0:0:0:
109,192,168915,128,0,169146:0:0:0:0:
256,192,168915,1,0,0:0:0:50:Cymatics - Snare 2 - E.wav
475,192,169031,1,0,0:0:0:0:
182,192,169146,128,0,169261:0:0:0:0:
329,192,169146,128,0,169261:0:0:0:0:
475,192,169261,1,0,0:0:0:0:
182,192,169377,1,0,0:0:0:0:
109,192,169377,128,0,169723:0:0:0:0:
329,192,169377,128,0,169723:0:0:0:50:LR_Kick Bass strong.wav
256,192,169608,128,0,169723:0:0:0:0:
36,192,169608,128,0,169723:0:0:0:0:
182,192,169723,1,0,0:0:0:0:
402,192,169723,1,0,0:0:0:0:
475,192,169723,1,0,0:0:0:50:LR_Kick Bass strong.wav
36,192,169838,1,0,0:0:0:0:
329,192,169838,128,0,170069:0:0:0:0:
256,192,169838,128,0,170069:0:0:0:50:Cymatics - Snare 2 - E.wav
182,192,170069,128,0,170185:0:0:0:0:
109,192,170069,128,0,170185:0:0:0:0:
475,192,170069,1,0,0:0:0:50:LR_Kick Bass strong.wav
182,192,170300,128,0,170531:0:0:0:0:
329,192,170300,1,0,0:0:0:0:
109,192,170300,128,0,170531:0:0:0:0:
36,192,170531,1,0,0:0:0:0:
256,192,170531,128,0,170646:0:0:0:0:
402,192,170531,128,0,170646:0:0:0:50:LR_Kick Bass strong.wav
109,192,170646,1,0,0:0:0:0:
329,192,170646,1,0,0:0:0:0:
182,192,170761,1,0,0:0:0:0:
402,192,170761,1,0,0:0:0:50:LR_Kick Bass strong.wav
475,192,170761,1,0,0:0:0:50:Cymatics - Snare 2 - E.wav
109,192,170877,1,0,0:0:0:0:
36,192,170877,1,0,0:0:0:50:LR_Kick Bass strong.wav
329,192,170992,1,0,0:0:0:0:
402,192,170992,1,0,0:0:0:50:LR_Kick Bass strong.wav
182,192,171108,1,0,0:0:0:0:
109,192,171108,1,0,0:0:0:50:LR_Kick Bass strong.wav
475,192,171223,1,0,0:0:0:0:
256,192,171223,128,0,171338:0:0:0:0:
329,192,171223,1,0,0:0:0:50:LR_Kick Bass strong.wav
256,192,171454,128,0,171685:0:0:0:0:
182,192,171454,128,0,171685:0:0:0:0:
475,192,171569,1,0,0:0:0:0:
402,192,171569,1,0,0:0:0:0:
329,192,171569,1,0,0:0:0:50:LR_Kick Bass strong.wav
36,192,171685,1,0,0:0:0:0:
329,192,171685,128,0,171915:0:0:0:0:
109,192,171685,128,0,171915:0:0:0:50:Cymatics - Snare 2 - E.wav
182,192,171915,128,0,172031:0:0:0:0:
402,192,171915,128,0,172031:0:0:0:0:
475,192,171915,1,0,0:0:0:50:LR_Kick Bass strong.wav
402,192,172146,1,0,0:0:0:0:
182,192,172146,128,0,172377:0:0:0:0:
329,192,172146,128,0,172377:0:0:0:0:
256,192,172377,128,0,172492:0:0:0:0:
109,192,172377,128,0,172492:0:0:0:0:
36,192,172377,1,0,0:0:0:50:LR_Kick Bass strong.wav
475,192,172492,1,0,0:0:0:0:
402,192,172492,128,0,172608:0:0:0:0:
256,192,172608,1,0,0:0:0:0:
329,192,172608,128,0,172838:0:0:0:0:
109,192,172608,128,0,172838:0:0:0:50:Cymatics - Snare 2 - E.wav
402,192,172838,128,0,172954:0:0:0:0:
182,192,172838,128,0,172954:0:0:0:0:
182,192,173069,1,0,0:0:0:0:
36,192,173069,128,0,173415:0:0:0:0:
256,192,173069,128,0,173415:0:0:0:50:LR_Kick Bass strong.wav
329,192,173300,1,0,0:0:0:0:
475,192,173300,1,0,0:0:0:0:
402,192,173415,1,0,0:0:0:0:
182,192,173415,128,0,173531:0:0:0:0:
109,192,173415,128,0,173531:0:0:0:50:LR_Kick Bass strong.wav
329,192,173531,128,0,173877:0:0:0:0:
256,192,173531,128,0,173877:0:0:0:0:
36,192,173531,1,0,0:0:0:50:Cymatics - Snare 2 - E.wav
109,192,173761,128,0,173877:0:0:0:0:
36,192,173761,128,0,173877:0:0:0:0:
182,192,173761,128,0,173877:0:0:0:50:LR_Kick Bass strong.wav
182,192,173992,128,0,174223:0:0:0:0:
256,192,173992,128,0,174223:0:0:0:0:
109,192,173992,128,0,174223:0:0:0:0:
329,192,174223,128,0,174338:0:0:0:0:
402,192,174223,128,0,174338:0:0:0:0:
36,192,174223,1,0,0:0:0:50:LR_Kick Bass strong.wav
109,192,174338,128,0,174454:0:0:0:0:
182,192,174338,1,0,0:0:0:0:
256,192,174454,128,0,174569:0:0:0:0:
475,192,174454,1,0,0:0:0:0:
329,192,174454,1,0,0:0:0:50:Cymatics - Snare 2 - E.wav
36,192,174569,128,0,174685:0:0:0:0:
256,192,174685,128,0,174915:0:0:0:0:
402,192,174685,1,0,0:0:0:0:
109,192,174800,128,0,174915:0:0:0:0:
182,192,174915,1,0,0:0:0:0:
329,192,174915,128,0,175031:0:0:0:0:
475,192,174915,128,0,175146:0:0:0:50:LR_Kick Bass strong.wav
182,192,175146,128,0,175261:0:0:0:0:
36,192,175146,1,0,0:0:0:0:
329,192,175146,128,0,175377:0:0:0:50:LR_Kick Bass strong.wav
475,192,175377,1,0,0:0:0:0:
256,192,175377,1,0,0:0:0:0:
182,192,175377,1,0,0:0:0:50:Cymatics - Snare 2 - E.wav
109,192,175608,1,0,0:0:0:0:
256,192,175608,128,0,175723:0:0:0:0:
402,192,175608,128,0,175838:0:0:0:50:LR_Kick Bass strong.wav
182,192,175838,128,0,175954:0:0:0:0:
329,192,175838,128,0,176069:0:0:0:0:
109,192,175838,1,0,0:0:0:50:LR_Kick Bass strong.wav
182,192,176069,128,0,176300:0:0:0:0:
329,192,176300,1,0,0:0:0:0:
36,192,176300,1,0,0:0:0:0:
256,192,176300,128,0,176415:0:0:0:50:Cymatics - Snare 2 - E.wav
109,192,176415,128,0,176646:0:0:0:0:
36,192,176415,128,0,176646:0:0:0:0:
329,192,176531,128,0,176646:0:0:0:0:
402,192,176531,128,0,176646:0:0:0:0:
182,192,176646,1,0,0:0:0:0:
256,192,176646,1,0,0:0:0:0:
402,192,176761,1,0,0:0:0:0:
182,192,176761,128,0,177454:0:0:0:0:
329,192,176761,128,0,176992:0:0:0:50:LR_Kick Bass strong.wav
256,192,176992,128,0,177223:0:0:0:0:
475,192,177223,1,0,0:0:0:0:
329,192,177454,128,0,177569:0:0:0:0:
329,192,177685,128,0,177915:0:0:0:0:
182,192,177685,1,0,0:0:0:0:
182,192,177915,128,0,178031:0:0:0:0:
36,192,177915,128,0,178031:0:0:0:0:
475,192,177973,1,0,0:0:0:0:
402,192,178031,1,0,0:0:0:0:
329,192,178088,1,0,0:0:0:0:
182,192,178146,128,0,178377:0:0:0:0:
36,192,178146,128,0,178377:0:0:0:0:
256,192,178146,1,0,0:0:0:0:
182,192,178492,1,0,0:0:0:0:
36,192,178492,1,0,0:0:0:0:
329,192,178608,1,0,0:0:0:0:
475,192,178608,128,0,180454:0:0:0:50:cymbal06.wav
256,192,178608,128,0,178723:0:0:0:50:LR_Kick Bass strong.wav
109,192,178723,128,0,178838:0:0:0:0:
329,192,178838,128,0,179069:0:0:0:0:
182,192,179069,1,0,0:0:0:0:
109,192,179185,128,0,179415:0:0:0:0:
329,192,179415,1,0,0:0:0:0:
36,192,179531,128,0,179761:0:0:0:0:
256,192,179531,1,0,0:0:0:0:
182,192,179531,1,0,0:0:0:50:Cymatics - Snare 2 - E.wav
256,192,179761,128,0,179877:0:0:0:0:
256,192,179992,1,0,0:0:0:0:
329,192,179992,128,0,180108:0:0:0:50:LR_Kick Bass strong.wav
182,192,180108,128,0,180338:0:0:0:0:
329,192,180338,1,0,0:0:0:0:
36,192,180454,128,0,182300:0:0:0:0:
256,192,180454,128,0,180569:0:0:0:0:
402,192,180569,128,0,180685:0:0:0:0:
329,192,180685,128,0,180915:0:0:0:0:
256,192,180685,1,0,0:0:0:50:LR_Kick Bass strong.wav
182,192,180915,128,0,181031:0:0:0:0:
182,192,181146,128,0,181377:0:0:0:0:
109,192,181146,1,0,0:0:0:50:LR_Kick Bass strong.wav
329,192,181261,128,0,181377:0:0:0:0:
256,192,181377,1,0,0:0:0:0:
402,192,181377,1,0,0:0:0:0:
475,192,181377,1,0,0:0:0:50:Cymatics - Snare 2 - E.wav
329,192,181492,128,0,181723:0:0:0:0:
256,192,181608,128,0,181723:0:0:0:0:
109,192,181723,1,0,0:0:0:0:
182,192,181838,128,0,182069:0:0:0:0:
329,192,181954,128,0,182069:0:0:0:0:
475,192,182069,128,0,182185:0:0:0:0:
329,192,182185,128,0,182300:0:0:0:0:
182,192,182300,128,0,184146:0:0:0:0:
256,192,182300,128,0,182415:0:0:0:50:LR_Kick Bass strong.wav
402,192,182415,128,0,182531:0:0:0:0:
36,192,182531,128,0,182646:0:0:0:0:
329,192,182646,128,0,182761:0:0:0:0:
109,192,182761,128,0,182992:0:0:0:0:
256,192,182992,128,0,183108:0:0:0:0:
402,192,183108,128,0,183223:0:0:0:0:
329,192,183223,128,0,183454:0:0:0:0:
256,192,183223,1,0,0:0:0:0:
36,192,183223,1,0,0:0:0:50:Cymatics - Snare 2 - E.wav
109,192,183454,128,0,183569:0:0:0:0:
109,192,183685,128,0,183915:0:0:0:0:
256,192,183685,1,0,0:0:0:50:LR_Kick Bass strong.wav
329,192,183915,128,0,184146:0:0:0:0:
256,192,184031,128,0,184146:0:0:0:0:
36,192,184146,128,0,185992:0:0:0:0:
402,192,184146,128,0,184261:0:0:0:0:
182,192,184261,128,0,184377:0:0:0:0:
329,192,184377,1,0,0:0:0:0:
402,192,184377,128,0,184608:0:0:0:50:LR_Kick Bass strong.wav
256,192,184492,128,0,184608:0:0:0:0:
182,192,184608,128,0,184838:0:0:0:0:
329,192,184723,128,0,184838:0:0:0:0:
109,192,184838,128,0,185069:0:0:0:0:
402,192,184838,1,0,0:0:0:50:LR_Kick Bass strong.wav
256,192,184954,128,0,185069:0:0:0:0:
475,192,185069,1,0,0:0:0:0:
329,192,185069,1,0,0:0:0:0:
402,192,185069,1,0,0:0:0:50:Cymatics - Snare 2 - E.wav
329,192,185300,128,0,185415:0:0:0:0:
329,192,185531,128,0,185877:0:0:0:0:
182,192,185531,1,0,0:0:0:0:
182,192,185761,128,0,185877:0:0:0:0:
256,192,185761,1,0,0:0:0:50:LR_Kick Bass strong.wav
109,192,185992,1,0,0:0:0:0:
182,192,185992,128,0,187838:0:0:0:0:
329,192,185992,128,0,186685:0:0:0:50:LR_Kick Bass strong.wav
402,192,186223,128,0,186685:0:0:0:0:
256,192,186685,128,0,186800:0:0:0:0:
329,192,186915,1,0,0:0:0:0:
109,192,186915,1,0,0:0:0:0:
256,192,186915,128,0,187146:0:0:0:50:Cymatics - Snare 2 - E.wav
329,192,187146,128,0,187261:0:0:0:0:
329,192,187377,128,0,187608:0:0:0:0:
402,192,187377,1,0,0:0:0:50:LR_Kick Bass strong.wav
402,192,187608,128,0,187723:0:0:0:0:
329,192,187838,128,0,189685:0:0:0:0:
402,192,187838,128,0,188069:0:0:0:0:
256,192,188069,128,0,188185:0:0:0:0:
182,192,188069,1,0,0:0:0:50:LR_Kick Bass strong.wav
256,192,188300,128,0,188531:0:0:0:0:
182,192,188531,1,0,0:0:0:0:
36,192,188531,1,0,0:0:0:50:LR_Kick Bass strong.wav
182,192,188761,1,0,0:0:0:0:
109,192,188761,1,0,0:0:0:0:
402,192,188761,1,0,0:0:0:50:Cymatics - Snare 2 - E.wav
109,192,188992,128,0,189108:0:0:0:0:
109,192,189223,1,0,0:0:0:0:
182,192,189454,128,0,189569:0:0:0:0:
36,192,189569,128,0,189685:0:0:0:0:
475,192,189685,128,0,191531:0:0:0:0:
182,192,189685,128,0,189800:0:0:0:50:LR_Kick Bass strong.wav
329,192,189800,128,0,189915:0:0:0:0:
109,192,189915,128,0,190031:0:0:0:0:
256,192,190031,128,0,190146:0:0:0:0:
182,192,190146,128,0,190261:0:0:0:0:
329,192,190261,128,0,190377:0:0:0:0:
109,192,190377,128,0,190492:0:0:0:0:
256,192,190492,128,0,190608:0:0:0:0:
182,192,190608,1,0,0:0:0:0:
109,192,190608,1,0,0:0:0:0:
36,192,190608,1,0,0:0:0:50:Cymatics - Snare 2 - E.wav
182,192,190723,128,0,190954:0:0:0:0:
329,192,190838,128,0,190954:0:0:0:0:
109,192,190954,128,0,191069:0:0:0:0:
182,192,191069,128,0,191300:0:0:0:0:
256,192,191069,1,0,0:0:0:50:LR_Kick Bass strong.wav
329,192,191185,128,0,191300:0:0:0:0:
36,192,191300,128,0,191415:0:0:0:0:
182,192,191415,128,0,191531:0:0:0:0:
256,192,191531,1,0,0:0:0:0:
402,192,191531,128,0,191646:0:0:0:50:LR_Kick Bass strong.wav
109,192,191646,128,0,191761:0:0:0:0:
329,192,191761,128,0,191877:0:0:0:0:
182,192,191761,1,0,0:0:0:50:LR_Kick Bass strong.wav
182,192,191877,128,0,191992:0:0:0:0:
402,192,191877,1,0,0:0:0:50:LR_Kick Bass strong.wav
402,192,191992,1,0,0:0:0:0:
256,192,191992,128,0,192223:0:0:0:0:
109,192,192108,1,0,0:0:0:0:
182,192,192223,1,0,0:0:0:0:
329,192,192223,1,0,0:0:0:50:LR_Kick Bass strong.wav
329,192,192338,128,0,192454:0:0:0:0:
256,192,192454,1,0,0:0:0:0:
109,192,192454,1,0,0:0:0:0:
36,192,192454,1,0,0:0:0:50:Cymatics - Snare 2 - E.wav
109,192,192569,128,0,192800:0:0:0:0:
402,192,192569,1,0,0:0:0:0:
329,192,192685,1,0,0:0:0:0:
256,192,192685,128,0,192800:0:0:0:50:LR_Kick Bass strong.wav
182,192,192800,1,0,0:0:0:0:
402,192,192800,1,0,0:0:0:0:
256,192,192915,1,0,0:0:0:0:
109,192,192915,1,0,0:0:0:0:
36,192,192915,128,0,193261:0:0:0:0:
329,192,193031,1,0,0:0:0:0:
402,192,193031,1,0,0:0:0:0:
182,192,193146,1,0,0:0:0:0:
475,192,193146,1,0,0:0:0:50:LR_Kick Bass strong.wav
256,192,193261,1,0,0:0:0:0:
329,192,193261,1,0,0:0:0:0:
109,192,193377,1,0,0:0:0:0:
36,192,193377,1,0,0:0:0:50:LR_Kick Bass strong.wav
402,192,193377,128,0,193608:0:0:0:50:Cymatics - Snare 2 - E.wav
475,192,193377,128,0,194300:0:0:0:50:cymbal06.wav
36,192,193608,1,0,0:0:0:0:
402,192,193723,1,0,0:0:0:0:
256,192,193723,128,0,193838:0:0:0:0:
109,192,193838,1,0,0:0:0:0:
329,192,193838,1,0,0:0:0:0:
182,192,193838,128,0,193954:0:0:0:50:Cymatics - Snare 2 - E.wav
182,192,194069,128,0,194300:0:0:0:0:
402,192,194069,1,0,0:0:0:0:
329,192,194300,1,0,0:0:0:0:
256,192,194300,128,0,194531:0:0:0:0:
36,192,194300,128,0,195223:0:0:0:50:Cymatics - Snare 2 - E.wav
109,192,194531,1,0,0:0:0:0:
256,192,194646,1,0,0:0:0:0:
182,192,194646,128,0,194761:0:0:0:0:
402,192,194761,1,0,0:0:0:0:
329,192,194761,128,0,194877:0:0:0:0:
475,192,194761,1,0,0:0:0:50:Cymatics - Snare 2 - E.wav
329,192,194992,128,0,195223:0:0:0:0:
182,192,194992,1,0,0:0:0:0:
109,192,195223,128,0,196146:0:0:0:0:
475,192,195223,128,0,195569:0:0:0:0:
256,192,195223,128,0,195338:0:0:0:50:Cymatics - Snare 2 - E.wav
256,192,195454,128,0,195685:0:0:0:0:
329,192,195569,1,0,0:0:0:0:
402,192,195569,128,0,195685:0:0:0:0:
475,192,195685,1,0,0:0:0:0:
182,192,195685,128,0,195915:0:0:0:0:
36,192,195685,1,0,0:0:0:50:Cymatics - Snare 2 - E.wav
256,192,195915,128,0,196031:0:0:0:0:
329,192,195915,1,0,0:0:0:0:
36,192,196146,128,0,197069:0:0:0:0:
256,192,196146,1,0,0:0:0:0:
182,192,196146,128,0,196377:0:0:0:50:Cymatics - Snare 2 - E.wav
329,192,196377,128,0,196492:0:0:0:0:
402,192,196377,1,0,0:0:0:0:
182,192,196492,1,0,0:0:0:50:Cymatics - Snare 2 - E.wav
109,192,196492,128,0,196608:0:0:0:0:
256,192,196608,1,0,0:0:0:0:
475,192,196608,128,0,196954:0:0:0:0:
329,192,196608,1,0,0:0:0:50:Cymatics - Snare 2 - E.wav
402,192,196723,128,0,196954:0:0:0:0:
182,192,196723,1,0,0:0:0:0:
329,192,196838,128,0,196954:0:0:0:0:
109,192,196838,1,0,0:0:0:0:
182,192,197069,128,0,197992:0:0:0:0:
256,192,197069,1,0,0:0:0:50:LR_Kick Bass strong.wav
402,192,197069,128,0,197415:0:0:0:50:Cymatics - Snare 2 - E.wav
329,192,197415,1,0,0:0:0:0:
329,192,197531,128,0,197761:0:0:0:0:
109,192,197531,1,0,0:0:0:0:
36,192,197531,1,0,0:0:0:50:Cymatics - Snare 2 - E.wav
256,192,197761,1,0,0:0:0:0:
402,192,197761,128,0,197877:0:0:0:0:
36,192,197992,128,0,198915:0:0:0:0:
402,192,197992,1,0,0:0:0:0:
329,192,197992,128,0,198338:0:0:0:50:Cymatics - Snare 2 - E.wav
182,192,198223,128,0,198338:0:0:0:0:
475,192,198338,1,0,0:0:0:0:
402,192,198338,128,0,198454:0:0:0:0:
182,192,198454,1,0,0:0:0:0:
256,192,198454,128,0,198685:0:0:0:0:
109,192,198454,1,0,0:0:0:50:Cymatics - Snare 2 - E.wav
329,192,198685,128,0,198800:0:0:0:0:
109,192,198685,1,0,0:0:0:0:
475,192,198915,128,0,199838:0:0:0:0:
329,192,198915,1,0,0:0:0:0:
182,192,198915,128,0,199146:0:0:0:50:Cymatics - Snare 2 - E.wav
256,192,199146,128,0,199261:0:0:0:0:
36,192,199261,1,0,0:0:0:0:
109,192,199261,128,0,199377:0:0:0:0:
402,192,199377,128,0,199608:0:0:0:0:
256,192,199377,1,0,0:0:0:0:
329,192,199377,1,0,0:0:0:50:Cymatics - Snare 2 - E.wav
182,192,199608,128,0,199723:0:0:0:0:
36,192,199608,1,0,0:0:0:0:
329,192,199838,128,0,200300:0:0:0:0:
182,192,199838,1,0,0:0:0:0:
109,192,199838,128,0,199954:0:0:0:50:Cymatics - Snare 2 - E.wav
109,192,200069,128,0,200300:0:0:0:0:
256,192,200069,1,0,0:0:0:0:
182,192,200185,128,0,200300:0:0:0:0:
402,192,200185,128,0,200300:0:0:0:0:
256,192,200300,1,0,0:0:0:0:
36,192,200300,1,0,0:0:0:0:
475,192,200300,1,0,0:0:0:50:Cymatics - Snare 2 - E.wav
109,192,200415,1,0,0:0:0:0:
402,192,200415,1,0,0:0:0:0:
329,192,200531,1,0,0:0:0:0:
182,192,200531,1,0,0:0:0:0:
402,192,200646,1,0,0:0:0:0:
109,192,200646,1,0,0:0:0:0:
36,192,200761,1,0,0:0:0:0:
256,192,200761,128,0,201108:0:0:0:50:Cymatics - Snare 2 - E.wav
475,192,200761,128,0,202608:0:0:0:50:LR_Kick Bass strong.wav
182,192,201108,1,0,0:0:0:0:
109,192,201108,1,0,0:0:0:50:LR_Kick Bass strong.wav
182,192,201223,1,0,0:0:0:0:
402,192,201223,1,0,0:0:0:0:
329,192,201223,128,0,201454:0:0:0:50:Cymatics - Snare 2 - E.wav
256,192,201454,128,0,201569:0:0:0:0:
109,192,201454,1,0,0:0:0:50:LR_Kick Bass strong.wav
256,192,201685,1,0,0:0:0:0:
182,192,201685,1,0,0:0:0:0:
402,192,201685,128,0,201915:0:0:0:50:Cymatics - Snare 2 - E.wav
182,192,201915,128,0,202031:0:0:0:0:
36,192,201915,1,0,0:0:0:50:LR_Kick Bass strong.wav
182,192,202146,1,0,0:0:0:0:
329,192,202146,1,0,0:0:0:0:
109,192,202146,128,0,202377:0:0:0:50:Cymatics - Snare 2 - E.wav
256,192,202377,128,0,202492:0:0:0:0:
329,192,202377,1,0,0:0:0:0:
36,192,202608,128,0,204454:0:0:0:0:
256,192,202608,1,0,0:0:0:50:LR_Kick Bass strong.wav
182,192,202608,128,0,202954:0:0:0:50:Cymatics - Snare 2 - E.wav
329,192,202954,1,0,0:0:0:0:
402,192,202954,1,0,0:0:0:50:LR_Kick Bass strong.wav
182,192,203069,1,0,0:0:0:0:
256,192,203069,128,0,203185:0:0:0:0:
402,192,203069,1,0,0:0:0:50:Cymatics - Snare 2 - E.wav
256,192,203300,128,0,203531:0:0:0:50:VEC4 Snares 151.wav
329,192,203300,1,0,0:0:0:50:LR_Kick Bass strong.wav
109,192,203531,1,0,0:0:0:0:
475,192,203531,1,0,0:0:0:0:
402,192,203531,128,0,203761:0:0:0:50:Cymatics - Snare 2 - E.wav
182,192,203761,1,0,0:0:0:0:
256,192,203761,1,0,0:0:0:50:LR_Kick Bass strong.wav
329,192,203877,1,0,0:0:0:0:
402,192,203877,1,0,0:0:0:50:LR_Kick Bass strong.wav
109,192,203992,1,0,0:0:0:0:
182,192,203992,1,0,0:0:0:0:
475,192,203992,1,0,0:0:0:50:Cymatics - Snare 2 - E.wav
109,192,204108,128,0,204454:0:0:0:0:
182,192,204108,128,0,204454:0:0:0:0:
256,192,204454,1,0,0:0:0:0:
475,192,204454,1,0,0:0:0:50:Cymatics - Snare 2 - E.wav
329,192,204454,128,0,204915:0:0:0:50:LR_Kick Bass strong.wav
182,192,204685,128,0,204800:0:0:0:0:
36,192,204685,1,0,0:0:0:0:
182,192,204915,1,0,0:0:0:0:
109,192,204915,1,0,0:0:0:0:
402,192,204915,1,0,0:0:0:50:Cymatics - Snare 2 - E.wav
109,192,205031,128,0,205261:0:0:0:0:
256,192,205031,128,0,205261:0:0:0:0:
475,192,205146,1,0,0:0:0:0:
329,192,205146,1,0,0:0:0:50:LR_Kick Bass strong.wav
256,192,205377,1,0,0:0:0:0:
182,192,205377,1,0,0:0:0:0:
36,192,205377,128,0,205723:0:0:0:50:Cymatics - Snare 2 - E.wav
329,192,205492,1,0,0:0:0:0:
182,192,205492,128,0,205608:0:0:0:50:LR_Kick Bass strong.wav
402,192,205608,128,0,205723:0:0:0:0:
256,192,205608,1,0,0:0:0:50:LR_Kick Bass strong.wav
182,192,205838,1,0,0:0:0:0:
329,192,205838,128,0,206069:0:0:0:50:LR_Kick Bass strong.wav
402,192,205838,1,0,0:0:0:50:Cymatics - Snare 2 - E.wav
36,192,206069,1,0,0:0:0:0:
109,192,206127,1,0,0:0:0:0:
182,192,206185,1,0,0:0:0:0:
256,192,206242,1,0,0:0:0:0:
329,192,206300,1,0,0:0:0:0:
402,192,206300,1,0,0:0:0:0:
475,192,206300,1,0,0:0:0:0:
402,192,206415,128,0,206646:0:0:0:0:
475,192,206415,128,0,206646:0:0:0:0:
109,192,206531,128,0,206646:0:0:0:0:
36,192,206531,128,0,206646:0:0:0:0:
182,192,206646,128,0,206877:0:0:0:0:
256,192,206646,128,0,206877:0:0:0:0:
402,192,206761,128,0,206877:0:0:0:0:
329,192,206761,128,0,206877:0:0:0:0:
475,192,206761,128,0,206877:0:0:0:0:
36,192,206877,128,0,206992:0:0:0:0:
109,192,206877,128,0,206992:0:0:0:0:
329,192,206992,128,0,207108:0:0:0:0:
256,192,206992,128,0,207108:0:0:0:0:
109,192,207108,128,0,207223:0:0:0:0:
182,192,207108,128,0,207223:0:0:0:0:
36,192,207223,1,0,0:0:0:0:
402,192,207223,128,0,207685:0:0:0:0:
475,192,207223,128,0,207685:0:0:0:0:
109,192,207338,1,0,0:0:0:0:
182,192,207454,1,0,0:0:0:0:
36,192,207569,1,0,0:0:0:0:
109,192,207685,1,0,0:0:0:0:
256,192,207685,1,0,0:0:0:0:
329,192,207800,1,0,0:0:0:0:
256,192,207915,1,0,0:0:0:0:
36,192,207915,1,0,0:0:0:0:
329,192,208031,1,0,0:0:0:0:
182,192,208146,1,0,0:0:0:0:
36,192,208146,1,0,0:0:0:0:
402,192,208146,1,0,0:0:0:0:
182,192,209069,1,0,0:0:0:0:
36,192,209069,1,0,0:0:0:0:
402,192,209069,1,0,0:0:0:70:Snare 3 - B.wav
256,192,209992,128,0,210108:0:0:0:0:
329,192,210915,1,0,0:0:0:0:
182,192,210915,1,0,0:0:0:0:
36,192,210915,1,0,0:0:0:70:Snare 3 - B.wav
182,192,212761,1,0,0:0:0:0:
329,192,212761,1,0,0:0:0:0:
475,192,212761,1,0,0:0:0:70:Snare 3 - B.wav
256,192,213685,128,0,213800:0:0:0:0:
182,192,214608,1,0,0:0:0:0:
475,192,214608,1,0,0:0:0:70:Snare 3 - B.wav
36,192,214608,1,0,0:0:0:0:
109,192,215069,1,0,0:0:0:0:
36,192,215069,1,0,0:0:0:0:
182,192,215069,1,0,0:0:0:50:LR_Kick Bass strong.wav
36,192,215223,1,0,0:0:0:0:
329,192,215223,1,0,0:0:0:0:
256,192,215223,1,0,0:0:0:50:LR_Kick Bass strong.wav
329,192,215377,1,0,0:0:0:0:
109,192,215377,1,0,0:0:0:0:
475,192,215377,1,0,0:0:0:50:LR_Kick Bass strong.wav
36,192,215531,1,0,0:0:0:0:
182,192,215531,1,0,0:0:0:0:
256,192,215531,1,0,0:0:0:0:
475,192,215531,1,0,0:0:0:50:electronic32.wav
182,192,215685,1,0,0:0:0:0:
402,192,215685,1,0,0:0:0:0:
329,192,215685,1,0,0:0:0:50:electronic32.wav
329,192,215838,1,0,0:0:0:0:
109,192,215838,1,0,0:0:0:0:
36,192,215838,1,0,0:0:0:50:electronic32.wav
109,192,215992,1,0,0:0:0:0:
256,192,215992,1,0,0:0:0:0:
402,192,215992,1,0,0:0:0:50:electronic32.wav
182,192,216146,1,0,0:0:0:0:
329,192,216146,1,0,0:0:0:0:
402,192,216146,1,0,0:0:0:50:electronic32.wav
256,192,216300,1,0,0:0:0:0:
329,192,216300,1,0,0:0:0:0:
36,192,216300,1,0,0:0:0:50:electronic32.wav
402,192,216454,1,0,0:0:0:0:
256,192,216454,1,0,0:0:0:0:
109,192,216454,1,0,0:0:0:50:electronic32.wav
182,192,216608,1,0,0:0:0:0:
109,192,216608,1,0,0:0:0:0:
329,192,216608,1,0,0:0:0:50:electronic32.wav
182,192,216761,1,0,0:0:0:0:
402,192,216761,1,0,0:0:0:0:
475,192,216761,1,0,0:0:0:50:electronic32.wav
256,192,216915,1,0,0:0:0:0:
402,192,216915,1,0,0:0:0:0:
36,192,216915,1,0,0:0:0:50:electronic32.wav
109,192,217069,1,0,0:0:0:0:
329,192,217069,1,0,0:0:0:0:
256,192,217069,1,0,0:0:0:50:electronic32.wav
182,192,217223,1,0,0:0:0:0:
329,192,217223,1,0,0:0:0:0:
402,192,217223,1,0,0:0:0:50:electronic32.wav
256,192,217377,1,0,0:0:0:0:
182,192,217377,1,0,0:0:0:0:
36,192,217377,1,0,0:0:0:50:electronic32.wav
182,192,217531,1,0,0:0:0:0:
329,192,217531,1,0,0:0:0:0:
475,192,217531,1,0,0:0:0:50:electronic32.wav
256,192,217685,1,0,0:0:0:0:
329,192,217685,1,0,0:0:0:0:
109,192,217685,1,0,0:0:0:50:electronic32.wav
256,192,217838,1,0,0:0:0:0:
402,192,217838,1,0,0:0:0:0:
475,192,217838,1,0,0:0:0:50:electronic32.wav
36,192,217992,1,0,0:0:0:0:
402,192,217992,1,0,0:0:0:0:
182,192,217992,1,0,0:0:0:50:electronic32.wav
182,192,218146,1,0,0:0:0:0:
109,192,218146,1,0,0:0:0:0:
329,192,218146,1,0,0:0:0:50:electronic32.wav
109,192,218300,1,0,0:0:0:0:
256,192,218300,1,0,0:0:0:0:
329,192,218300,1,0,0:0:0:50:electronic32.wav
256,192,218454,1,0,0:0:0:0:
402,192,218454,1,0,0:0:0:0:
475,192,218454,1,0,0:0:0:50:electronic32.wav
402,192,218608,1,0,0:0:0:0:
109,192,218608,1,0,0:0:0:0:
182,192,218608,1,0,0:0:0:50:electronic32.wav
182,192,218761,1,0,0:0:0:0:
329,192,218761,1,0,0:0:0:0:
36,192,218761,1,0,0:0:0:50:electronic32.wav
109,192,218915,1,0,0:0:0:0:
256,192,218915,1,0,0:0:0:0:
329,192,218915,1,0,0:0:0:50:electronic32.wav
256,192,219069,1,0,0:0:0:0:
402,192,219069,1,0,0:0:0:0:
475,192,219069,1,0,0:0:0:50:electronic32.wav
402,192,219223,1,0,0:0:0:0:
182,192,219223,1,0,0:0:0:0:
109,192,219223,1,0,0:0:0:50:electronic32.wav
182,192,219377,1,0,0:0:0:0:
329,192,219377,1,0,0:0:0:0:
36,192,219377,1,0,0:0:0:50:electronic32.wav
256,192,219531,1,0,0:0:0:0:
329,192,219531,1,0,0:0:0:0:
475,192,219531,1,0,0:0:0:50:electronic32.wav
36,192,219685,1,0,0:0:0:0:
256,192,219685,1,0,0:0:0:0:
109,192,219685,1,0,0:0:0:50:electronic32.wav
329,192,219838,1,0,0:0:0:0:
402,192,219838,1,0,0:0:0:0:
109,192,219838,1,0,0:0:0:50:electronic32.wav
329,192,219992,1,0,0:0:0:0:
475,192,219992,1,0,0:0:0:0:
36,192,219992,1,0,0:0:0:50:electronic32.wav
109,192,220069,1,0,0:0:0:0:
402,192,220146,1,0,0:0:0:0:
475,192,220146,1,0,0:0:0:0:
182,192,220146,1,0,0:0:0:50:electronic32.wav
329,192,220300,1,0,0:0:0:0:
109,192,220300,1,0,0:0:0:0:
36,192,220300,1,0,0:0:0:50:electronic32.wav
256,192,220454,1,0,0:0:0:0:
402,192,220454,1,0,0:0:0:0:
109,192,220454,1,0,0:0:0:50:electronic32.wav
182,192,220608,1,0,0:0:0:0:
475,192,220608,1,0,0:0:0:0:
256,192,220608,1,0,0:0:0:50:electronic32.wav
182,192,220761,1,0,0:0:0:0:
402,192,220761,1,0,0:0:0:0:
36,192,220761,1,0,0:0:0:50:electronic32.wav
109,192,220915,1,0,0:0:0:0:
36,192,220915,1,0,0:0:0:0:
329,192,220915,1,0,0:0:0:50:electronic32.wav
182,192,221069,1,0,0:0:0:0:
475,192,221069,1,0,0:0:0:0:
256,192,221069,1,0,0:0:0:40:electronic32.wav
36,192,221223,1,0,0:0:0:0:
182,192,221223,1,0,0:0:0:0:
402,192,221223,1,0,0:0:0:40:electronic32.wav
109,192,221377,1,0,0:0:0:0:
36,192,221377,1,0,0:0:0:0:
329,192,221377,1,0,0:0:0:40:electronic32.wav
256,192,221531,1,0,0:0:0:0:
109,192,221531,1,0,0:0:0:0:
402,192,221531,1,0,0:0:0:30:electronic32.wav
182,192,221685,1,0,0:0:0:0:
256,192,221685,1,0,0:0:0:0:
475,192,221685,1,0,0:0:0:30:electronic32.wav
182,192,221838,1,0,0:0:0:0:
329,192,221838,1,0,0:0:0:0:
402,192,221838,1,0,0:0:0:30:electronic32.wav
36,192,221915,1,0,0:0:0:0:
109,192,221992,1,0,0:0:0:0:
256,192,221992,1,0,0:0:0:0:
329,192,221992,1,0,0:0:0:20:electronic32.wav
402,192,222146,1,0,0:0:0:0:
475,192,222146,1,0,0:0:0:0:
182,192,222146,1,0,0:0:0:20:electronic32.wav
256,192,222300,1,0,0:0:0:0:
402,192,222300,1,0,0:0:0:0:
109,192,222300,1,0,0:0:0:20:electronic32.wav
329,192,222454,1,0,0:0:0:0:
256,192,222454,1,0,0:0:0:0:
475,192,222454,1,0,0:0:0:20:electronic32.wav
329,192,222608,1,0,0:0:0:0:
109,192,222608,1,0,0:0:0:0:
182,192,222608,1,0,0:0:0:20:electronic32.wav
36,192,222800,1,0,0:0:0:0:
256,192,222800,1,0,0:0:0:20:electronic32.wav
475,192,222800,128,0,224300:0:0:0:0:
182,192,223069,1,0,0:0:0:0:
182,192,223223,1,0,0:0:0:0:
256,192,223377,1,0,0:0:0:0:
329,192,223531,1,0,0:0:0:0:
329,192,223685,1,0,0:0:0:0:
36,192,223838,1,0,0:0:0:0:
182,192,223838,128,0,223992:0:0:0:0:
329,192,223992,1,0,0:0:0:0:
182,192,224146,1,0,0:0:0:0:
182,192,224300,1,0,0:0:0:0:
329,192,224300,128,0,224377:0:0:0:0:
329,192,224454,128,0,224608:0:0:0:0:
36,192,224454,1,0,0:0:0:0:
109,192,224608,128,0,224685:0:0:0:0:
402,192,224608,1,0,0:0:0:0:
182,192,224761,128,0,224838:0:0:0:0:
475,192,224761,1,0,0:0:0:50:cymbal06.wav
256,192,224761,1,0,0:0:0:50:LR_Kick Bass strong.wav
182,192,224915,128,0,225069:0:0:0:0:
329,192,224915,1,0,0:0:0:0:
329,192,225069,128,0,225146:0:0:0:0:
36,192,225069,1,0,0:0:0:0:
109,192,225223,128,0,225300:0:0:0:0:
182,192,225223,1,0,0:0:0:0:
329,192,225223,1,0,0:0:0:50:LR_Kick Bass strong.wav
109,192,225377,128,0,225531:0:0:0:0:
256,192,225377,1,0,0:0:0:0:
402,192,225531,1,0,0:0:0:0:
182,192,225531,128,0,225608:0:0:0:0:
36,192,225685,1,0,0:0:0:0:
329,192,225685,128,0,225761:0:0:0:0:
182,192,225685,1,0,0:0:0:50:LR_Kick Bass strong.wav
329,192,225838,128,0,225992:0:0:0:0:
109,192,225838,1,0,0:0:0:0:
402,192,225992,1,0,0:0:0:0:
182,192,225992,128,0,226069:0:0:0:0:
329,192,226146,1,0,0:0:0:0:
475,192,226146,1,0,0:0:0:0:
256,192,226146,128,0,226223:0:0:0:50:LR_Kick Bass strong.wav
256,192,226300,128,0,226454:0:0:0:0:
36,192,226300,1,0,0:0:0:0:
329,192,226454,128,0,226531:0:0:0:0:
109,192,226454,1,0,0:0:0:0:
182,192,226608,128,0,226685:0:0:0:0:
329,192,226608,1,0,0:0:0:0:
475,192,226608,1,0,0:0:0:50:LR_Kick Bass strong.wav
182,192,226761,128,0,226915:0:0:0:0:
402,192,226761,1,0,0:0:0:0:
109,192,226915,128,0,226992:0:0:0:0:
329,192,226915,1,0,0:0:0:0:
36,192,227069,1,0,0:0:0:0:
182,192,227069,128,0,227146:0:0:0:0:
256,192,227069,1,0,0:0:0:50:LR_Kick Bass strong.wav
109,192,227223,128,0,227377:0:0:0:0:
329,192,227223,1,0,0:0:0:0:
182,192,227377,128,0,227454:0:0:0:0:
402,192,227377,1,0,0:0:0:0:
109,192,227531,128,0,227608:0:0:0:0:
329,192,227531,1,0,0:0:0:0:
182,192,227531,1,0,0:0:0:50:LR_Kick Bass strong.wav
256,192,227685,128,0,227838:0:0:0:0:
402,192,227685,1,0,0:0:0:0:
329,192,227838,128,0,227915:0:0:0:0:
182,192,227838,1,0,0:0:0:0:
109,192,227992,1,0,0:0:0:0:
36,192,227992,1,0,0:0:0:0:
256,192,227992,128,0,228069:0:0:0:50:LR_Kick Bass strong.wav
329,192,228146,128,0,228300:0:0:0:0:
109,192,228146,1,0,0:0:0:0:
402,192,228300,128,0,228377:0:0:0:0:
182,192,228300,1,0,0:0:0:0:
329,192,228454,128,0,228531:0:0:0:0:
256,192,228454,1,0,0:0:0:0:
36,192,228454,128,0,228915:0:0:0:50:LR_Kick Bass strong.wav
329,192,228608,128,0,228761:0:0:0:0:
182,192,228608,1,0,0:0:0:0:
475,192,228761,128,0,228838:0:0:0:0:
256,192,228761,1,0,0:0:0:0:
329,192,228915,128,0,228992:0:0:0:0:
109,192,228915,128,0,229377:0:0:0:0:
402,192,228915,1,0,0:0:0:50:LR_Kick Bass strong.wav
329,192,229069,128,0,229223:0:0:0:0:
182,192,229069,1,0,0:0:0:0:
256,192,229223,128,0,229300:0:0:0:0:
402,192,229223,1,0,0:0:0:0:
182,192,229377,128,0,229838:0:0:0:0:
329,192,229377,128,0,229454:0:0:0:0:
475,192,229377,1,0,0:0:0:50:LR_Kick Bass strong.wav
109,192,229531,1,0,0:0:0:0:
329,192,229531,128,0,229685:0:0:0:0:
475,192,229685,128,0,229761:0:0:0:0:
256,192,229685,1,0,0:0:0:0:
36,192,229838,1,0,0:0:0:0:
402,192,229838,128,0,229915:0:0:0:0:
256,192,229838,128,0,230300:0:0:0:50:LR_Kick Bass strong.wav
402,192,229992,128,0,230146:0:0:0:0:
109,192,229992,1,0,0:0:0:0:
36,192,230146,128,0,230223:0:0:0:0:
182,192,230146,1,0,0:0:0:0:
329,192,230300,128,0,230761:0:0:0:0:
109,192,230300,128,0,230377:0:0:0:0:
402,192,230300,1,0,0:0:0:50:LR_Kick Bass strong.wav
109,192,230454,128,0,230608:0:0:0:0:
256,192,230454,1,0,0:0:0:0:
182,192,230608,128,0,230685:0:0:0:0:
475,192,230608,1,0,0:0:0:0:
402,192,230761,128,0,231223:0:0:0:0:
36,192,230761,128,0,230838:0:0:0:0:
256,192,230761,1,0,0:0:0:50:LR_Kick Bass strong.wav
109,192,230915,128,0,231069:0:0:0:0:
182,192,230915,1,0,0:0:0:0:
256,192,231069,128,0,231146:0:0:0:0:
329,192,231069,1,0,0:0:0:0:
475,192,231223,128,0,231685:0:0:0:0:
182,192,231223,128,0,231377:0:0:0:0:
36,192,231223,128,0,231454:0:0:0:50:LR_Kick Bass strong.wav
256,192,231377,128,0,231454:0:0:0:0:
109,192,231377,128,0,231608:0:0:0:0:
329,192,231531,128,0,231608:0:0:0:0:
182,192,231531,128,0,231761:0:0:0:0:
402,192,231685,128,0,231838:0:0:0:0:
36,192,231685,128,0,232146:0:0:0:50:VEC4 Snares 151.wav
256,192,231685,128,0,231915:0:0:0:50:LR_Kick Bass strong.wav
329,192,231838,128,0,231915:0:0:0:0:
182,192,231838,128,0,232069:0:0:0:0:
256,192,231992,128,0,232146:0:0:0:0:
109,192,231992,128,0,232223:0:0:0:0:
475,192,232146,1,0,0:0:0:0:
402,192,232146,128,0,232608:0:0:0:50:cymbal06.wav
182,192,232146,128,0,232300:0:0:0:50:LR_Kick Bass strong.wav
109,192,232300,128,0,232454:0:0:0:0:
329,192,232300,1,0,0:0:0:0:
182,192,232454,128,0,232531:0:0:0:0:
256,192,232454,1,0,0:0:0:0:
329,192,232608,128,0,233069:0:0:0:0:
182,192,232608,128,0,232761:0:0:0:0:
109,192,232608,1,0,0:0:0:50:LR_Kick Bass strong.wav
36,192,232761,128,0,232838:0:0:0:0:
256,192,232761,1,0,0:0:0:0:
109,192,232915,128,0,233069:0:0:0:0:
402,192,232915,1,0,0:0:0:0:
256,192,233069,128,0,233146:0:0:0:0:
36,192,233069,128,0,233146:0:0:0:0:
182,192,233069,1,0,0:0:0:50:LR_Kick Bass strong.wav
256,192,233223,128,0,233300:0:0:0:0:
109,192,233223,128,0,233377:0:0:0:0:
182,192,233377,128,0,233454:0:0:0:0:
329,192,233377,128,0,233454:0:0:0:0:
256,192,233531,128,0,233685:0:0:0:0:
329,192,233531,1,0,0:0:0:0:
36,192,233531,128,0,233992:0:0:0:50:LR_Kick Bass strong.wav
329,192,233685,128,0,233761:0:0:0:0:
109,192,233685,1,0,0:0:0:0:
402,192,233838,128,0,233992:0:0:0:0:
182,192,233838,1,0,0:0:0:0:
475,192,233992,128,0,234069:0:0:0:0:
329,192,233992,1,0,0:0:0:0:
256,192,233992,128,0,234146:0:0:0:50:LR_Kick Bass strong.wav
475,192,234146,128,0,234300:0:0:0:0:
182,192,234146,128,0,234223:0:0:0:0:
402,192,234300,128,0,234377:0:0:0:0:
182,192,234300,128,0,234454:0:0:0:0:
329,192,234454,128,0,234608:0:0:0:0:
109,192,234454,128,0,234531:0:0:0:0:
402,192,234454,1,0,0:0:0:50:LR_Kick Bass strong.wav
256,192,234608,128,0,234685:0:0:0:0:
109,192,234608,128,0,234761:0:0:0:0:
182,192,234761,128,0,234915:0:0:0:0:
36,192,234761,128,0,234838:0:0:0:0:
109,192,234915,128,0,234992:0:0:0:0:
329,192,234915,128,0,235069:0:0:0:0:
402,192,234915,1,0,0:0:0:50:LR_Kick Bass strong.wav
36,192,235069,128,0,235223:0:0:0:0:
256,192,235069,128,0,235146:0:0:0:0:
109,192,235223,128,0,235300:0:0:0:0:
402,192,235223,128,0,235377:0:0:0:0:
182,192,235377,128,0,235531:0:0:0:0:
329,192,235377,128,0,235454:0:0:0:0:
36,192,235377,128,0,235838:0:0:0:50:LR_Kick Bass strong.wav
256,192,235531,128,0,235608:0:0:0:0:
402,192,235531,128,0,235685:0:0:0:0:
329,192,235685,128,0,235838:0:0:0:0:
182,192,235685,128,0,235761:0:0:0:0:
402,192,235838,128,0,235915:0:0:0:0:
109,192,235838,128,0,236300:0:0:0:0:
256,192,235838,128,0,235992:0:0:0:50:LR_Kick Bass strong.wav
475,192,235992,128,0,236146:0:0:0:0:
182,192,235992,128,0,236069:0:0:0:0:
402,192,236146,128,0,236223:0:0:0:0:
256,192,236146,128,0,236300:0:0:0:0:
329,192,236300,128,0,236454:0:0:0:0:
475,192,236300,128,0,236377:0:0:0:0:
36,192,236300,128,0,236761:0:0:0:50:LR_Kick Bass strong.wav
256,192,236454,128,0,236531:0:0:0:0:
402,192,236454,128,0,236608:0:0:0:0:
182,192,236608,128,0,236761:0:0:0:0:
329,192,236608,128,0,236685:0:0:0:0:
109,192,236761,128,0,236838:0:0:0:0:
475,192,236761,128,0,237223:0:0:0:0:
256,192,236761,128,0,236915:0:0:0:50:LR_Kick Bass strong.wav
36,192,236915,128,0,237069:0:0:0:0:
329,192,236915,128,0,236992:0:0:0:0:
109,192,237069,128,0,237146:0:0:0:0:
256,192,237069,128,0,237223:0:0:0:0:
402,192,237223,128,0,237685:0:0:0:0:
182,192,237223,128,0,237377:0:0:0:0:
329,192,237223,128,0,237300:0:0:0:50:LR_Kick Bass strong.wav
256,192,237377,128,0,237454:0:0:0:0:
109,192,237377,128,0,237531:0:0:0:0:
182,192,237531,128,0,237685:0:0:0:0:
329,192,237531,128,0,237608:0:0:0:0:
329,192,237685,128,0,238146:0:0:0:0:
36,192,237685,128,0,238146:0:0:0:0:
109,192,237685,128,0,237761:0:0:0:50:LR_Kick Bass strong.wav
182,192,237838,128,0,237992:0:0:0:0:
402,192,237838,128,0,237915:0:0:0:0:
256,192,237992,128,0,238069:0:0:0:0:
475,192,237992,128,0,238146:0:0:0:0:
402,192,238146,128,0,238608:0:0:0:0:
182,192,238146,128,0,238223:0:0:0:0:
109,192,238146,128,0,238223:0:0:0:50:LR_Kick Bass strong.wav
182,192,238300,128,0,238454:0:0:0:0:
329,192,238300,128,0,238377:0:0:0:0:
256,192,238454,128,0,238531:0:0:0:0:
36,192,238454,128,0,238531:0:0:0:0:
475,192,238608,128,0,238838:0:0:0:0:
329,192,238608,128,0,238838:0:0:0:0:
109,192,238608,128,0,238838:0:0:0:50:LR_Kick Bass strong.wav
109,192,238915,1,0,0:0:0:0:
329,192,238915,1,0,0:0:0:0:
256,192,239069,128,0,239531:0:0:0:0:
36,192,239069,128,0,239531:0:0:0:50:LR_Kick Bass strong.wav
402,192,239069,128,0,239531:0:0:0:50:VEC4 Snares 151.wav
109,192,239377,1,0,0:0:0:0:
329,192,239377,1,0,0:0:0:0:
182,192,239531,128,0,239877:0:0:0:0:
109,192,239531,1,0,0:0:0:50:cymbal06.wav
475,192,239531,128,0,241377:0:0:0:50:LR_Kick Bass strong.wav
182,192,239992,128,0,240223:0:0:0:0:
182,192,240338,128,0,240454:0:0:0:0:
256,192,240454,1,0,0:0:0:0:
36,192,240569,128,0,240800:0:0:0:0:
256,192,240800,1,0,0:0:0:0:
182,192,240915,128,0,241031:0:0:0:0:
182,192,241146,1,0,0:0:0:0:
36,192,241146,1,0,0:0:0:50:LR_Kick Bass strong.wav
402,192,241377,128,0,243223:0:0:0:0:
36,192,241377,1,0,0:0:0:0:
109,192,241377,128,0,241723:0:0:0:50:LR_Kick Bass strong.wav
182,192,241838,128,0,242185:0:0:0:0:
256,192,242300,128,0,242646:0:0:0:0:
36,192,242646,1,0,0:0:0:0:
182,192,242761,128,0,242992:0:0:0:0:
182,192,243108,128,0,243223:0:0:0:0:
256,192,243223,1,0,0:0:0:0:
329,192,243223,128,0,243685:0:0:0:0:
36,192,243223,128,0,244146:0:0:0:50:LR_Kick Bass strong.wav
182,192,243685,1,0,0:0:0:0:
329,192,243800,128,0,244031:0:0:0:0:
475,192,244031,1,0,0:0:0:0:
182,192,244146,128,0,245069:0:0:0:0:
329,192,244146,1,0,0:0:0:0:
402,192,244146,128,0,244377:0:0:0:0:
402,192,244454,128,0,244608:0:0:0:0:
256,192,244608,128,0,244838:0:0:0:0:
329,192,244838,1,0,0:0:0:0:
36,192,244838,128,0,244954:0:0:0:50:LR_Kick Bass strong.wav
402,192,245069,128,0,245992:0:0:0:50:LR_Kick Bass strong.wav
36,192,245069,128,0,245415:0:0:0:0:
256,192,245069,1,0,0:0:0:0:
182,192,245531,128,0,245877:0:0:0:0:
475,192,245992,128,0,246915:0:0:0:0:
109,192,245992,128,0,246338:0:0:0:0:
329,192,245992,1,0,0:0:0:0:
182,192,246338,128,0,246454:0:0:0:0:
329,192,246454,128,0,246685:0:0:0:0:
329,192,246800,128,0,246915:0:0:0:0:
36,192,246915,128,0,248761:0:0:0:0:
256,192,246915,1,0,0:0:0:50:LR_Kick Bass strong.wav
182,192,246915,128,0,247261:0:0:0:0:
329,192,247146,1,0,0:0:0:0:
182,192,247377,1,0,0:0:0:0:
256,192,247377,128,0,247492:0:0:0:0:
256,192,247608,1,0,0:0:0:0:
475,192,247608,1,0,0:0:0:0:
109,192,247665,1,0,0:0:0:0:
182,192,247723,1,0,0:0:0:0:
329,192,247781,1,0,0:0:0:0:
256,192,247838,1,0,0:0:0:0:
475,192,247838,1,0,0:0:0:0:
402,192,247838,128,0,248069:0:0:0:50:LR_Kick Bass strong.wav
109,192,248069,1,0,0:0:0:0:
182,192,248185,128,0,248300:0:0:0:0:
329,192,248185,1,0,0:0:0:0:
256,192,248300,1,0,0:0:0:0:
475,192,248300,128,0,248531:0:0:0:0:
329,192,248531,128,0,248646:0:0:0:0:
109,192,248531,1,0,0:0:0:0:
182,192,248646,1,0,0:0:0:0:
475,192,248761,128,0,250608:0:0:0:0:
256,192,248761,1,0,0:0:0:0:
329,192,248761,1,0,0:0:0:50:LR_Kick Bass strong.wav
182,192,248877,128,0,249108:0:0:0:0:
36,192,248877,1,0,0:0:0:0:
329,192,249108,1,0,0:0:0:50:LR_Kick Bass strong.wav
182,192,249223,1,0,0:0:0:0:
109,192,249223,128,0,249454:0:0:0:0:
402,192,249454,1,0,0:0:0:50:LR_Kick Bass strong.wav
256,192,249454,128,0,249569:0:0:0:0:
182,192,249685,1,0,0:0:0:0:
256,192,249685,1,0,0:0:0:0:
36,192,249685,128,0,250031:0:0:0:50:LR_Kick Bass strong.wav
182,192,250031,1,0,0:0:0:0:
256,192,250146,1,0,0:0:0:0:
36,192,250146,1,0,0:0:0:0:
329,192,250146,128,0,250261:0:0:0:0:
109,192,250261,1,0,0:0:0:0:
182,192,250377,1,0,0:0:0:50:LR_Kick Bass strong.wav
256,192,250435,1,0,0:0:0:0:
36,192,250492,1,0,0:0:0:0:
109,192,250550,1,0,0:0:0:0:
402,192,250608,128,0,251531:0:0:0:0:
329,192,250608,1,0,0:0:0:0:
182,192,250608,128,0,250723:0:0:0:50:LR_Kick Bass strong.wav
36,192,250723,128,0,250838:0:0:0:0:
109,192,250723,1,0,0:0:0:0:
256,192,250838,128,0,250954:0:0:0:0:
329,192,250838,1,0,0:0:0:0:
36,192,250954,128,0,251069:0:0:0:0:
182,192,250954,1,0,0:0:0:0:
256,192,251069,128,0,251300:0:0:0:0:
475,192,251069,1,0,0:0:0:50:LR_Kick Bass strong.wav
36,192,251185,128,0,251300:0:0:0:0:
109,192,251185,1,0,0:0:0:0:
182,192,251300,128,0,251415:0:0:0:0:
329,192,251300,1,0,0:0:0:0:
256,192,251415,128,0,251531:0:0:0:0:
36,192,251415,1,0,0:0:0:0:
475,192,251531,128,0,252454:0:0:0:0:
329,192,251531,1,0,0:0:0:0:
109,192,251531,128,0,251646:0:0:0:50:LR_Kick Bass strong.wav
182,192,251646,128,0,251877:0:0:0:0:
256,192,251646,1,0,0:0:0:0:
329,192,251761,1,0,0:0:0:0:
402,192,251761,128,0,251877:0:0:0:0:
256,192,251877,128,0,251992:0:0:0:0:
36,192,251877,1,0,0:0:0:0:
329,192,251992,128,0,252223:0:0:0:0:
109,192,251992,1,0,0:0:0:50:LR_Kick Bass strong.wav
402,192,251992,1,0,0:0:0:0:
256,192,252223,128,0,252338:0:0:0:0:
109,192,252223,1,0,0:0:0:0:
402,192,252454,128,0,253377:0:0:0:0:
256,192,252454,1,0,0:0:0:0:
182,192,252454,128,0,252685:0:0:0:50:LR_Kick Bass strong.wav
109,192,252685,1,0,0:0:0:50:LR_Kick Bass strong.wav
329,192,252685,1,0,0:0:0:0:
256,192,252800,1,0,0:0:0:0:
36,192,252915,1,0,0:0:0:50:LR_Kick Bass strong.wav
329,192,252915,128,0,253377:0:0:0:0:
182,192,252915,128,0,253031:0:0:0:0:
109,192,253146,1,0,0:0:0:0:
182,192,253146,1,0,0:0:0:50:LR_Kick Bass strong.wav
109,192,253261,1,0,0:0:0:0:
256,192,253377,1,0,0:0:0:0:
182,192,253377,128,0,253492:0:0:0:0:
475,192,253377,128,0,253838:0:0:0:50:LR_Kick Bass strong.wav
182,192,253608,1,0,0:0:0:0:
256,192,253665,1,0,0:0:0:0:
36,192,253723,1,0,0:0:0:0:
329,192,253781,1,0,0:0:0:0:
109,192,253838,1,0,0:0:0:0:
402,192,253838,1,0,0:0:0:0:
182,192,253838,128,0,253954:0:0:0:0:
182,192,254069,1,0,0:0:0:0:
256,192,254069,1,0,0:0:0:0:
256,192,254185,1,0,0:0:0:0:
402,192,254185,1,0,0:0:0:0:
109,192,254300,1,0,0:0:0:50:Cymatics - Snare 2 - E.wav
36,192,254300,128,0,256146:0:0:0:50:cymbal06.wav
329,192,254300,128,0,254531:0:0:0:50:LR_Kick Bass strong.wav
329,192,254646,1,0,0:0:0:0:
256,192,254761,1,0,0:0:0:0:
475,192,254761,1,0,0:0:0:0:
182,192,254761,128,0,254877:0:0:0:50:Cymatics - Snare 2 - E.wav
182,192,254992,128,0,255223:0:0:0:0:
329,192,254992,1,0,0:0:0:0:
256,192,255223,128,0,255338:0:0:0:0:
402,192,255223,1,0,0:0:0:0:
475,192,255223,1,0,0:0:0:50:Cymatics - Snare 2 - E.wav
256,192,255454,1,0,0:0:0:0:
109,192,255454,1,0,0:0:0:0:
402,192,255569,1,0,0:0:0:0:
329,192,255569,128,0,255685:0:0:0:0:
109,192,255685,1,0,0:0:0:0:
475,192,255685,1,0,0:0:0:0:
182,192,255685,128,0,256146:0:0:0:50:Cymatics - Snare 2 - E.wav
329,192,256146,128,0,256261:0:0:0:0:
475,192,256146,128,0,257992:0:0:0:0:
256,192,256146,1,0,0:0:0:50:Cymatics - Snare 2 - E.wav
329,192,256377,128,0,256608:0:0:0:0:
109,192,256377,1,0,0:0:0:0:
182,192,256608,128,0,256723:0:0:0:0:
36,192,256608,1,0,0:0:0:0:
402,192,256608,1,0,0:0:0:50:Cymatics - Snare 2 - E.wav
182,192,256838,128,0,257069:0:0:0:0:
329,192,256838,1,0,0:0:0:0:
36,192,257069,128,0,257185:0:0:0:0:
402,192,257069,128,0,257300:0:0:0:0:
256,192,257069,128,0,257300:0:0:0:50:Cymatics - Snare 2 - E.wav
36,192,257300,128,0,257531:0:0:0:0:
182,192,257300,128,0,257415:0:0:0:0:
329,192,257531,128,0,257646:0:0:0:0:
109,192,257531,128,0,257646:0:0:0:0:
256,192,257531,1,0,0:0:0:50:Cymatics - Snare 2 - E.wav
182,192,257646,1,0,0:0:0:0:
329,192,257761,128,0,257992:0:0:0:0:
109,192,257761,128,0,257992:0:0:0:0:
182,192,257992,1,0,0:0:0:0:
256,192,257992,128,0,258338:0:0:0:0:
36,192,257992,128,0,259838:0:0:0:50:Cymatics - Snare 2 - E.wav
182,192,258338,1,0,0:0:0:0:
402,192,258338,1,0,0:0:0:0:
329,192,258454,1,0,0:0:0:0:
109,192,258454,1,0,0:0:0:0:
182,192,258454,128,0,258685:0:0:0:50:Cymatics - Snare 2 - E.wav
329,192,258685,128,0,258800:0:0:0:0:
475,192,258685,1,0,0:0:0:0:
109,192,258915,1,0,0:0:0:0:
256,192,258915,128,0,259031:0:0:0:0:
329,192,258915,1,0,0:0:0:50:Cymatics - Snare 2 - E.wav
475,192,259031,1,0,0:0:0:0:
402,192,259031,128,0,259261:0:0:0:0:
182,192,259261,1,0,0:0:0:0:
109,192,259261,1,0,0:0:0:0:
182,192,259377,1,0,0:0:0:0:
402,192,259377,1,0,0:0:0:0:
329,192,259377,128,0,259838:0:0:0:50:Cymatics - Snare 2 - E.wav
256,192,259838,1,0,0:0:0:0:
475,192,259838,128,0,259954:0:0:0:0:
182,192,259838,128,0,261569:0:0:0:50:Cymatics - Snare 2 - E.wav
475,192,260069,128,0,260300:0:0:0:0:
329,192,260069,128,0,260185:0:0:0:0:
256,192,260300,1,0,0:0:0:0:
329,192,260300,128,0,260531:0:0:0:0:
109,192,260300,128,0,260415:0:0:0:50:Cymatics - Snare 2 - E.wav
109,192,260531,128,0,260761:0:0:0:0:
402,192,260531,128,0,260646:0:0:0:0:
329,192,260761,128,0,260992:0:0:0:0:
475,192,260761,128,0,260877:0:0:0:0:
36,192,260761,1,0,0:0:0:50:Cymatics - Snare 2 - E.wav
475,192,260992,128,0,261223:0:0:0:0:
256,192,260992,128,0,261108:0:0:0:0:
256,192,261223,128,0,261454:0:0:0:0:
402,192,261223,128,0,261338:0:0:0:0:
36,192,261223,1,0,0:0:0:50:Cymatics - Snare 2 - E.wav
329,192,261338,128,0,261454:0:0:0:0:
109,192,261338,1,0,0:0:0:0:
402,192,261454,128,0,261685:0:0:0:0:
475,192,261454,128,0,261685:0:0:0:0:
256,192,261569,1,0,0:0:0:0:
329,192,261569,1,0,0:0:0:0:
182,192,261685,1,0,0:0:0:0:
36,192,261685,1,0,0:0:0:0:
109,192,261685,128,0,262031:0:0:0:50:Cymatics - Snare 2 - E.wav
256,192,262031,1,0,0:0:0:0:
402,192,262031,1,0,0:0:0:0:
402,192,262146,1,0,0:0:0:0:
182,192,262146,1,0,0:0:0:0:
329,192,262146,128,0,262261:0:0:0:50:Cymatics - Snare 2 - E.wav
182,192,262261,128,0,262492:0:0:0:0:
36,192,262261,1,0,0:0:0:0:
256,192,262377,128,0,262492:0:0:0:0:
329,192,262377,1,0,0:0:0:0:
109,192,262492,1,0,0:0:0:0:
475,192,262492,1,0,0:0:0:0:
256,192,262608,1,0,0:0:0:0:
402,192,262608,128,0,262723:0:0:0:0:
182,192,262608,128,0,262723:0:0:0:50:Cymatics - Snare 2 - E.wav
182,192,262838,128,0,263069:0:0:0:0:
329,192,262838,128,0,263069:0:0:0:0:
256,192,263069,1,0,0:0:0:0:
36,192,263069,1,0,0:0:0:0:
109,192,263069,128,0,263415:0:0:0:50:Cymatics - Snare 2 - E.wav
329,192,263300,1,0,0:0:0:0:
256,192,263415,1,0,0:0:0:0:
182,192,263415,1,0,0:0:0:0:
182,192,263531,1,0,0:0:0:0:
329,192,263531,1,0,0:0:0:0:
402,192,263531,1,0,0:0:0:50:Cymatics - Snare 2 - E.wav
329,192,263646,128,0,263761:0:0:0:0:
36,192,263646,1,0,0:0:0:0:
109,192,263761,1,0,0:0:0:0:
182,192,263761,1,0,0:0:0:0:
109,192,263877,128,0,263992:0:0:0:0:
256,192,263877,1,0,0:0:0:0:
329,192,263992,1,0,0:0:0:0:
402,192,263992,1,0,0:0:0:0:
475,192,263992,1,0,0:0:0:50:Cymatics - Snare 2 - E.wav
329,192,264108,128,0,264223:0:0:0:0:
182,192,264108,1,0,0:0:0:0:
109,192,264223,1,0,0:0:0:0:
36,192,264223,1,0,0:0:0:0:
109,192,264338,128,0,264454:0:0:0:0:
256,192,264338,1,0,0:0:0:0:
182,192,264454,128,0,264569:0:0:0:0:
402,192,264454,1,0,0:0:0:0:
329,192,264454,128,0,264800:0:0:0:50:Cymatics - Snare 2 - E.wav
182,192,264685,128,0,264915:0:0:0:0:
402,192,264685,128,0,264800:0:0:0:0:
329,192,264915,1,0,0:0:0:0:
36,192,264915,128,0,265031:0:0:0:0:
256,192,264915,128,0,265146:0:0:0:50:Cymatics - Snare 2 - E.wav
402,192,265146,1,0,0:0:0:0:
109,192,265146,128,0,265261:0:0:0:0:
329,192,265204,1,0,0:0:0:0:
256,192,265261,1,0,0:0:0:0:
182,192,265319,1,0,0:0:0:0:
36,192,265377,1,0,0:0:0:0:
109,192,265377,1,0,0:0:0:0:
402,192,265377,128,0,265608:0:0:0:50:Cymatics - Snare 2 - E.wav
329,192,265608,128,0,265723:0:0:0:0:
36,192,265608,1,0,0:0:0:50:Cymatics - Snare 2 - E.wav
109,192,265723,1,0,0:0:0:0:
182,192,265723,1,0,0:0:0:0:
182,192,265838,128,0,265954:0:0:0:0:
329,192,265838,1,0,0:0:0:0:
402,192,265838,1,0,0:0:0:50:Cymatics - Snare 2 - E.wav
402,192,265954,128,0,266185:0:0:0:0:
256,192,265954,1,0,0:0:0:0:
182,192,266069,1,0,0:0:0:0:
109,192,266069,1,0,0:0:0:50:Cymatics - Snare 2 - E.wav
109,192,266185,128,0,266300:0:0:0:0:
329,192,266185,1,0,0:0:0:0:
256,192,266300,1,0,0:0:0:0:
182,192,266300,128,0,266415:0:0:0:0:
402,192,266300,128,0,266415:0:0:0:50:Cymatics - Snare 2 - E.wav
182,192,266531,128,0,266761:0:0:0:0:
329,192,266531,128,0,266761:0:0:0:50:Cymatics - Snare 2 - E.wav
109,192,266761,1,0,0:0:0:0:
36,192,266761,128,0,267108:0:0:0:0:
256,192,266761,1,0,0:0:0:50:Cymatics - Snare 2 - E.wav
329,192,266877,1,0,0:0:0:0:
182,192,266992,1,0,0:0:0:50:Cymatics - Snare 2 - E.wav
402,192,267108,1,0,0:0:0:0:
36,192,267223,1,0,0:0:0:0:
256,192,267223,1,0,0:0:0:0:
475,192,267223,128,0,267569:0:0:0:50:Cymatics - Snare 2 - E.wav
182,192,267338,1,0,0:0:0:50:Cymatics - Snare 2 - E.wav
329,192,267454,1,0,0:0:0:50:Cymatics - Snare 2 - E.wav
109,192,267569,1,0,0:0:0:0:
182,192,267569,1,0,0:0:0:50:Cymatics - Snare 2 - E.wav
256,192,267685,128,0,267800:0:0:0:0:
182,192,267685,1,0,0:0:0:0:
402,192,267685,1,0,0:0:0:50:Cymatics - Snare 2 - E.wav
329,192,267800,128,0,268031:0:0:0:0:
109,192,267800,1,0,0:0:0:50:Cymatics - Snare 2 - E.wav
182,192,267915,1,0,0:0:0:0:
402,192,267915,128,0,268031:0:0:0:50:Cymatics - Snare 2 - E.wav
182,192,268031,128,0,268146:0:0:0:0:
475,192,268031,1,0,0:0:0:50:Cymatics - Snare 2 - E.wav
402,192,268146,1,0,0:0:0:0:
329,192,268146,1,0,0:0:0:0:
36,192,268146,128,0,268608:0:0:0:50:Cymatics - Snare 2 - E.wav
256,192,268261,1,0,0:0:0:50:Cymatics - Snare 2 - E.wav
182,192,268377,1,0,0:0:0:50:Cymatics - Snare 2 - E.wav
329,192,268492,1,0,0:0:0:0:
402,192,268492,128,0,268608:0:0:0:50:Cymatics - Snare 2 - E.wav
475,192,268608,1,0,0:0:0:0:
109,192,268608,1,0,0:0:0:0:
256,192,268608,128,0,268723:0:0:0:50:Cymatics - Snare 2 - E.wav
109,192,268723,128,0,268954:0:0:0:0:
182,192,268723,1,0,0:0:0:50:Cymatics - Snare 2 - E.wav
256,192,268838,1,0,0:0:0:0:
329,192,268838,128,0,268954:0:0:0:50:Cymatics - Snare 2 - E.wav
182,192,269069,1,0,0:0:0:0:
36,192,269069,1,0,0:0:0:0:
329,192,269069,128,0,269415:0:0:0:0:
475,192,269069,128,0,269415:0:0:0:50:cymbal06.wav
329,192,269531,1,0,0:0:0:0:
475,192,269531,1,0,0:0:0:0:
256,192,272300,1,0,0:0:0:0:
182,192,272300,1,0,0:0:0:0:
329,192,272300,1,0,0:0:0:0:
36,192,272300,1,0,0:0:0:0:
475,192,272300,1,0,0:0:0:50:VEC4 Snares 151.wav
36,192,272761,128,0,272992:0:0:0:0:
109,192,272761,128,0,272992:0:0:0:50:cymbal06.wav
182,192,272761,128,0,272992:0:0:0:50:LR_Kick Bass strong.wav
109,192,273454,1,0,0:0:0:0:
329,192,273454,1,0,0:0:0:0:
182,192,273454,128,0,273569:0:0:0:50:LR_Kick Bass strong.wav
329,192,273569,1,0,0:0:0:0:
182,192,273685,128,0,273915:0:0:0:0:
256,192,273685,1,0,0:0:0:0:
402,192,273685,1,0,0:0:0:0:
109,192,273915,128,0,274031:0:0:0:0:
475,192,273915,1,0,0:0:0:0:
329,192,273915,128,0,274146:0:0:0:50:LR_Kick Bass strong.wav
109,192,274146,128,0,274377:0:0:0:0:
256,192,274146,128,0,274261:0:0:0:70:Snare 3 - B.wav
36,192,274146,1,0,0:0:0:50:LR_Kick Bass strong.wav
182,192,274377,128,0,274492:0:0:0:0:
402,192,274377,1,0,0:0:0:0:
329,192,274492,1,0,0:0:0:0:
182,192,274608,128,0,274838:0:0:0:0:
256,192,274608,1,0,0:0:0:0:
36,192,274608,1,0,0:0:0:0:
475,192,274665,1,0,0:0:0:0:
402,192,274723,1,0,0:0:0:0:
329,192,274781,1,0,0:0:0:0:
256,192,274838,128,0,274954:0:0:0:0:
109,192,274838,1,0,0:0:0:0:
36,192,274838,1,0,0:0:0:50:LR_Kick Bass strong.wav
329,192,274954,1,0,0:0:0:0:
256,192,275069,128,0,275300:0:0:0:0:
182,192,275069,1,0,0:0:0:70:Snare 3 - B.wav
475,192,275069,1,0,0:0:0:50:LR_Kick Bass strong.wav
402,192,275185,1,0,0:0:0:0:
36,192,275300,128,0,275415:0:0:0:0:
329,192,275300,1,0,0:0:0:0:
182,192,275415,1,0,0:0:0:0:
36,192,275531,128,0,275761:0:0:0:0:
256,192,275531,1,0,0:0:0:0:
402,192,275531,128,0,275877:0:0:0:0:
329,192,275646,128,0,275877:0:0:0:0:
109,192,275761,128,0,275877:0:0:0:0:
256,192,275761,1,0,0:0:0:0:
475,192,275761,1,0,0:0:0:50:LR_Kick Bass strong.wav
182,192,275877,1,0,0:0:0:0:
109,192,275992,128,0,276454:0:0:0:0:
36,192,275992,1,0,0:0:0:70:Snare 3 - B.wav
329,192,275992,128,0,276223:0:0:0:50:LR_Kick Bass strong.wav
256,192,276108,128,0,276338:0:0:0:0:
402,192,276223,128,0,276338:0:0:0:0:
329,192,276338,128,0,276454:0:0:0:0:
36,192,276454,128,0,276569:0:0:0:0:
182,192,276454,1,0,0:0:0:0:
256,192,276454,1,0,0:0:0:50:LR_Kick Bass strong.wav
402,192,276569,1,0,0:0:0:0:
329,192,276569,128,0,276800:0:0:0:0:
182,192,276569,128,0,276800:0:0:0:50:LR_Kick Bass strong.wav
109,192,276915,1,0,0:0:0:0:
329,192,276915,1,0,0:0:0:70:Snare 3 - B.wav
182,192,276915,128,0,277261:0:0:0:50:LR_Kick Bass strong.wav
109,192,277031,1,0,0:0:0:0:
256,192,277031,128,0,277261:0:0:0:0:
402,192,277031,128,0,277261:0:0:0:50:LR_Kick Bass strong.wav
329,192,277146,128,0,277261:0:0:0:0:
109,192,277377,1,0,0:0:0:0:
36,192,277377,128,0,277838:0:0:0:0:
256,192,277377,128,0,277492:0:0:0:0:
256,192,277608,128,0,277838:0:0:0:0:
182,192,277608,1,0,0:0:0:0:
402,192,277608,128,0,277723:0:0:0:50:LR_Kick Bass strong.wav
182,192,277838,128,0,277954:0:0:0:0:
475,192,277838,1,0,0:0:0:70:Snare 3 - B.wav
329,192,277838,128,0,278069:0:0:0:50:LR_Kick Bass strong.wav
182,192,278069,128,0,278300:0:0:0:0:
402,192,278069,128,0,278185:0:0:0:0:
256,192,278185,1,0,0:0:0:0:
109,192,278300,128,0,278415:0:0:0:0:
36,192,278300,1,0,0:0:0:0:
475,192,278300,1,0,0:0:0:0:
402,192,278358,1,0,0:0:0:0:
329,192,278415,1,0,0:0:0:0:
256,192,278473,1,0,0:0:0:0:
109,192,278531,128,0,278761:0:0:0:0:
182,192,278531,1,0,0:0:0:0:
402,192,278531,1,0,0:0:0:50:LR_Kick Bass strong.wav
329,192,278646,1,0,0:0:0:0:
36,192,278761,128,0,278877:0:0:0:0:
475,192,278761,1,0,0:0:0:70:Snare 3 - B.wav
256,192,278761,128,0,278992:0:0:0:50:LR_Kick Bass strong.wav
329,192,278877,1,0,0:0:0:0:
36,192,278992,128,0,279223:0:0:0:0:
182,192,278992,128,0,279108:0:0:0:0:
256,192,279108,1,0,0:0:0:0:
109,192,279223,128,0,279338:0:0:0:0:
329,192,279223,1,0,0:0:0:0:
402,192,279223,1,0,0:0:0:0:
329,192,279338,128,0,279454:0:0:0:0:
182,192,279338,1,0,0:0:0:0:
109,192,279454,128,0,279685:0:0:0:0:
256,192,279454,128,0,279569:0:0:0:0:
475,192,279454,1,0,0:0:0:50:LR_Kick Bass strong.wav
402,192,279569,1,0,0:0:0:0:
182,192,279685,128,0,279800:0:0:0:0:
329,192,279685,1,0,0:0:0:0:
36,192,279685,128,0,280146:0:0:0:70:Snare 3 - B.wav
256,192,279800,1,0,0:0:0:0:
182,192,279915,128,0,280146:0:0:0:0:
329,192,279915,128,0,280031:0:0:0:0:
402,192,279915,1,0,0:0:0:50:LR_Kick Bass strong.wav
475,192,280146,128,0,281992:0:0:0:0:
329,192,280146,1,0,0:0:0:50:cymbal06.wav
256,192,280146,128,0,280492:0:0:0:50:LR_Kick Bass strong.wav
36,192,280377,1,0,0:0:0:0:
182,192,280492,1,0,0:0:0:0:
256,192,280608,1,0,0:0:0:0:
329,192,280608,128,0,280723:0:0:0:0:
36,192,280608,1,0,0:0:0:70:Snare 3 - B.wav
329,192,280838,1,0,0:0:0:0:
109,192,280838,1,0,0:0:0:0:
182,192,280838,128,0,280954:0:0:0:50:LR_Kick Bass strong.wav
256,192,281069,1,0,0:0:0:0:
182,192,281069,1,0,0:0:0:0:
402,192,281069,128,0,281300:0:0:0:0:
256,192,281300,128,0,281415:0:0:0:0:
36,192,281300,1,0,0:0:0:0:
109,192,281300,128,0,281531:0:0:0:50:LR_Kick Bass strong.wav
402,192,281531,128,0,281646:0:0:0:0:
256,192,281531,128,0,281761:0:0:0:70:Snare 3 - B.wav
182,192,281531,1,0,0:0:0:50:LR_Kick Bass strong.wav
109,192,281761,128,0,281877:0:0:0:0:
329,192,281877,1,0,0:0:0:0:
182,192,281992,128,0,282223:0:0:0:0:
256,192,281992,1,0,0:0:0:0:
36,192,281992,1,0,0:0:0:0:
402,192,282108,1,0,0:0:0:0:
329,192,282165,1,0,0:0:0:0:
109,192,282223,128,0,282338:0:0:0:0:
256,192,282223,1,0,0:0:0:0:
475,192,282223,1,0,0:0:0:50:LR_Kick Bass strong.wav
109,192,282454,128,0,282685:0:0:0:0:
329,192,282454,128,0,282569:0:0:0:70:Snare 3 - B.wav
402,192,282454,1,0,0:0:0:50:LR_Kick Bass strong.wav
36,192,282685,128,0,282800:0:0:0:0:
329,192,282685,1,0,0:0:0:0:
256,192,282800,1,0,0:0:0:0:
36,192,282915,128,0,283146:0:0:0:0:
182,192,282915,1,0,0:0:0:0:
402,192,282915,128,0,283146:0:0:0:0:
329,192,283031,128,0,283146:0:0:0:0:
109,192,283146,128,0,283261:0:0:0:0:
256,192,283146,1,0,0:0:0:0:
475,192,283146,1,0,0:0:0:50:LR_Kick Bass strong.wav
329,192,283261,1,0,0:0:0:0:
109,192,283377,128,0,283608:0:0:0:0:
475,192,283377,1,0,0:0:0:0:
402,192,283377,128,0,283723:0:0:0:70:Snare 3 - B.wav
182,192,283608,128,0,283723:0:0:0:0:
256,192,283608,1,0,0:0:0:0:
109,192,283723,1,0,0:0:0:0:
329,192,283838,1,0,0:0:0:0:
182,192,283838,128,0,284069:0:0:0:0:
475,192,283838,128,0,284300:0:0:0:50:LR_Kick Bass strong.wav
256,192,284069,1,0,0:0:0:0:
36,192,284069,1,0,0:0:0:0:
109,192,284069,128,0,284185:0:0:0:50:LR_Kick Bass strong.wav
402,192,284300,128,0,284761:0:0:0:0:
109,192,284300,128,0,284531:0:0:0:70:Snare 3 - B.wav
182,192,284300,1,0,0:0:0:50:LR_Kick Bass strong.wav
182,192,284531,128,0,284646:0:0:0:0:
329,192,284531,128,0,284761:0:0:0:0:
475,192,284761,128,0,285685:0:0:0:0:
182,192,284761,128,0,284992:0:0:0:0:
256,192,284761,1,0,0:0:0:0:
256,192,284992,128,0,285108:0:0:0:0:
329,192,284992,1,0,0:0:0:0:
36,192,284992,128,0,285223:0:0:0:50:LR_Kick Bass strong.wav
109,192,285223,128,0,285338:0:0:0:0:
402,192,285223,1,0,0:0:0:70:Snare 3 - B.wav
256,192,285223,128,0,285454:0:0:0:50:LR_Kick Bass strong.wav
329,192,285454,128,0,285569:0:0:0:0:
109,192,285454,128,0,285685:0:0:0:0:
402,192,285685,128,0,286608:0:0:0:0:
329,192,285685,128,0,285915:0:0:0:0:
182,192,285685,1,0,0:0:0:0:
36,192,285742,1,0,0:0:0:0:
109,192,285800,1,0,0:0:0:0:
182,192,285858,1,0,0:0:0:0:
256,192,285915,128,0,286031:0:0:0:0:
475,192,285915,1,0,0:0:0:0:
36,192,285915,1,0,0:0:0:50:LR_Kick Bass strong.wav
109,192,286031,1,0,0:0:0:0:
256,192,286146,128,0,286377:0:0:0:0:
182,192,286146,1,0,0:0:0:50:LR_Kick Bass strong.wav
475,192,286146,128,0,286377:0:0:0:70:Snare 3 - B.wav
182,192,286377,128,0,286492:0:0:0:0:
329,192,286377,1,0,0:0:0:0:
329,192,286608,128,0,287531:0:0:0:0:
182,192,286608,128,0,286838:0:0:0:0:
256,192,286608,1,0,0:0:0:0:
36,192,286608,1,0,0:0:0:0:
402,192,286723,128,0,286954:0:0:0:0:
109,192,286838,128,0,286954:0:0:0:0:
256,192,286838,128,0,286954:0:0:0:0:
36,192,286838,1,0,0:0:0:50:LR_Kick Bass strong.wav
475,192,286954,1,0,0:0:0:0:
109,192,287069,128,0,287300:0:0:0:0:
182,192,287069,1,0,0:0:0:0:
402,192,287069,128,0,287185:0:0:0:70:Snare 3 - B.wav
402,192,287300,128,0,287531:0:0:0:0:
256,192,287300,1,0,0:0:0:0:
36,192,287300,128,0,287531:0:0:0:50:LR_Kick Bass strong.wav
109,192,287531,1,0,0:0:0:0:
475,192,287531,128,0,288454:0:0:0:0:
182,192,287531,128,0,287992:0:0:0:0:
256,192,287992,128,0,288454:0:0:0:0:
36,192,287992,128,0,288454:0:0:0:70:Snare 3 - B.wav
402,192,287992,1,0,0:0:0:50:cymbal06.wav
402,192,288454,1,0,0:0:0:0:
329,192,288454,128,0,288569:0:0:0:0:
109,192,288454,128,0,288685:0:0:0:0:
182,192,288685,128,0,288800:0:0:0:0:
475,192,288685,1,0,0:0:0:0:
329,192,288685,128,0,288915:0:0:0:50:LR_Kick Bass strong.wav
182,192,288915,1,0,0:0:0:0:
109,192,288915,128,0,289146:0:0:0:70:Snare 3 - B.wav
402,192,288915,128,0,289031:0:0:0:50:LR_Kick Bass strong.wav
402,192,289146,128,0,289377:0:0:0:0:
182,192,289146,128,0,289261:0:0:0:0:
475,192,289377,128,0,290300:0:0:0:0:
182,192,289377,1,0,0:0:0:0:
256,192,289377,128,0,289492:0:0:0:0:
109,192,289492,1,0,0:0:0:0:
256,192,289608,128,0,289838:0:0:0:0:
329,192,289608,1,0,0:0:0:0:
36,192,289608,1,0,0:0:0:50:LR_Kick Bass strong.wav
329,192,289723,1,0,0:0:0:0:
402,192,289838,128,0,289954:0:0:0:0:
182,192,289838,128,0,290300:0:0:0:70:Snare 3 - B.wav
109,192,289838,1,0,0:0:0:50:LR_Kick Bass strong.wav
256,192,289954,1,0,0:0:0:0:
329,192,290069,128,0,290185:0:0:0:0:
109,192,290069,128,0,290300:0:0:0:0:
256,192,290185,1,0,0:0:0:0:
402,192,290300,128,0,291223:0:0:0:0:
329,192,290300,1,0,0:0:0:0:
36,192,290300,128,0,290415:0:0:0:0:
109,192,290415,1,0,0:0:0:0:
182,192,290531,1,0,0:0:0:0:
36,192,290531,128,0,290761:0:0:0:0:
256,192,290531,1,0,0:0:0:50:LR_Kick Bass strong.wav
182,192,290646,1,0,0:0:0:0:
256,192,290761,1,0,0:0:0:0:
329,192,290761,1,0,0:0:0:70:Snare 3 - B.wav
109,192,290761,128,0,290992:0:0:0:50:LR_Kick Bass strong.wav
329,192,290877,1,0,0:0:0:0:
256,192,290992,128,0,291108:0:0:0:0:
36,192,290992,1,0,0:0:0:0:
182,192,291108,128,0,291223:0:0:0:0:
109,192,291108,1,0,0:0:0:0:
329,192,291223,128,0,291685:0:0:0:0:
475,192,291223,1,0,0:0:0:0:
256,192,291223,1,0,0:0:0:50:LR_Kick Bass strong.wav
182,192,291338,1,0,0:0:0:0:
109,192,291338,128,0,291569:0:0:0:0:
402,192,291338,128,0,291685:0:0:0:50:LR_Kick Bass strong.wav
475,192,291685,128,0,292146:0:0:0:0:
182,192,291685,1,0,0:0:0:70:Snare 3 - B.wav
109,192,291685,1,0,0:0:0:50:LR_Kick Bass strong.wav
329,192,291800,128,0,292031:0:0:0:0:
182,192,291800,1,0,0:0:0:0:
402,192,291800,1,0,0:0:0:50:LR_Kick Bass strong.wav
256,192,291915,128,0,292031:0:0:0:0:
36,192,291915,128,0,292031:0:0:0:0:
402,192,292146,128,0,292608:0:0:0:0:
109,192,292146,1,0,0:0:0:0:
182,192,292146,128,0,292261:0:0:0:0:
182,192,292377,1,0,0:0:0:0:
36,192,292377,1,0,0:0:0:0:
256,192,292377,128,0,292492:0:0:0:50:LR_Kick Bass strong.wav
475,192,292608,128,0,293069:0:0:0:0:
256,192,292608,1,0,0:0:0:70:Snare 3 - B.wav
329,192,292608,128,0,292723:0:0:0:50:LR_Kick Bass strong.wav
329,192,292838,128,0,293069:0:0:0:0:
109,192,292838,1,0,0:0:0:0:
182,192,292954,1,0,0:0:0:0:
402,192,293069,128,0,293531:0:0:0:0:
36,192,293069,1,0,0:0:0:0:
256,192,293069,128,0,293185:0:0:0:0:
109,192,293185,1,0,0:0:0:0:
182,192,293300,128,0,293415:0:0:0:0:
256,192,293300,1,0,0:0:0:0:
475,192,293300,1,0,0:0:0:50:LR_Kick Bass strong.wav
109,192,293415,1,0,0:0:0:0:
475,192,293531,128,0,294454:0:0:0:0:
182,192,293531,1,0,0:0:0:50:LR_Kick Bass strong.wav
329,192,293531,128,0,293646:0:0:0:70:Snare 3 - B.wav
109,192,293646,1,0,0:0:0:0:
329,192,293761,128,0,293992:0:0:0:0:
182,192,293761,1,0,0:0:0:0:
36,192,293877,1,0,0:0:0:0:
402,192,293992,128,0,294338:0:0:0:0:
256,192,293992,128,0,294108:0:0:0:0:
109,192,293992,1,0,0:0:0:0:
182,192,294108,128,0,294223:0:0:0:0:
329,192,294108,1,0,0:0:0:0:
256,192,294223,128,0,294454:0:0:0:0:
36,192,294223,1,0,0:0:0:0:
109,192,294223,1,0,0:0:0:50:LR_Kick Bass strong.wav
182,192,294338,1,0,0:0:0:0:
36,192,294338,128,0,294685:0:0:0:0:
329,192,294454,128,0,294915:0:0:0:0:
402,192,294454,1,0,0:0:0:0:
109,192,294454,128,0,294685:0:0:0:70:Snare 3 - B.wav
182,192,294685,1,0,0:0:0:0:
256,192,294685,1,0,0:0:0:50:LR_Kick Bass strong.wav
182,192,294800,128,0,294915:0:0:0:0:
402,192,294800,128,0,294915:0:0:0:0:
256,192,294915,1,0,0:0:0:0:
475,192,294915,128,0,295377:0:0:0:0:
36,192,294915,128,0,295377:0:0:0:50:LR_Kick Bass strong.wav
329,192,295146,1,0,0:0:0:0:
256,192,295261,1,0,0:0:0:0:
109,192,295377,1,0,0:0:0:0:
182,192,295377,128,0,295492:0:0:0:0:
402,192,295377,128,0,295492:0:0:0:70:Snare 3 - B.wav
182,192,295608,128,0,295838:0:0:0:0:
329,192,295608,128,0,295723:0:0:0:0:
36,192,295608,1,0,0:0:0:50:LR_Kick Bass strong.wav
109,192,295723,1,0,0:0:0:0:
256,192,295838,128,0,295954:0:0:0:0:
329,192,295838,1,0,0:0:0:0:
475,192,295838,128,0,295954:0:0:0:0:
182,192,296069,1,0,0:0:0:0:
256,192,296069,128,0,296300:0:0:0:0:
402,192,296069,128,0,296185:0:0:0:50:LR_Kick Bass strong.wav
329,192,296300,128,0,296415:0:0:0:0:
36,192,296300,1,0,0:0:0:70:Snare 3 - B.wav
109,192,296300,128,0,296415:0:0:0:50:LR_Kick Bass strong.wav
329,192,296531,128,0,296761:0:0:0:0:
109,192,296531,1,0,0:0:0:0:
182,192,296531,128,0,296646:0:0:0:0:
182,192,296761,1,0,0:0:0:0:
402,192,296761,128,0,296877:0:0:0:0:
475,192,296761,1,0,0:0:0:0:
36,192,296819,1,0,0:0:0:0:
109,192,296877,1,0,0:0:0:0:
182,192,296935,1,0,0:0:0:0:
475,192,296992,1,0,0:0:0:0:
402,192,296992,128,0,297223:0:0:0:0:
256,192,296992,1,0,0:0:0:50:LR_Kick Bass strong.wav
475,192,297223,128,0,297338:0:0:0:0:
36,192,297223,1,0,0:0:0:50:LR_Kick Bass strong.wav
182,192,297223,128,0,297454:0:0:0:70:Snare 3 - B.wav
475,192,297454,128,0,297685:0:0:0:0:
256,192,297454,128,0,297569:0:0:0:0:
109,192,297569,1,0,0:0:0:0:
402,192,297685,128,0,297800:0:0:0:0:
182,192,297685,1,0,0:0:0:0:
256,192,297685,1,0,0:0:0:0:
182,192,297800,128,0,298031:0:0:0:0:
402,192,297915,128,0,298146:0:0:0:0:
256,192,297915,1,0,0:0:0:0:
109,192,297915,128,0,298031:0:0:0:50:LR_Kick Bass strong.wav
109,192,298146,1,0,0:0:0:0:
182,192,298146,128,0,298261:0:0:0:0:
329,192,298146,128,0,298261:0:0:0:70:Snare 3 - B.wav
36,192,298261,128,0,298377:0:0:0:0:
475,192,298261,1,0,0:0:0:0:
329,192,298377,128,0,298608:0:0:0:0:
402,192,298377,1,0,0:0:0:0:
182,192,298492,128,0,298608:0:0:0:0:
109,192,298492,1,0,0:0:0:0:
256,192,298608,128,0,298723:0:0:0:0:
402,192,298608,1,0,0:0:0:0:
475,192,298608,128,0,299069:0:0:0:50:LR_Kick Bass strong.wav
329,192,298838,1,0,0:0:0:0:
109,192,298838,1,0,0:0:0:0:
256,192,298838,128,0,299069:0:0:0:50:LR_Kick Bass strong.wav
182,192,299069,128,0,299185:0:0:0:0:
36,192,299069,1,0,0:0:0:70:Snare 3 - B.wav
402,192,299069,128,0,299531:0:0:0:50:LR_Kick Bass strong.wav
329,192,299185,128,0,299300:0:0:0:0:
109,192,299185,1,0,0:0:0:0:
182,192,299300,128,0,299531:0:0:0:0:
256,192,299300,1,0,0:0:0:0:
109,192,299531,128,0,299646:0:0:0:0:
36,192,299531,1,0,0:0:0:0:
329,192,299531,128,0,299761:0:0:0:0:
109,192,299761,128,0,299992:0:0:0:0:
256,192,299761,1,0,0:0:0:0:
402,192,299761,1,0,0:0:0:50:LR_Kick Bass strong.wav
36,192,299992,128,0,300108:0:0:0:0:
475,192,299992,128,0,300223:0:0:0:70:Snare 3 - B.wav
256,192,299992,128,0,300223:0:0:0:50:LR_Kick Bass strong.wav
36,192,300223,128,0,300454:0:0:0:0:
329,192,300223,128,0,300338:0:0:0:0:
109,192,300454,128,0,300569:0:0:0:0:
256,192,300454,1,0,0:0:0:0:
475,192,300454,1,0,0:0:0:0:
402,192,300511,1,0,0:0:0:0:
329,192,300569,1,0,0:0:0:0:
256,192,300627,1,0,0:0:0:0:
109,192,300685,128,0,300915:0:0:0:0:
182,192,300685,1,0,0:0:0:0:
402,192,300685,1,0,0:0:0:50:LR_Kick Bass strong.wav
182,192,300915,128,0,301031:0:0:0:0:
329,192,300915,1,0,0:0:0:50:LR_Kick Bass strong.wav
36,192,300915,128,0,301377:0:0:0:70:Snare 3 - B.wav
182,192,301146,128,0,301377:0:0:0:0:
256,192,301146,1,0,0:0:0:0:
256,192,301377,128,0,301492:0:0:0:0:
329,192,301377,1,0,0:0:0:0:
475,192,301377,128,0,301608:0:0:0:0:
109,192,301492,1,0,0:0:0:0:
402,192,301608,1,0,0:0:0:0:
256,192,301608,128,0,301838:0:0:0:0:
182,192,301608,1,0,0:0:0:50:LR_Kick Bass strong.wav
109,192,301723,128,0,301838:0:0:0:0:
36,192,301723,1,0,0:0:0:0:
329,192,301838,128,0,301954:0:0:0:0:
402,192,301838,1,0,0:0:0:0:
475,192,301838,128,0,302300:0:0:0:70:Snare 3 - B.wav
329,192,302069,128,0,302300:0:0:0:0:
182,192,302069,1,0,0:0:0:0:
109,192,302069,1,0,0:0:0:50:LR_Kick Bass strong.wav
182,192,302300,1,0,0:0:0:0:
256,192,302300,1,0,0:0:0:0:
36,192,302300,1,0,0:0:0:0:
182,192,305531,1,0,0:0:0:0:
109,192,305531,1,0,0:0:0:0:
36,192,305531,1,0,0:0:0:0:
329,192,305531,1,0,0:0:0:0:
402,192,305531,1,0,0:0:0:0:
475,192,305531,1,0,0:0:0:50:VEC4 Snares 151.wav
256,192,305992,1,0,0:0:0:0:
475,192,305992,128,0,306454:0:0:0:0:
182,192,305992,128,0,306069:0:0:0:50:cymbal06.wav
36,192,305992,1,0,0:0:0:50:LR_Kick Bass strong.wav
182,192,306146,128,0,306300:0:0:0:0:
329,192,306146,1,0,0:0:0:0:
256,192,306300,128,0,306377:0:0:0:0:
36,192,306300,1,0,0:0:0:0:
402,192,306454,128,0,306915:0:0:0:0:
256,192,306454,128,0,306608:0:0:0:0:
109,192,306454,1,0,0:0:0:50:LR_Kick Bass strong.wav
182,192,306608,128,0,306685:0:0:0:0:
329,192,306608,1,0,0:0:0:0:
182,192,306761,128,0,306915:0:0:0:0:
36,192,306761,1,0,0:0:0:0:
329,192,306915,128,0,307377:0:0:0:0:
109,192,306915,128,0,306992:0:0:0:0:
256,192,306915,1,0,0:0:0:50:LR_Kick Bass strong.wav
109,192,307069,128,0,307223:0:0:0:0:
402,192,307069,1,0,0:0:0:0:
36,192,307223,128,0,307300:0:0:0:0:
256,192,307223,1,0,0:0:0:0:
36,192,307377,128,0,307531:0:0:0:0:
182,192,307377,1,0,0:0:0:0:
475,192,307377,128,0,307838:0:0:0:50:LR_Kick Bass strong.wav
109,192,307531,128,0,307608:0:0:0:0:
329,192,307531,1,0,0:0:0:0:
109,192,307685,128,0,307838:0:0:0:0:
256,192,307685,1,0,0:0:0:0:
402,192,307838,128,0,308300:0:0:0:0:
182,192,307838,128,0,307915:0:0:0:0:
329,192,307838,1,0,0:0:0:50:LR_Kick Bass strong.wav
182,192,307992,128,0,308146:0:0:0:0:
109,192,307992,1,0,0:0:0:0:
256,192,308146,128,0,308223:0:0:0:0:
36,192,308146,1,0,0:0:0:0:
329,192,308300,128,0,308761:0:0:0:0:
256,192,308300,128,0,308454:0:0:0:0:
109,192,308300,1,0,0:0:0:50:LR_Kick Bass strong.wav
182,192,308454,128,0,308531:0:0:0:0:
402,192,308454,1,0,0:0:0:0:
182,192,308608,128,0,308761:0:0:0:0:
36,192,308608,1,0,0:0:0:0:
256,192,308761,1,0,0:0:0:0:
475,192,308761,128,0,309223:0:0:0:0:
109,192,308761,128,0,308838:0:0:0:50:LR_Kick Bass strong.wav
109,192,308915,128,0,309069:0:0:0:0:
329,192,308915,1,0,0:0:0:0:
182,192,309069,128,0,309146:0:0:0:0:
256,192,309069,1,0,0:0:0:0:
402,192,309223,128,0,309685:0:0:0:0:
182,192,309223,128,0,309377:0:0:0:0:
109,192,309223,1,0,0:0:0:50:LR_Kick Bass strong.wav
256,192,309377,128,0,309454:0:0:0:0:
36,192,309377,1,0,0:0:0:0:
256,192,309531,128,0,309685:0:0:0:0:
109,192,309531,1,0,0:0:0:0:
36,192,309685,128,0,310146:0:0:0:0:
182,192,309685,128,0,309761:0:0:0:0:
329,192,309685,1,0,0:0:0:50:LR_Kick Bass strong.wav
182,192,309838,128,0,309992:0:0:0:0:
402,192,309838,1,0,0:0:0:0:
329,192,309992,128,0,310069:0:0:0:0:
256,192,309992,1,0,0:0:0:0:
109,192,310146,128,0,310608:0:0:0:0:
329,192,310146,128,0,310300:0:0:0:0:
475,192,310146,1,0,0:0:0:50:LR_Kick Bass strong.wav
256,192,310300,128,0,310377:0:0:0:0:
402,192,310300,1,0,0:0:0:0:
256,192,310454,128,0,310608:0:0:0:0:
329,192,310454,1,0,0:0:0:0:
182,192,310608,128,0,311069:0:0:0:0:
402,192,310608,128,0,310685:0:0:0:0:
36,192,310608,1,0,0:0:0:50:LR_Kick Bass strong.wav
402,192,310761,128,0,310915:0:0:0:0:
109,192,310761,1,0,0:0:0:0:
329,192,310915,128,0,310992:0:0:0:0:
256,192,310915,1,0,0:0:0:0:
36,192,311069,128,0,311531:0:0:0:0:
329,192,311069,128,0,311223:0:0:0:0:
402,192,311069,1,0,0:0:0:50:LR_Kick Bass strong.wav
256,192,311223,128,0,311300:0:0:0:0:
109,192,311223,1,0,0:0:0:0:
256,192,311377,128,0,311531:0:0:0:0:
182,192,311377,1,0,0:0:0:0:
109,192,311531,128,0,311992:0:0:0:0:
402,192,311531,128,0,311608:0:0:0:0:
329,192,311531,1,0,0:0:0:50:LR_Kick Bass strong.wav
402,192,311685,128,0,311838:0:0:0:0:
256,192,311685,1,0,0:0:0:0:
329,192,311838,128,0,311915:0:0:0:0:
36,192,311838,1,0,0:0:0:0:
329,192,311992,128,0,312146:0:0:0:0:
402,192,311992,1,0,0:0:0:0:
182,192,311992,128,0,312454:0:0:0:50:LR_Kick Bass strong.wav
256,192,312146,128,0,312223:0:0:0:0:
475,192,312146,1,0,0:0:0:0:
256,192,312300,128,0,312454:0:0:0:0:
402,192,312300,1,0,0:0:0:0:
36,192,312454,128,0,312915:0:0:0:0:
329,192,312454,128,0,312531:0:0:0:0:
109,192,312454,1,0,0:0:0:0:
475,192,312454,1,0,0:0:0:50:VEC4 Snares 151.wav
329,192,312608,128,0,312761:0:0:0:0:
182,192,312608,1,0,0:0:0:0:
402,192,312761,128,0,312838:0:0:0:0:
256,192,312761,1,0,0:0:0:0:
109,192,312915,128,0,313377:0:0:0:0:
402,192,312915,128,0,313069:0:0:0:0:
329,192,312915,1,0,0:0:0:50:VEC4 Snares 151.wav
182,192,312915,1,0,0:0:0:50:LR_Kick Bass strong.wav
475,192,313069,128,0,313146:0:0:0:0:
182,192,313069,1,0,0:0:0:0:
475,192,313223,128,0,313377:0:0:0:0:
256,192,313223,1,0,0:0:0:0:
256,192,313377,1,0,0:0:0:0:
36,192,313377,128,0,313838:0:0:0:0:
329,192,313377,128,0,313454:0:0:0:50:LR_Kick Bass strong.wav
402,192,313377,128,0,313685:0:0:0:50:cymbal06.wav
329,192,313531,128,0,313685:0:0:0:0:
182,192,313531,1,0,0:0:0:0:
256,192,313685,128,0,313761:0:0:0:0:
475,192,313685,1,0,0:0:0:0:
109,192,313838,128,0,314300:0:0:0:0:
256,192,313838,128,0,313992:0:0:0:0:
402,192,313838,128,0,314069:0:0:0:50:LR_Kick Bass strong.wav
329,192,313992,128,0,314069:0:0:0:0:
182,192,313992,1,0,0:0:0:0:
329,192,314146,128,0,314300:0:0:0:0:
475,192,314146,1,0,0:0:0:0:
182,192,314300,128,0,314761:0:0:0:0:
402,192,314300,128,0,314377:0:0:0:0:
256,192,314300,128,0,314531:0:0:0:50:LR_Kick Bass strong.wav
402,192,314454,128,0,314608:0:0:0:0:
109,192,314454,1,0,0:0:0:0:
475,192,314608,128,0,314685:0:0:0:0:
256,192,314608,1,0,0:0:0:0:
475,192,314761,128,0,314915:0:0:0:0:
36,192,314761,128,0,315223:0:0:0:0:
329,192,314761,128,0,314992:0:0:0:50:LR_Kick Bass strong.wav
402,192,314915,128,0,314992:0:0:0:0:
182,192,314915,1,0,0:0:0:0:
402,192,315069,128,0,315223:0:0:0:0:
256,192,315069,1,0,0:0:0:0:
109,192,315223,128,0,315685:0:0:0:0:
329,192,315223,128,0,315300:0:0:0:0:
182,192,315223,128,0,315454:0:0:0:50:LR_Kick Bass strong.wav
329,192,315377,128,0,315531:0:0:0:0:
402,192,315377,1,0,0:0:0:0:
256,192,315531,128,0,315608:0:0:0:0:
475,192,315531,1,0,0:0:0:0:
182,192,315685,128,0,316146:0:0:0:0:
256,192,315685,128,0,315838:0:0:0:0:
402,192,315685,128,0,315915:0:0:0:50:LR_Kick Bass strong.wav
329,192,315838,128,0,315915:0:0:0:0:
109,192,315838,1,0,0:0:0:0:
329,192,315992,128,0,316146:0:0:0:0:
475,192,315992,1,0,0:0:0:0:
36,192,316146,128,0,316608:0:0:0:0:
402,192,316146,128,0,316223:0:0:0:0:
256,192,316146,128,0,316377:0:0:0:50:LR_Kick Bass strong.wav
402,192,316300,128,0,316454:0:0:0:0:
182,192,316300,1,0,0:0:0:0:
329,192,316454,128,0,316531:0:0:0:0:
256,192,316454,1,0,0:0:0:0:
109,192,316608,128,0,317069:0:0:0:0:
402,192,316608,128,0,316838:0:0:0:0:
329,192,316608,128,0,316838:0:0:0:50:LR_Kick Bass strong.wav
256,192,316761,128,0,316838:0:0:0:0:
475,192,316761,1,0,0:0:0:0:
256,192,316915,128,0,317069:0:0:0:0:
402,192,316915,1,0,0:0:0:0:
329,192,317069,128,0,317146:0:0:0:0:
182,192,317069,128,0,317300:0:0:0:0:
475,192,317069,128,0,317531:0:0:0:50:LR_Kick Bass strong.wav
36,192,317069,128,0,317146:0:0:0:0:
329,192,317223,128,0,317531:0:0:0:0:
109,192,317223,128,0,317300:0:0:0:0:
402,192,317223,128,0,317300:0:0:0:0:
182,192,317377,128,0,317454:0:0:0:0:
256,192,317377,128,0,317531:0:0:0:0:
36,192,317377,128,0,317454:0:0:0:0:
402,192,317531,128,0,317685:0:0:0:0:
182,192,317531,128,0,317685:0:0:0:0:
36,192,317531,128,0,317685:0:0:0:0:
109,192,317531,128,0,317685:0:0:0:50:LR_Kick Bass strong.wav
329,192,317685,128,0,317761:0:0:0:0:
256,192,317685,128,0,317761:0:0:0:0:
475,192,317685,128,0,317761:0:0:0:0:
256,192,317992,128,0,318146:0:0:0:0:
109,192,317992,128,0,318069:0:0:0:0:
329,192,317992,128,0,318146:0:0:0:0:
475,192,317992,128,0,318300:0:0:0:50:LR_Kick Bass strong.wav
109,192,318146,128,0,318300:0:0:0:0:
36,192,318146,128,0,318300:0:0:0:0:
402,192,318146,128,0,318300:0:0:0:0:
182,192,318300,128,0,318377:0:0:0:0:
256,192,318300,128,0,318377:0:0:0:0:
329,192,318300,128,0,318377:0:0:0:0:
329,192,318454,128,0,318608:0:0:0:0:
182,192,318454,128,0,318608:0:0:0:0:
475,192,318454,128,0,318608:0:0:0:0:
402,192,318454,128,0,318608:0:0:0:50:LR_Kick Bass strong.wav
36,192,318608,128,0,318685:0:0:0:0:
109,192,318608,128,0,318685:0:0:0:0:
256,192,318608,128,0,318685:0:0:0:0:
402,192,318915,128,0,319377:0:0:0:0:
109,192,318915,128,0,318992:0:0:0:0:
182,192,318915,128,0,319146:0:0:0:50:LR_Kick Bass strong.wav
475,192,318915,128,0,318992:0:0:0:0:
36,192,319069,128,0,319146:0:0:0:0:
256,192,319069,128,0,319146:0:0:0:0:
329,192,319069,128,0,319377:0:0:0:0:
182,192,319223,128,0,319300:0:0:0:0:
109,192,319223,128,0,319300:0:0:0:0:
475,192,319223,128,0,319377:0:0:0:0:
36,192,319377,128,0,319454:0:0:0:0:
256,192,319377,128,0,319685:0:0:0:0:
109,192,319377,128,0,319454:0:0:0:0:
329,192,319531,128,0,319685:0:0:0:0:
182,192,319531,128,0,319685:0:0:0:0:
36,192,319531,128,0,319685:0:0:0:0:
109,192,319685,128,0,319761:0:0:0:0:
402,192,319685,128,0,319761:0:0:0:0:
475,192,319685,128,0,319761:0:0:0:0:
182,192,319838,128,0,319915:0:0:0:0:
256,192,319838,128,0,320069:0:0:0:0:
36,192,319838,128,0,320223:0:0:0:0:
402,192,319992,128,0,320069:0:0:0:0:
109,192,319992,128,0,320223:0:0:0:0:
329,192,319992,128,0,320223:0:0:0:0:
182,192,320146,128,0,320223:0:0:0:0:
256,192,320146,128,0,320223:0:0:0:0:
402,192,320146,128,0,320223:0:0:0:0:
109,192,320300,128,0,320377:0:0:0:0:
182,192,320300,128,0,320377:0:0:0:0:
36,192,320300,128,0,320377:0:0:0:0:
329,192,320300,128,0,320531:0:0:0:0:
475,192,320300,128,0,320531:0:0:0:0:
256,192,320454,128,0,320531:0:0:0:0:
109,192,320454,128,0,320531:0:0:0:0:
182,192,320608,128,0,320685:0:0:0:0:
329,192,320608,128,0,320685:0:0:0:0:
36,192,320761,1,0,0:0:0:0:
475,192,320761,128,0,321223:0:0:0:0:
256,192,320761,128,0,320838:0:0:0:50:cymbal06.wav
109,192,320761,128,0,320915:0:0:0:50:LR_Kick Bass strong.wav
256,192,320915,128,0,321069:0:0:0:0:
402,192,320915,128,0,320992:0:0:0:0:
182,192,321069,128,0,321146:0:0:0:0:
36,192,321069,128,0,321146:0:0:0:0:
329,192,321223,128,0,321685:0:0:0:0:
182,192,321223,128,0,321377:0:0:0:50:Cymatics - Snare 2 - E.wav
402,192,321223,128,0,321377:0:0:0:50:LR_Kick Bass strong.wav
109,192,321377,128,0,321454:0:0:0:0:
256,192,321377,128,0,321531:0:0:0:0:
109,192,321531,128,0,321685:0:0:0:0:
402,192,321531,128,0,321608:0:0:0:0:
182,192,321685,128,0,322146:0:0:0:0:
36,192,321685,128,0,321761:0:0:0:0:
256,192,321685,128,0,321838:0:0:0:50:LR_Kick Bass strong.wav
36,192,321838,128,0,321992:0:0:0:0:
402,192,321838,128,0,321915:0:0:0:0:
329,192,321992,128,0,322069:0:0:0:0:
109,192,321992,128,0,322146:0:0:0:0:
36,192,322146,128,0,322608:0:0:0:0:
329,192,322146,128,0,322300:0:0:0:50:Cymatics - Snare 2 - E.wav
475,192,322146,128,0,322223:0:0:0:50:LR_Kick Bass strong.wav
256,192,322300,128,0,322377:0:0:0:0:
402,192,322300,128,0,322454:0:0:0:0:
256,192,322454,128,0,322608:0:0:0:0:
109,192,322454,128,0,322531:0:0:0:0:
182,192,322608,128,0,323069:0:0:0:0:
402,192,322608,128,0,322685:0:0:0:0:
329,192,322608,128,0,322685:0:0:0:50:LR_Kick Bass strong.wav
402,192,322761,128,0,322915:0:0:0:0:
256,192,322761,128,0,322915:0:0:0:0:
475,192,322915,128,0,322992:0:0:0:0:
109,192,322915,128,0,323069:0:0:0:0:
329,192,323069,128,0,323531:0:0:0:0:
475,192,323069,128,0,323223:0:0:0:50:LR_Kick Bass strong.wav
36,192,323069,128,0,323146:0:0:0:50:Cymatics - Snare 2 - E.wav
402,192,323223,128,0,323300:0:0:0:0:
109,192,323223,128,0,323377:0:0:0:0:
402,192,323377,128,0,323531:0:0:0:0:
182,192,323377,128,0,323454:0:0:0:0:
475,192,323531,128,0,323992:0:0:0:0:
256,192,323531,128,0,323608:0:0:0:0:
109,192,323531,128,0,323992:0:0:0:50:LR_Kick Bass strong.wav
256,192,323685,128,0,323838:0:0:0:0:
402,192,323685,128,0,323761:0:0:0:0:
182,192,323838,128,0,323915:0:0:0:0:
329,192,323838,128,0,323992:0:0:0:0:
402,192,323992,128,0,324454:0:0:0:0:
182,192,323992,128,0,324146:0:0:0:50:Cymatics - Snare 2 - E.wav
256,192,323992,128,0,324454:0:0:0:50:LR_Kick Bass strong.wav
109,192,324146,128,0,324223:0:0:0:0:
329,192,324146,128,0,324300:0:0:0:0:
109,192,324300,128,0,324454:0:0:0:0:
182,192,324300,128,0,324454:0:0:0:0:
36,192,324454,128,0,324531:0:0:0:0:
475,192,324454,128,0,324608:0:0:0:0:
329,192,324454,128,0,324915:0:0:0:50:LR_Kick Bass strong.wav
36,192,324608,128,0,324761:0:0:0:0:
256,192,324608,128,0,324685:0:0:0:0:
109,192,324761,128,0,324838:0:0:0:0:
402,192,324761,128,0,324915:0:0:0:0:
256,192,324915,128,0,325377:0:0:0:0:
109,192,324915,128,0,325069:0:0:0:50:Cymatics - Snare 2 - E.wav
475,192,324915,128,0,325146:0:0:0:50:LR_Kick Bass strong.wav
329,192,325069,128,0,325146:0:0:0:0:
182,192,325069,128,0,325146:0:0:0:0:
329,192,325223,128,0,325377:0:0:0:0:
109,192,325223,128,0,325377:0:0:0:0:
36,192,325377,128,0,325531:0:0:0:0:
182,192,325377,128,0,325838:0:0:0:0:
402,192,325377,128,0,325454:0:0:0:50:LR_Kick Bass strong.wav
402,192,325531,128,0,325685:0:0:0:0:
256,192,325531,128,0,325608:0:0:0:0:
475,192,325685,128,0,325761:0:0:0:0:
256,192,325685,128,0,325838:0:0:0:0:
109,192,325838,128,0,326300:0:0:0:0:
475,192,325838,128,0,325992:0:0:0:50:LR_Kick Bass strong.wav
329,192,325838,128,0,325915:0:0:0:50:Cymatics - Snare 2 - E.wav
402,192,325992,128,0,326069:0:0:0:0:
256,192,325992,128,0,326146:0:0:0:0:
402,192,326146,128,0,326300:0:0:0:0:
182,192,326146,128,0,326223:0:0:0:0:
329,192,326300,128,0,326377:0:0:0:0:
182,192,326300,128,0,326454:0:0:0:0:
36,192,326300,128,0,326761:0:0:0:50:LR_Kick Bass strong.wav
329,192,326454,128,0,326608:0:0:0:0:
109,192,326454,128,0,326531:0:0:0:0:
256,192,326608,128,0,326685:0:0:0:0:
402,192,326608,128,0,326685:0:0:0:0:
109,192,326761,128,0,327223:0:0:0:0:
256,192,326761,128,0,326915:0:0:0:50:LR_Kick Bass strong.wav
329,192,326761,128,0,326915:0:0:0:50:Cymatics - Snare 2 - E.wav
182,192,326915,128,0,326992:0:0:0:0:
402,192,326915,128,0,327069:0:0:0:0:
182,192,327069,128,0,327223:0:0:0:0:
329,192,327069,128,0,327146:0:0:0:0:
36,192,327223,128,0,327300:0:0:0:0:
475,192,327223,128,0,327300:0:0:0:0:
256,192,327223,128,0,327454:0:0:0:0:
329,192,327223,128,0,327454:0:0:0:70:VEC4 Snares 151.wav
402,192,327377,128,0,327531:0:0:0:0:
182,192,327377,128,0,327454:0:0:0:0:
36,192,327377,128,0,327454:0:0:0:0:
329,192,327531,128,0,327608:0:0:0:0:
109,192,327531,128,0,327761:0:0:0:0:
182,192,327531,128,0,327608:0:0:0:0:
256,192,327685,128,0,327838:0:0:0:0:
36,192,327685,128,0,327761:0:0:0:0:
402,192,327685,128,0,327761:0:0:0:50:LR_Kick Bass strong.wav
475,192,327685,128,0,328069:0:0:0:50:VEC4 Snares 151.wav
182,192,327838,128,0,327915:0:0:0:0:
329,192,327838,128,0,328069:0:0:0:0:
109,192,327838,128,0,327915:0:0:0:0:
256,192,327992,128,0,328069:0:0:0:0:
402,192,327992,128,0,328069:0:0:0:0:
182,192,327992,128,0,328069:0:0:0:0:
256,192,328146,128,0,328223:0:0:0:0:
36,192,328146,128,0,328608:0:0:0:0:
475,192,328146,128,0,328300:0:0:0:50:cymbal06.wav
402,192,328146,128,0,328300:0:0:0:50:LR_Kick Bass strong.wav
256,192,328300,128,0,328454:0:0:0:0:
109,192,328300,128,0,328377:0:0:0:0:
329,192,328454,128,0,328531:0:0:0:0:
475,192,328454,128,0,328531:0:0:0:0:
182,192,328608,128,0,329069:0:0:0:0:
329,192,328608,128,0,328761:0:0:0:50:Cymatics - Snare 2 - E.wav
109,192,328608,128,0,328761:0:0:0:50:LR_Kick Bass strong.wav
402,192,328761,128,0,328838:0:0:0:0:
256,192,328761,128,0,328915:0:0:0:0:
402,192,328915,128,0,329069:0:0:0:0:
109,192,328915,128,0,328992:0:0:0:0:
256,192,329069,128,0,329223:0:0:0:0:
329,192,329069,128,0,329531:0:0:0:0:
475,192,329069,128,0,329146:0:0:0:50:LR_Kick Bass strong.wav
475,192,329223,128,0,329377:0:0:0:0:
109,192,329223,128,0,329300:0:0:0:0:
182,192,329377,128,0,329454:0:0:0:0:
402,192,329377,128,0,329531:0:0:0:0:
475,192,329531,128,0,329992:0:0:0:0:
182,192,329531,128,0,329685:0:0:0:50:LR_Kick Bass strong.wav
36,192,329531,128,0,329608:0:0:0:50:Cymatics - Snare 2 - E.wav
256,192,329685,128,0,329761:0:0:0:0:
109,192,329685,128,0,329838:0:0:0:0:
256,192,329838,128,0,329992:0:0:0:0:
402,192,329838,128,0,329915:0:0:0:0:
329,192,329992,128,0,330454:0:0:0:0:
109,192,329992,128,0,330069:0:0:0:0:
182,192,329992,128,0,330069:0:0:0:50:LR_Kick Bass strong.wav
109,192,330146,128,0,330300:0:0:0:0:
256,192,330146,128,0,330300:0:0:0:0:
36,192,330300,128,0,330377:0:0:0:0:
402,192,330300,128,0,330454:0:0:0:0:
182,192,330454,128,0,330915:0:0:0:0:
36,192,330454,128,0,330608:0:0:0:50:Cymatics - Snare 2 - E.wav
475,192,330454,128,0,330531:0:0:0:50:LR_Kick Bass strong.wav
109,192,330608,128,0,330685:0:0:0:0:
402,192,330608,128,0,330761:0:0:0:0:
109,192,330761,128,0,330915:0:0:0:0:
329,192,330761,128,0,330838:0:0:0:0:
36,192,330915,128,0,331377:0:0:0:0:
256,192,330915,128,0,330992:0:0:0:0:
402,192,330915,128,0,331377:0:0:0:50:LR_Kick Bass strong.wav
256,192,331069,128,0,331223:0:0:0:0:
109,192,331069,128,0,331146:0:0:0:0:
329,192,331223,128,0,331300:0:0:0:0:
182,192,331223,128,0,331377:0:0:0:0:
109,192,331377,128,0,331838:0:0:0:0:
329,192,331377,128,0,331531:0:0:0:50:Cymatics - Snare 2 - E.wav
256,192,331377,128,0,331838:0:0:0:50:LR_Kick Bass strong.wav
402,192,331531,128,0,331608:0:0:0:0:
182,192,331531,128,0,331685:0:0:0:0:
402,192,331685,128,0,331838:0:0:0:0:
329,192,331685,128,0,331838:0:0:0:0:
182,192,331838,128,0,332300:0:0:0:0:
475,192,331838,128,0,331915:0:0:0:0:
36,192,331838,128,0,331992:0:0:0:50:LR_Kick Bass strong.wav
329,192,331992,128,0,332069:0:0:0:0:
475,192,331992,128,0,332146:0:0:0:0:
256,192,331992,128,0,332069:0:0:0:0:
36,192,332146,128,0,332223:0:0:0:0:
109,192,332146,128,0,332223:0:0:0:0:
402,192,332146,128,0,332223:0:0:0:0:
256,192,332300,128,0,332761:0:0:0:0:
402,192,332300,128,0,332454:0:0:0:50:Cymatics - Snare 2 - E.wav
36,192,332300,128,0,332531:0:0:0:50:LR_Kick Bass strong.wav
182,192,332454,128,0,332531:0:0:0:0:
329,192,332454,128,0,332531:0:0:0:0:
182,192,332608,128,0,332761:0:0:0:0:
402,192,332608,128,0,332761:0:0:0:0:
329,192,332761,128,0,333223:0:0:0:0:
109,192,332761,128,0,332838:0:0:0:0:
475,192,332761,128,0,332915:0:0:0:50:LR_Kick Bass strong.wav
109,192,332915,128,0,333069:0:0:0:0:
256,192,332915,128,0,332992:0:0:0:0:
402,192,332915,128,0,332992:0:0:0:0:
256,192,333069,128,0,333223:0:0:0:0:
182,192,333069,128,0,333146:0:0:0:0:
36,192,333069,128,0,333146:0:0:0:0:
402,192,333223,128,0,333685:0:0:0:0:
36,192,333223,128,0,333377:0:0:0:50:LR_Kick Bass strong.wav
109,192,333223,128,0,333377:0:0:0:50:Cymatics - Snare 2 - E.wav
182,192,333377,128,0,333454:0:0:0:0:
256,192,333377,128,0,333454:0:0:0:0:
475,192,333377,128,0,333454:0:0:0:0:
109,192,333531,128,0,333608:0:0:0:0:
36,192,333531,128,0,333608:0:0:0:0:
256,192,333685,128,0,333761:0:0:0:0:
329,192,333685,128,0,333915:0:0:0:0:
475,192,333685,128,0,334146:0:0:0:50:LR_Kick Bass strong.wav
109,192,333838,128,0,333915:0:0:0:0:
182,192,333838,128,0,334069:0:0:0:0:
402,192,333838,128,0,333915:0:0:0:0:
256,192,333992,128,0,334069:0:0:0:0:
329,192,333992,128,0,334069:0:0:0:0:
36,192,333992,128,0,334069:0:0:0:0:
182,192,334146,128,0,334223:0:0:0:0:
109,192,334146,128,0,334531:0:0:0:0:
402,192,334146,128,0,334531:0:0:0:50:Cymatics - Snare 2 - E.wav
256,192,334300,128,0,334377:0:0:0:0:
329,192,334300,128,0,334377:0:0:0:0:
182,192,334454,128,0,334531:0:0:0:0:
475,192,334454,128,0,334531:0:0:0:0:
329,192,334454,128,0,334531:0:0:0:0:
36,192,334608,128,0,334685:0:0:0:0:
256,192,334608,128,0,334838:0:0:0:0:
402,192,334608,128,0,334838:0:0:0:0:
475,192,334608,128,0,334838:0:0:0:0:
109,192,334761,128,0,334838:0:0:0:0:
329,192,334761,128,0,334838:0:0:0:0:
182,192,334761,128,0,334838:0:0:0:0:
475,192,334915,128,0,335300:0:0:0:0:
256,192,334915,128,0,334992:0:0:0:0:
329,192,334915,128,0,334992:0:0:0:0:
109,192,335069,128,0,335146:0:0:0:0:
36,192,335069,128,0,335146:0:0:0:0:
402,192,335069,128,0,335300:0:0:0:0:
182,192,335069,128,0,335300:0:0:0:50:Cymatics - Snare 2 - E.wav
36,192,335223,128,0,335300:0:0:0:0:
256,192,335223,128,0,335300:0:0:0:0:
329,192,335223,128,0,335300:0:0:0:0:
329,192,335377,128,0,335454:0:0:0:0:
109,192,335377,128,0,335454:0:0:0:0:
182,192,335377,128,0,335454:0:0:0:0:
402,192,335531,1,0,0:0:0:0:
475,192,335531,1,0,0:0:0:0:
109,192,335531,1,0,0:0:0:0:
36,192,335531,1,0,0:0:0:50:cymbal06.wav
256,192,335531,128,0,342915:0:0:0:50:LR_Kick Bass strong.wav
