osu file format v14

[General]
AudioFilename: audio.mp3
AudioLeadIn: 0
PreviewTime: 113213
Countdown: 0
SampleSet: Normal
StackLeniency: 0.7
Mode: 1
LetterboxInBreaks: 0
WidescreenStoryboard: 1

[Editor]
Bookmarks: 9887,19790,38140,57072,75713,94353,113285,131635,150276,169790,180567,189887
DistanceSpacing: 1.4
BeatDivisor: 4
GridSize: 32
TimelineZoom: 0.9999999

[Metadata]
Title:WHISTLE
TitleUnicode:휘파람
Artist:BLACKPINK
ArtistUnicode:블랙핑크
Creator:UniqueBlock11
Version:Muzukashii
Source:
Tags:blackpink korean pop k-pop kpop 블핑 블랙핑크 square one 지수 jisoo 제니 jennie 로제 rosé 리사 lisa yg entertainment beatmasherr collab
BeatmapID:2577648
BeatmapSetID:642149

[Difficulty]
HPDrainRate:6
CircleSize:2
OverallDifficulty:5
ApproachRate:0
SliderMultiplier:1.6
SliderTickRate:1

[Events]
//Background and Video events
0,0,"blackpink.png",0,0
Video,-469,"blackpink.mp4"
//Break Periods
//Storyboard Layer 0 (Background)
//Storyboard Layer 1 (Fail)
//Storyboard Layer 2 (Pass)
//Storyboard Layer 3 (Foreground)
//Storyboard Layer 4 (Overlay)
//Storyboard Sound Samples

[TimingPoints]
1145,582.52427184466,4,1,0,70,1,0
19785,-111.111111111111,4,1,0,70,0,0
38426,-80,4,1,0,70,0,0
55902,-90.9090909090909,4,1,0,70,0,0
57067,-125,4,1,0,70,0,0
66387,-111.111111111111,4,1,0,70,0,0
71047,-100,4,1,0,70,0,0
73378,-90.9090909090909,4,1,0,70,0,0
75708,-80,4,1,0,70,0,1
93766,-80,4,1,0,70,0,0
94348,-111.111111111111,4,1,0,70,0,0
112989,-80,4,1,0,70,0,0
131047,-90.9090909090909,4,1,0,70,0,0
131630,-125,4,1,0,70,0,0
140950,-111.111111111111,4,1,0,70,0,0
145610,-100,4,1,0,70,0,0
147941,-90.9090909090909,4,1,0,70,0,0
150271,-80,4,1,0,70,0,1
168329,-100,4,1,0,70,0,0
169494,-111.111111111111,4,1,0,70,0,0
171242,-125,4,1,0,70,0,0
180562,-111.111111111111,4,1,0,70,0,0
182892,-100,4,1,0,70,0,0
185222,-90.9090909090909,4,1,0,70,0,0
187552,-80,4,1,0,70,0,0
189882,-71.4285714285714,4,1,0,70,0,1
207941,-100,4,1,0,70,0,0

[Colours]
Combo1 : 185,0,185
Combo2 : 0,64,128
Combo3 : 0,97,215
Combo4 : 98,0,196
SliderBorder : 170,0,240
SliderTrackOverride : 25,25,25

[HitObjects]
256,192,1145,5,4,0:0:0:0:
256,192,1581,1,0,0:0:0:0:
256,192,1727,1,8,0:0:0:0:
256,192,2018,1,0,0:0:0:0:
256,192,2892,1,8,0:0:0:0:
256,192,3766,1,0,0:0:0:0:
256,192,4057,1,8,0:0:0:0:
256,192,4640,1,0,0:0:0:0:
256,192,5222,1,8,0:0:0:0:
256,192,5805,1,4,0:0:0:0:
256,192,6242,1,0,0:0:0:0:
256,192,6387,1,8,0:0:0:0:
256,192,6678,1,0,0:0:0:0:
256,192,7552,1,8,0:0:0:0:
256,192,7698,1,8,0:0:0:0:
256,192,7844,1,8,0:0:0:0:
256,192,8135,1,0,0:0:0:0:
256,192,8426,1,0,0:0:0:0:
256,192,8717,1,8,0:0:0:0:
256,192,8863,1,0,0:0:0:0:
256,192,9300,1,0,0:0:0:0:
256,192,9882,1,8,0:0:0:0:
256,192,10465,1,4,0:0:0:0:
256,192,10902,1,0,0:0:0:0:
256,192,11047,1,8,0:0:0:0:
256,192,11339,1,0,0:0:0:0:
256,192,12212,1,8,0:0:0:0:
256,192,13086,1,0,0:0:0:0:
256,192,13378,1,8,0:0:0:0:
256,192,13960,1,0,0:0:0:0:
256,192,14543,1,8,0:0:0:0:
256,192,15125,1,4,0:0:0:0:
256,192,15562,1,0,0:0:0:0:
256,192,15708,1,8,0:0:0:0:
256,192,15999,1,0,0:0:0:0:
256,192,16873,1,8,0:0:0:0:
256,192,17018,1,0,0:0:0:0:
256,192,17164,1,0,0:0:0:0:
256,192,17455,1,8,0:0:0:0:
256,192,17600,1,8,0:0:0:0:
256,192,17746,1,0,0:0:0:0:
256,192,18038,1,8,0:0:0:0:
256,192,18183,1,0,0:0:0:0:
256,192,18329,1,8,0:0:0:0:
256,192,18620,1,0,0:0:0:0:
256,192,18766,1,8,0:0:0:0:
256,192,18911,1,0,0:0:0:0:
256,192,19203,1,12,0:0:0:0:
256,192,19785,5,4,0:0:0:0:
256,192,20222,1,0,0:0:0:0:
256,192,20368,1,8,0:0:0:0:
256,192,20659,1,0,0:0:0:0:
256,192,21533,1,8,0:0:0:0:
256,192,21824,1,0,0:0:0:0:
256,192,22407,1,0,0:0:0:0:
256,192,22698,1,8,0:0:0:0:
256,192,22844,1,8,0:0:0:0:
256,192,22989,1,0,0:0:0:0:
256,192,23863,1,8,0:0:0:0:
256,192,24154,1,0,0:0:0:0:
256,192,24445,1,0,0:0:0:0:
256,192,24882,1,0,0:0:0:0:
256,192,25028,1,8,0:0:0:0:
256,192,25319,1,0,0:0:0:0:
256,192,26193,1,8,0:0:0:0:
256,192,26339,1,0,0:0:0:0:
256,192,26484,1,0,0:0:0:0:
256,192,27067,1,0,0:0:0:0:
256,192,27358,1,8,0:0:0:0:
256,192,27504,1,0,0:0:0:0:
256,192,27941,1,0,0:0:0:0:
256,192,28232,1,8,0:0:0:0:
256,192,28523,1,8,0:0:0:0:
256,192,29106,1,4,0:0:0:0:
256,192,29543,1,0,0:0:0:0:
256,192,29688,1,8,0:0:0:0:
256,192,29979,1,0,0:0:0:0:
256,192,30562,1,0,0:0:0:0:
256,192,30853,1,8,0:0:0:0:
256,192,31144,1,0,0:0:0:0:
256,192,31727,1,0,0:0:0:0:
256,192,32018,1,8,0:0:0:0:
256,192,32310,1,0,0:0:0:0:
256,192,33183,1,8,0:0:0:0:
256,192,33475,1,0,0:0:0:0:
256,192,33766,1,0,0:0:0:0:
256,192,34203,1,0,0:0:0:0:
256,192,34348,1,8,0:0:0:0:
256,192,34640,1,0,0:0:0:0:
256,192,35513,1,8,0:0:0:0:
256,192,35659,1,0,0:0:0:0:
256,192,35805,1,0,0:0:0:0:
256,192,36096,1,8,0:0:0:0:
256,192,36241,1,8,0:0:0:0:
256,192,36387,1,0,0:0:0:0:
256,192,36679,1,8,0:0:0:0:
256,192,36824,1,0,0:0:0:0:
256,192,36970,1,8,0:0:0:0:
256,192,37261,1,0,0:0:0:0:
256,192,37407,1,8,0:0:0:0:
256,192,37552,1,0,0:0:0:0:
256,192,37844,1,12,0:0:0:0:
256,192,38426,5,4,0:0:0:0:
256,192,38717,1,0,0:0:0:0:
256,192,38863,1,0,0:0:0:0:
256,192,39009,1,8,0:0:0:0:
256,192,39300,1,0,0:0:0:0:
256,192,39445,1,8,0:0:0:0:
256,192,39591,1,0,0:0:0:0:
256,192,39882,1,0,0:0:0:0:
256,192,40174,1,8,0:0:0:0:
256,192,40756,1,0,0:0:0:0:
256,192,41047,1,0,0:0:0:0:
256,192,41339,1,8,0:0:0:0:
256,192,41484,1,0,0:0:0:0:
256,192,41776,1,8,0:0:0:0:
256,192,41921,1,0,0:0:0:0:
256,192,42212,1,0,0:0:0:0:
256,192,42358,1,0,0:0:0:0:
256,192,42504,1,8,0:0:0:0:
256,192,43086,1,0,0:0:0:0:
256,192,43523,1,0,0:0:0:0:
256,192,43669,1,8,0:0:0:0:
256,192,43960,1,0,0:0:0:0:
256,192,44106,1,8,0:0:0:0:
256,192,44251,1,0,0:0:0:0:
256,192,44543,1,0,0:0:0:0:
256,192,44834,1,8,0:0:0:0:
256,192,45416,1,0,0:0:0:0:
256,192,45999,1,8,0:0:0:0:
256,192,46144,1,0,0:0:0:0:
256,192,46290,1,8,0:0:0:0:
256,192,46581,1,0,0:0:0:0:
256,192,47164,1,8,0:0:0:0:
256,192,47746,1,0,0:0:0:0:
256,192,48038,1,8,0:0:0:0:
256,192,48329,1,8,0:0:0:0:
256,192,48475,1,0,0:0:0:0:
256,192,48620,1,0,0:0:0:0:
256,192,48911,1,0,0:0:0:0:
256,192,49203,1,8,0:0:0:0:
256,192,49494,1,8,0:0:0:0:
256,192,49640,1,0,0:0:0:0:
256,192,49785,1,0,0:0:0:0:
256,192,50368,1,0,0:0:0:0:
256,192,50659,1,8,0:0:0:0:
256,192,50805,1,0,0:0:0:0:
256,192,51242,1,0,0:0:0:0:
256,192,51533,1,0,0:0:0:0:
256,192,51824,1,8,0:0:0:0:
256,192,52115,1,8,0:0:0:0:
256,192,52407,1,0,0:0:0:0:
256,192,52844,1,0,0:0:0:0:
256,192,52989,1,8,0:0:0:0:
256,192,53280,1,0,0:0:0:0:
256,192,53426,1,8,0:0:0:0:
256,192,53572,1,0,0:0:0:0:
256,192,53863,1,0,0:0:0:0:
256,192,54154,1,8,0:0:0:0:
256,192,54737,1,8,0:0:0:0:
256,192,54882,1,8,0:0:0:0:
256,192,55028,1,0,0:0:0:0:
256,192,55319,1,8,0:0:0:0:
256,192,55465,1,0,0:0:0:0:
256,192,55611,1,8,0:0:0:0:
256,192,55902,1,0,0:0:0:0:
256,192,56193,1,8,0:0:0:0:
256,192,56484,1,0,0:0:0:0:
256,192,57067,5,12,0:0:0:0:
256,192,57649,1,0,0:0:0:0:
256,192,57941,1,8,0:0:0:0:
256,192,58232,1,0,0:0:0:0:
256,192,58814,1,8,0:0:0:0:
256,192,59397,1,0,0:0:0:0:
256,192,59979,1,0,0:0:0:0:
256,192,60271,1,8,0:0:0:0:
256,192,60562,1,0,0:0:0:0:
256,192,61144,1,8,0:0:0:0:
256,192,61727,1,12,0:0:0:0:
256,192,62310,1,0,0:0:0:0:
256,192,62601,1,8,0:0:0:0:
256,192,62892,1,0,0:0:0:0:
256,192,63475,1,8,0:0:0:0:
256,192,63766,1,0,0:0:0:0:
256,192,64057,1,8,0:0:0:0:
256,192,64494,1,8,0:0:0:0:
256,192,64931,1,8,0:0:0:0:
256,192,65513,1,0,0:0:0:0:
256,192,65805,1,8,0:0:0:0:
256,192,66096,1,8,0:0:0:0:
256,192,66387,1,12,0:0:0:0:
256,192,66970,1,8,0:0:0:0:
256,192,67261,1,8,0:0:0:0:
256,192,67552,1,0,0:0:0:0:
256,192,67989,1,8,0:0:0:0:
256,192,68134,1,8,0:0:0:0:
256,192,68280,1,8,0:0:0:0:
256,192,68426,1,8,0:0:0:0:
256,192,68717,1,12,0:0:0:0:
256,192,69300,1,8,0:0:0:0:
256,192,69591,1,0,0:0:0:0:
256,192,69882,1,8,0:0:0:0:
256,192,70174,1,8,0:0:0:0:
256,192,70319,1,8,0:0:0:0:
256,192,70611,1,8,0:0:0:0:
256,192,70757,1,8,0:0:0:0:
256,192,71047,1,4,0:0:0:0:
256,192,71339,1,8,0:0:0:0:
256,192,71630,1,8,0:0:0:0:
256,192,71921,1,0,0:0:0:0:
256,192,72212,1,8,0:0:0:0:
256,192,72504,1,0,0:0:0:0:
256,192,72795,1,8,0:0:0:0:
256,192,73086,1,8,0:0:0:0:
256,192,73378,2,0,B|352:192,4,88.000002685547
256,192,75125,1,12,0:0:0:0:
256,192,75708,5,4,0:0:0:0:
256,192,76144,1,0,0:0:0:0:
256,192,76290,1,8,0:0:0:0:
256,192,76581,1,0,0:0:0:0:
256,192,76873,1,8,0:0:0:0:
256,192,77310,1,0,0:0:0:0:
256,192,77455,1,8,0:0:0:0:
256,192,78038,1,0,0:0:0:0:
256,192,78329,1,0,0:0:0:0:
256,192,78620,1,8,0:0:0:0:
256,192,79203,1,0,0:0:0:0:
256,192,79348,1,8,0:0:0:0:
256,192,79640,1,0,0:0:0:0:
256,192,79785,1,8,0:0:0:0:
256,192,80077,1,0,0:0:0:0:
256,192,80222,1,8,0:0:0:0:
256,192,80368,1,0,0:0:0:0:
256,192,80805,1,0,0:0:0:0:
256,192,80950,1,8,0:0:0:0:
256,192,81242,1,0,0:0:0:0:
256,192,81824,1,0,0:0:0:0:
256,192,82115,1,8,0:0:0:0:
256,192,82989,1,0,0:0:0:0:
256,192,83280,1,8,0:0:0:0:
256,192,83426,1,0,0:0:0:0:
256,192,83863,1,0,0:0:0:0:
256,192,84154,1,0,0:0:0:0:
256,192,84445,1,8,0:0:0:0:
256,192,85028,1,4,0:0:0:0:
256,192,85465,1,0,0:0:0:0:
256,192,85611,1,8,0:0:0:0:
256,192,85902,1,0,0:0:0:0:
256,192,86193,1,8,0:0:0:0:
256,192,86630,1,0,0:0:0:0:
256,192,86776,1,8,0:0:0:0:
256,192,87358,1,0,0:0:0:0:
256,192,87649,1,0,0:0:0:0:
256,192,87941,1,8,0:0:0:0:
256,192,88523,1,0,0:0:0:0:
256,192,88669,1,8,0:0:0:0:
256,192,88960,1,0,0:0:0:0:
256,192,89106,1,8,0:0:0:0:
256,192,89397,1,0,0:0:0:0:
256,192,89543,1,8,0:0:0:0:
256,192,89688,1,0,0:0:0:0:
256,192,90125,1,0,0:0:0:0:
256,192,90271,1,8,0:0:0:0:
256,192,90562,1,0,0:0:0:0:
256,192,91144,1,0,0:0:0:0:
256,192,91436,1,8,0:0:0:0:
256,192,92018,1,8,0:0:0:0:
256,192,92164,1,8,0:0:0:0:
256,192,92310,1,0,0:0:0:0:
256,192,92601,1,8,0:0:0:0:
256,192,92746,1,0,0:0:0:0:
256,192,92892,1,8,0:0:0:0:
256,192,93183,1,0,0:0:0:0:
256,192,93329,1,8,0:0:0:0:
256,192,93475,1,0,0:0:0:0:
256,192,93766,1,8,0:0:0:0:
256,192,94348,5,4,0:0:0:0:
256,192,94785,1,0,0:0:0:0:
256,192,94931,1,8,0:0:0:0:
256,192,95222,1,0,0:0:0:0:
256,192,96096,1,8,0:0:0:0:
256,192,96242,1,8,0:0:0:0:
256,192,96387,1,8,0:0:0:0:
256,192,96970,1,0,0:0:0:0:
256,192,97261,1,8,0:0:0:0:
256,192,97552,1,0,0:0:0:0:
256,192,98426,1,8,0:0:0:0:
256,192,98717,1,0,0:0:0:0:
256,192,99009,1,4,0:0:0:0:
256,192,99445,1,0,0:0:0:0:
256,192,99591,1,8,0:0:0:0:
256,192,99882,1,0,0:0:0:0:
256,192,100756,1,8,0:0:0:0:
256,192,100902,1,8,0:0:0:0:
256,192,101047,1,8,0:0:0:0:
256,192,101630,1,0,0:0:0:0:
256,192,101921,1,8,0:0:0:0:
256,192,102067,1,0,0:0:0:0:
256,192,102504,1,0,0:0:0:0:
256,192,102795,1,8,0:0:0:0:
256,192,103086,1,8,0:0:0:0:
256,192,103669,1,4,0:0:0:0:
256,192,104106,1,0,0:0:0:0:
256,192,104251,1,8,0:0:0:0:
256,192,104543,1,0,0:0:0:0:
256,192,105416,1,8,0:0:0:0:
256,192,105562,1,0,0:0:0:0:
256,192,105708,1,0,0:0:0:0:
256,192,106290,1,0,0:0:0:0:
256,192,106581,1,8,0:0:0:0:
256,192,106873,1,0,0:0:0:0:
256,192,108329,1,4,0:0:0:0:
256,192,108766,1,0,0:0:0:0:
256,192,108911,1,8,0:0:0:0:
256,192,109203,1,0,0:0:0:0:
256,192,110077,1,8,0:0:0:0:
256,192,110659,1,8,0:0:0:0:
256,192,110805,1,8,0:0:0:0:
256,192,110950,1,0,0:0:0:0:
256,192,111242,1,8,0:0:0:0:
256,192,111387,1,0,0:0:0:0:
256,192,111533,1,8,0:0:0:0:
256,192,111824,1,0,0:0:0:0:
256,192,111970,1,8,0:0:0:0:
256,192,112115,1,0,0:0:0:0:
256,192,112407,1,12,0:0:0:0:
256,192,112989,5,4,0:0:0:0:
256,192,113426,1,0,0:0:0:0:
256,192,113572,1,8,0:0:0:0:
256,192,113863,1,0,0:0:0:0:
256,192,114300,1,0,0:0:0:0:
256,192,114445,1,0,0:0:0:0:
256,192,114737,1,8,0:0:0:0:
256,192,115610,1,0,0:0:0:0:
256,192,115902,1,8,0:0:0:0:
256,192,116047,1,0,0:0:0:0:
256,192,116484,1,0,0:0:0:0:
256,192,116776,1,0,0:0:0:0:
256,192,117067,1,8,0:0:0:0:
256,192,117649,1,0,0:0:0:0:
256,192,118086,1,0,0:0:0:0:
256,192,118232,1,8,0:0:0:0:
256,192,118523,1,0,0:0:0:0:
256,192,118669,1,8,0:0:0:0:
256,192,118814,1,0,0:0:0:0:
256,192,119397,1,8,0:0:0:0:
256,192,120271,1,0,0:0:0:0:
256,192,120562,1,8,0:0:0:0:
256,192,120707,1,0,0:0:0:0:
256,192,121144,1,0,0:0:0:0:
256,192,121727,1,8,0:0:0:0:
256,192,122018,1,0,0:0:0:0:
256,192,122164,1,0,0:0:0:0:
256,192,122309,1,0,0:0:0:0:
256,192,122892,1,8,0:0:0:0:
256,192,123183,1,0,0:0:0:0:
256,192,123329,1,0,0:0:0:0:
256,192,123475,1,0,0:0:0:0:
256,192,123766,1,8,0:0:0:0:
256,192,124057,1,8,0:0:0:0:
256,192,124640,1,0,0:0:0:0:
256,192,124931,1,0,0:0:0:0:
256,192,125222,1,8,0:0:0:0:
256,192,125368,1,0,0:0:0:0:
256,192,125805,1,0,0:0:0:0:
256,192,126387,1,8,0:0:0:0:
256,192,126678,1,0,0:0:0:0:
256,192,126824,1,0,0:0:0:0:
256,192,126970,1,0,0:0:0:0:
256,192,127407,1,0,0:0:0:0:
256,192,127552,1,8,0:0:0:0:
256,192,127843,1,0,0:0:0:0:
256,192,128426,1,0,0:0:0:0:
256,192,128717,1,8,0:0:0:0:
256,192,129300,1,8,0:0:0:0:
256,192,129445,1,8,0:0:0:0:
256,192,129591,1,0,0:0:0:0:
256,192,129882,1,8,0:0:0:0:
256,192,130028,1,0,0:0:0:0:
256,192,130174,1,8,0:0:0:0:
256,192,130465,1,0,0:0:0:0:
256,192,131047,1,12,0:0:0:0:
256,192,131630,5,4,0:0:0:0:
256,192,132212,1,0,0:0:0:0:
256,192,132504,1,8,0:0:0:0:
256,192,132649,1,0,0:0:0:0:
256,192,132795,1,0,0:0:0:0:
256,192,133377,1,8,0:0:0:0:
256,192,133960,1,0,0:0:0:0:
256,192,134542,1,0,0:0:0:0:
256,192,134834,1,8,0:0:0:0:
256,192,134979,1,0,0:0:0:0:
256,192,135125,1,0,0:0:0:0:
256,192,135707,1,8,0:0:0:0:
256,192,135999,1,0,0:0:0:0:
256,192,136290,1,12,0:0:0:0:
256,192,136873,1,0,0:0:0:0:
256,192,137164,1,8,0:0:0:0:
256,192,137310,1,8,0:0:0:0:
256,192,137455,1,0,0:0:0:0:
256,192,138038,1,8,0:0:0:0:
256,192,138329,1,0,0:0:0:0:
256,192,138620,1,8,0:0:0:0:
256,192,139057,1,8,0:0:0:0:
256,192,139494,1,8,0:0:0:0:
256,192,140076,1,0,0:0:0:0:
256,192,140368,1,8,0:0:0:0:
256,192,140659,1,8,0:0:0:0:
256,192,140950,1,12,0:0:0:0:
256,192,141533,1,8,0:0:0:0:
256,192,141824,1,8,0:0:0:0:
256,192,142115,1,0,0:0:0:0:
256,192,142552,1,8,0:0:0:0:
256,192,142697,1,8,0:0:0:0:
256,192,142843,1,8,0:0:0:0:
256,192,142989,1,8,0:0:0:0:
256,192,143280,1,12,0:0:0:0:
256,192,143572,1,0,0:0:0:0:
256,192,143863,1,8,0:0:0:0:
256,192,144154,1,8,0:0:0:0:
256,192,144445,1,0,0:0:0:0:
256,192,144737,1,8,0:0:0:0:
256,192,144882,1,8,0:0:0:0:
256,192,145174,1,8,0:0:0:0:
256,192,145320,1,8,0:0:0:0:
256,192,145610,1,4,0:0:0:0:
256,192,145902,1,8,0:0:0:0:
256,192,146193,1,8,0:0:0:0:
256,192,146484,1,0,0:0:0:0:
256,192,146775,1,8,0:0:0:0:
256,192,147067,1,0,0:0:0:0:
256,192,147358,1,8,0:0:0:0:
256,192,147649,1,8,0:0:0:0:
256,192,147941,2,0,B|352:192,4,88.000002685547
256,192,149688,1,12,0:0:0:0:
256,192,150271,5,4,0:0:0:0:
256,192,150707,1,0,0:0:0:0:
256,192,150853,1,8,0:0:0:0:
256,192,151144,1,0,0:0:0:0:
256,192,151436,1,8,0:0:0:0:
256,192,151873,1,0,0:0:0:0:
256,192,152018,1,8,0:0:0:0:
256,192,152601,1,0,0:0:0:0:
256,192,152892,1,0,0:0:0:0:
256,192,153183,1,8,0:0:0:0:
256,192,153766,1,0,0:0:0:0:
256,192,153911,1,8,0:0:0:0:
256,192,154203,1,0,0:0:0:0:
256,192,154348,1,8,0:0:0:0:
256,192,154640,1,0,0:0:0:0:
256,192,154785,1,8,0:0:0:0:
256,192,154931,1,0,0:0:0:0:
256,192,155368,1,0,0:0:0:0:
256,192,155513,1,8,0:0:0:0:
256,192,155805,1,0,0:0:0:0:
256,192,156387,1,0,0:0:0:0:
256,192,156678,1,8,0:0:0:0:
256,192,157552,1,0,0:0:0:0:
256,192,157843,1,8,0:0:0:0:
256,192,157989,1,0,0:0:0:0:
256,192,158426,1,0,0:0:0:0:
256,192,158717,1,0,0:0:0:0:
256,192,159008,1,8,0:0:0:0:
256,192,159591,1,4,0:0:0:0:
256,192,160028,1,0,0:0:0:0:
256,192,160174,1,8,0:0:0:0:
256,192,160465,1,0,0:0:0:0:
256,192,160756,1,8,0:0:0:0:
256,192,161193,1,0,0:0:0:0:
256,192,161339,1,8,0:0:0:0:
256,192,161921,1,0,0:0:0:0:
256,192,162212,1,0,0:0:0:0:
256,192,162504,1,8,0:0:0:0:
256,192,163086,1,0,0:0:0:0:
256,192,163232,1,8,0:0:0:0:
256,192,163523,1,0,0:0:0:0:
256,192,163669,1,8,0:0:0:0:
256,192,163960,1,0,0:0:0:0:
256,192,164106,1,8,0:0:0:0:
256,192,164251,1,0,0:0:0:0:
256,192,164688,1,0,0:0:0:0:
256,192,164834,1,8,0:0:0:0:
256,192,165125,1,0,0:0:0:0:
256,192,165707,1,0,0:0:0:0:
256,192,165999,1,8,0:0:0:0:
256,192,166581,1,8,0:0:0:0:
256,192,166727,1,8,0:0:0:0:
256,192,166873,1,0,0:0:0:0:
256,192,167164,1,8,0:0:0:0:
256,192,167309,1,0,0:0:0:0:
256,192,167455,1,8,0:0:0:0:
256,192,167746,1,0,0:0:0:0:
256,192,167892,1,8,0:0:0:0:
256,192,168038,1,0,0:0:0:0:
256,192,168329,1,12,0:0:0:0:
256,192,169494,1,8,0:0:0:0:
256,192,170659,1,8,0:0:0:0:
256,192,171242,1,4,0:0:0:0:
256,192,171678,1,8,0:0:0:0:
256,192,171824,1,0,0:0:0:0:
256,192,172115,1,8,0:0:0:0:
256,192,172407,1,0,0:0:0:0:
256,192,172844,1,8,0:0:0:0:
256,192,172989,1,0,0:0:0:0:
256,192,173280,1,8,0:0:0:0:
256,192,173572,1,0,0:0:0:0:
256,192,174009,1,8,0:0:0:0:
256,192,174154,1,0,0:0:0:0:
256,192,174445,1,8,0:0:0:0:
256,192,174737,1,0,0:0:0:0:
256,192,175174,1,8,0:0:0:0:
256,192,175319,1,0,0:0:0:0:
256,192,175611,1,8,0:0:0:0:
256,192,175902,1,12,0:0:0:0:
256,192,176339,1,8,0:0:0:0:
256,192,176484,1,0,0:0:0:0:
256,192,176776,1,8,0:0:0:0:
256,192,177067,1,0,0:0:0:0:
256,192,177504,1,8,0:0:0:0:
256,192,177649,1,0,0:0:0:0:
256,192,177941,1,8,0:0:0:0:
256,192,178086,1,8,0:0:0:0:
256,192,178232,1,0,0:0:0:0:
256,192,178669,1,8,0:0:0:0:
256,192,178814,1,0,0:0:0:0:
256,192,179106,1,8,0:0:0:0:
256,192,179397,1,0,0:0:0:0:
256,192,179543,1,8,0:0:0:0:
256,192,179834,1,8,0:0:0:0:
256,192,179979,1,0,0:0:0:0:
256,192,180271,1,8,0:0:0:0:
256,192,180562,5,4,0:0:0:0:
256,192,180853,1,8,0:0:0:0:
256,192,181144,1,0,0:0:0:0:
256,192,181436,1,8,0:0:0:0:
256,192,181727,1,0,0:0:0:0:
256,192,182018,1,8,0:0:0:0:
256,192,182164,1,8,0:0:0:0:
256,192,182310,1,0,0:0:0:0:
256,192,182892,1,4,0:0:0:0:
256,192,183183,1,8,0:0:0:0:
256,192,183475,1,0,0:0:0:0:
256,192,183766,1,8,0:0:0:0:
256,192,184057,1,0,0:0:0:0:
256,192,184348,1,8,0:0:0:0:
256,192,184494,1,8,0:0:0:0:
256,192,184640,1,0,0:0:0:0:
256,192,185222,5,4,0:0:0:0:
256,192,185513,1,0,0:0:0:0:
256,192,185805,1,8,0:0:0:0:
256,192,186096,1,8,0:0:0:0:
256,192,186387,1,0,0:0:0:0:
256,192,186678,1,0,0:0:0:0:
256,192,186970,1,8,0:0:0:0:
256,192,187261,1,8,0:0:0:0:
256,192,187552,2,0,L|384:192,4,100
256,192,189300,1,12,0:0:0:0:
256,192,189882,1,4,0:0:0:0:
256,192,190319,1,8,0:0:0:0:
256,192,190465,1,0,0:0:0:0:
256,192,190756,1,8,0:0:0:0:
256,192,191047,1,0,0:0:0:0:
256,192,191484,1,8,0:0:0:0:
256,192,191630,1,0,0:0:0:0:
256,192,191921,1,8,0:0:0:0:
256,192,192067,1,0,0:0:0:0:
256,192,192212,1,0,0:0:0:0:
256,192,192649,1,8,0:0:0:0:
256,192,192795,1,0,0:0:0:0:
256,192,193086,1,8,0:0:0:0:
256,192,193378,1,0,0:0:0:0:
256,192,193814,1,8,0:0:0:0:
256,192,193960,1,0,0:0:0:0:
256,192,194251,1,8,0:0:0:0:
256,192,194543,1,4,0:0:0:0:
256,192,194979,1,8,0:0:0:0:
256,192,195125,1,0,0:0:0:0:
256,192,195416,1,8,0:0:0:0:
256,192,195708,1,0,0:0:0:0:
256,192,196144,1,8,0:0:0:0:
256,192,196290,1,0,0:0:0:0:
256,192,196581,1,8,0:0:0:0:
256,192,196727,1,0,0:0:0:0:
256,192,196873,1,8,0:0:0:0:
256,192,197310,1,8,0:0:0:0:
256,192,197455,1,0,0:0:0:0:
256,192,197746,1,8,0:0:0:0:
256,192,198038,1,0,0:0:0:0:
256,192,198183,1,8,0:0:0:0:
256,192,198475,1,8,0:0:0:0:
256,192,198620,1,0,0:0:0:0:
256,192,198911,1,8,0:0:0:0:
256,192,199203,1,4,0:0:0:0:
256,192,199640,1,8,0:0:0:0:
256,192,199785,1,0,0:0:0:0:
256,192,200077,1,8,0:0:0:0:
256,192,200368,1,0,0:0:0:0:
256,192,200805,1,8,0:0:0:0:
256,192,200950,1,0,0:0:0:0:
256,192,201242,1,8,0:0:0:0:
256,192,201387,1,0,0:0:0:0:
256,192,201533,1,8,0:0:0:0:
256,192,201970,1,8,0:0:0:0:
256,192,202115,1,0,0:0:0:0:
256,192,202407,1,8,0:0:0:0:
256,192,202698,1,0,0:0:0:0:
256,192,202989,1,8,0:0:0:0:
256,192,203135,1,8,0:0:0:0:
256,192,203280,1,0,0:0:0:0:
256,192,203572,1,8,0:0:0:0:
256,192,203863,1,12,0:0:0:0:
256,192,204154,1,8,0:0:0:0:
256,192,204445,1,0,0:0:0:0:
256,192,204737,1,0,0:0:0:0:
256,192,205028,1,8,0:0:0:0:
256,192,205319,1,0,0:0:0:0:
256,192,205611,1,0,0:0:0:0:
256,192,205902,1,8,0:0:0:0:
256,192,206193,12,0,207941,0:0:0:0:
