osu file format v14

[General]
AudioFilename: audio.mp3
AudioLeadIn: 0
PreviewTime: 113213
Countdown: 0
SampleSet: Soft
StackLeniency: 0.7
Mode: 0
LetterboxInBreaks: 0
WidescreenStoryboard: 1

[Editor]
Bookmarks: 9887,19790,38140,57072,75713,94353,113285,131635,150276,169790,180567,189887
DistanceSpacing: 1.2
BeatDivisor: 4
GridSize: 4
TimelineZoom: 1.2

[Metadata]
Title:WHISTLE
TitleUnicode:휘파람
Artist:BLACKPINK
ArtistUnicode:블랙핑크
Creator:UniqueBlock11
Version:Unimash's Normal
Source:
Tags:blackpink korean pop k-pop kpop 블핑 블랙핑크 square one 지수 jisoo 제니 jennie 로제 rosé 리사 lisa yg entertainment beatmasherr collab
BeatmapID:1365684
BeatmapSetID:642149

[Difficulty]
HPDrainRate:3
CircleSize:4
OverallDifficulty:4
ApproachRate:5
SliderMultiplier:1.4
SliderTickRate:1

[Events]
//Background and Video events
0,0,"blackpink.png",0,0
Video,-469,"blackpink.mp4"
//Break Periods
2,171150,179362
//Storyboard Layer 0 (Background)
//Storyboard Layer 1 (Fail)
//Storyboard Layer 2 (Pass)
//Storyboard Layer 3 (Foreground)
//Storyboard Layer 4 (Overlay)
//Storyboard Sound Samples

[TimingPoints]
1145,582.52427184466,4,2,1,30,1,0
17455,-100,4,2,2,30,0,0
17746,-100,4,2,1,30,0,0
18038,-100,4,2,2,30,0,0
18620,-100,4,2,1,30,0,0
19203,-100,4,2,2,30,0,0
19785,-100,4,2,1,25,0,0
36096,-100,4,2,2,30,0,0
36387,-100,4,2,1,30,0,0
36679,-100,4,2,2,30,0,0
37261,-100,4,2,1,30,0,0
37844,-100,4,2,2,30,0,0
38135,-86.9565217391305,4,2,1,40,0,0
54737,-100,4,2,2,30,0,0
55028,-100,4,2,1,30,0,0
55320,-100,4,2,2,30,0,0
55902,-100,4,2,1,30,0,0
56485,-100,4,2,2,30,0,0
57067,-111.111111111111,4,2,3,50,0,0
66387,-100,4,2,4,30,0,0
74543,-100,4,2,4,10,0,0
75708,-86.9565217391304,4,2,1,25,0,1
84445,-86.9565217391304,4,2,1,25,0,0
85028,-86.9565217391304,4,2,1,25,0,1
92018,-100,4,2,2,30,0,1
92309,-100,4,2,1,30,0,1
92601,-100,4,2,2,30,0,1
93183,-100,4,2,1,30,0,1
93766,-100,4,2,1,5,0,0
94348,-100,4,2,1,25,0,0
107746,-100,4,2,1,45,0,0
108329,-100,4,2,1,25,0,0
110659,-100,4,2,2,30,0,0
110950,-100,4,2,1,30,0,0
111242,-100,4,2,2,30,0,0
111533,-100,4,2,2,30,0,0
111824,-100,4,2,1,30,0,0
112115,-100,4,2,2,30,0,0
112407,-100,4,2,1,30,0,0
112989,-86.9565217391305,4,2,1,30,0,0
129300,-100,4,2,2,30,0,0
129591,-100,4,2,1,30,0,0
129882,-100,4,2,2,30,0,0
131630,-111.111111111111,4,2,3,50,0,0
140950,-100,4,2,4,30,0,0
149106,-100,4,2,1,20,0,0
150271,-86.9565217391304,4,2,1,25,0,1
159009,-86.9565217391304,4,2,1,25,0,0
159591,-86.9565217391304,4,2,1,25,0,1
166581,-100,4,2,2,30,0,1
166872,-100,4,2,1,30,0,1
167164,-100,4,2,2,30,0,1
167746,-100,4,2,1,30,0,1
168329,-100,4,2,1,35,0,0
169494,-100,4,2,1,25,0,0
180562,-100,4,2,4,30,0,0
188717,-100,4,2,1,20,0,0
189882,-86.9565217391304,4,2,3,45,0,1
190319,-86.9565217391304,4,2,1,45,0,1
198620,-86.9565217391304,4,2,1,35,0,0
199203,-86.9565217391304,4,2,1,45,0,1
207941,-100,4,2,1,30,0,0

[Colours]
Combo1 : 185,0,185
Combo2 : 0,64,128
Combo3 : 0,97,215
Combo4 : 98,0,196
SliderBorder : 170,0,240
SliderTrackOverride : 25,25,25

[HitObjects]
48,64,9882,22,2,B|114:41|112:79|200:52,1,140,10|6,0:0|0:0,0:0:0:0:
315,52,10902,1,0,0:0:0:0:
315,52,11047,2,0,P|323:80|319:120,1,70,8|6,0:0|0:0,0:0:0:0:
352,196,11630,6,0,P|281:192|231:132,1,140,2|10,0:0|0:0,0:0:0:0:
91,57,12795,6,0,L|63:133,1,70,2|6,0:0|0:0,0:0:0:0:
143,153,13378,2,0,L|115:229,1,70,8|2,0:0|0:0,0:0:0:0:
196,249,13960,6,0,P|196:299|243:343,2,105,2|2|2,0:0|0:0|0:0,0:0:0:0:
247,182,15125,6,0,P|198:165|139:189,1,105,6|4,0:0|0:0,0:0:0:0:
119,210,15708,2,0,B|91:238|91:238|51:238,1,70,8|4,0:0|0:0,0:0:0:0:
35,157,16290,6,0,P|39:105|82:59,1,105,2|2,0:0|0:0,0:0:0:0:
111,50,16873,2,0,B|195:50,1,70,8|0,0:0|0:0,0:0:0:0:
264,50,17455,6,0,L|334:50,1,70,6|6,0:0|0:0,0:0:0:0:
375,123,18038,2,4,L|286:123,1,70
264,196,18620,2,4,L|334:196,2,70,4|4|6,0:0|0:0|0:0,0:0:0:0:
95,196,19785,5,6,0:0:0:0:
211,244,20222,2,0,L|239:269,1,35,4|8,0:0|0:0,0:0:0:0:
217,349,20659,2,0,P|298:324|311:227,1,175,4|0,0:0|0:0,0:0:0:0:
311,202,21533,1,8,0:0:0:0:
375,148,21824,6,0,P|308:118|243:154,1,140,0|4,0:0|0:0,0:0:0:0:
208,216,22698,5,8,0:0:0:0:
136,172,22989,2,0,P|137:261|254:288,1,210,0|8,0:0|0:0,0:0:0:0:
319,272,24154,1,0,0:0:0:0:
382,216,24445,5,0,0:0:0:0:
447,108,24882,2,0,L|400:80,1,35,4|8,0:0|0:0,0:0:0:0:
341,52,25319,2,0,B|252:28|251:75|160:40,1,175,4|0,0:0|0:0,0:0:0:0:
126,49,26193,5,8,0:0:0:0:
57,97,26484,1,0,0:0:0:0:
57,265,27067,5,4,0:0:0:0:
57,348,27358,1,8,0:0:0:0:
129,307,27649,1,0,0:0:0:0:
129,222,27941,2,0,L|129:176,2,35,4|0|0,0:0|0:0|0:0,0:0:0:0:
200,265,28523,2,0,B|272:265,1,70,10|2,0:0|0:0,0:0:0:0:
354,265,29106,5,6,0:0:0:0:
464,205,29543,2,0,L|452:154,1,35,4|8,0:0|0:0,0:0:0:0:
499,99,29979,2,0,P|430:92|378:143,1,140,4|0,0:0|0:0,0:0:0:0:
314,189,30853,5,8,0:0:0:0:
290,108,31144,1,0,0:0:0:0:
121,108,31727,6,0,L|109:196,1,70,4|8,0:0|0:0,0:0:0:0:
58,242,32310,2,0,B|126:268|99:299|178:314,1,140
258,307,33183,6,0,L|298:349,2,35,8|0|0,0:0|0:0|0:0,0:0:0:0:
214,234,33766,5,4,0:0:0:0:
137,134,34203,2,0,L|142:96,1,35,4|8,0:0|0:0,0:0:0:0:
217,62,34640,2,0,B|237:34|237:34|290:49|342:40|342:40|365:67,1,175,4|0,0:0|0:0,0:0:0:0:
383,103,35513,6,0,L|401:142,2,35,8|0|0,0:0|0:0|0:0,0:0:0:0:
308,141,36096,6,0,L|337:204,1,70,4|4,0:0|0:0,0:0:0:0:
413,169,36678,2,4,L|444:235,1,70
369,274,37261,2,4,L|400:339,2,70,4|4|6,0:0|0:0|0:0,0:0:0:0:
272,270,38135,1,0,0:0:0:0:
175,266,38426,5,6,0:0:0:0:
114,191,38717,2,0,L|73:211,2,40.2500007677078,0|4|8,0:0|0:0|0:0,0:0:0:0:
169,111,39300,1,0,0:0:0:0:
261,138,39591,2,0,P|302:151|343:134,1,80.5000015354157
418,87,40174,2,0,L|461:49,1,40.2500007677078,8|0,0:0|0:0,0:0:0:0:
479,201,40756,6,0,L|512:171,2,40.2500007677078,0|0|4,0:0|0:0|0:0,0:0:0:0:
471,297,41339,1,8,0:0:0:0:
374,301,41630,1,0,0:0:0:0:
292,249,41921,2,0,B|253:232|253:232|196:234,1,80.5000015354157
119,246,42504,2,0,L|77:291,2,40.2500007677078,8|0|0,0:0|0:0|0:0,0:0:0:0:
161,159,43086,6,0,B|179:137|179:137|151:92|186:49,1,120.750002303124,4|4,0:0|0:0,0:0:0:0:
221,20,43669,2,0,P|259:10|309:23,1,80.5000015354157,8|4,0:0|0:0,0:0:0:0:
360,91,44251,2,0,L|415:91,2,40.2500007677078
263,103,44834,2,0,L|262:196,1,80.5000015354157,8|0,0:0|0:0,0:0:0:0:
180,234,45416,6,0,B|137:284|119:254|78:305,1,120.750002303124
55,341,45999,2,0,L|3:332,2,40.2500007677078,8|4|0,0:0|0:0|0:0,0:0:0:0:
150,351,46581,2,0,B|182:351|182:351|218:319|230:344|267:308|267:308|311:308,1,161.000003070831,4|10,0:0|0:0,0:0:0:0:
457,197,47746,6,0,L|372:172,1,80.5000015354157,6|2,0:0|0:0,0:0:0:0:
346,83,48329,2,0,L|386:68,2,40.2500007677078,8|0|4,0:0|0:0|0:0,0:0:0:0:
265,135,48911,2,0,L|187:112,1,80.5000015354157,2|2,0:0|0:0,0:0:0:0:
153,202,49494,1,8,0:0:0:0:
182,293,49785,6,0,L|278:312,1,80.5000015354157,2|2,0:0|0:0,0:0:0:0:
256,211,50368,2,0,L|337:227,1,80.5000015354157,6|10,0:0|0:0,0:0:0:0:
332,130,50950,1,0,0:0:0:0:
396,58,51242,2,0,L|424:24,2,40.2500007677078
425,149,51824,1,8,0:0:0:0:
456,240,52115,1,0,0:0:0:0:
485,332,52407,5,4,0:0:0:0:
292,314,52989,2,0,P|250:320|204:310,1,80.5000015354157,8|4,0:0|0:0,0:0:0:0:
213,216,53572,2,0,P|253:206|304:222,2,80.5000015354157,0|0|8,0:0|0:0|0:0,0:0:0:0:
127,260,54445,1,0,0:0:0:0:
79,190,54737,6,0,L|110:112,1,70,4|4,0:0|0:0,0:0:0:0:
188,128,55319,2,4,L|214:62,1,70
297,70,55902,2,4,L|325:-4,2,70
411,193,57067,5,14,0:0:0:0:
303,322,57649,2,0,L|231:310,2,62.9999980773926,4|2|4,0:0|0:0|0:0,0:0:0:0:
453,310,58814,2,0,L|467:239,1,62.9999980773926,6|0,0:0|0:0,0:0:0:0:
455,173,59397,5,6,0:0:0:0:
383,39,59979,1,4,0:0:0:0:
307,31,60271,1,2,0:0:0:0:
250,80,60562,2,0,L|220:153,1,62.9999980773926,4|0,0:0|0:0,0:0:0:0:
296,165,61144,2,0,L|320:106,1,62.9999980773926,6|0,0:0|0:0,0:0:0:0:
307,31,61727,5,14,0:0:0:0:
158,59,62310,2,0,L|96:34,2,62.9999980773926,4|2|4,0:0|0:0|0:0,0:0:0:0:
143,209,63475,2,0,L|201:232,1,62.9999980773926,6|0,0:0|0:0,0:0:0:0:
239,297,64057,6,0,P|272:263|271:207,2,94.499997116089,6|2|2,0:0|0:0|0:0,0:0:0:0:
89,320,65513,2,0,L|20:350,2,62.9999980773926,0|6|0,0:0|0:0|0:0,0:0:0:0:
153,265,66387,6,12,B|163:188|103:199|113:123,1,140,14|12,0:0|0:0,0:0:0:0:
144,58,67261,2,0,L|100:50,2,35,8|0|12,0:0|0:0|0:0,0:0:0:0:
223,86,67844,1,0,0:0:0:0:
292,132,68135,2,8,L|337:113,2,35,12|8|8,0:0|0:0|0:0,0:0:0:0:
217,170,68717,6,12,B|235:211|235:211|274:237|274:237|298:284,1,140,14|12,0:0|0:0,0:0:0:0:
374,311,69591,1,8,0:0:0:0:
434,252,69882,2,8,L|454:180,1,70,12|8,0:0|0:0,0:0:0:0:
389,128,70465,2,8,L|370:195,1,70,12|8,0:0|0:0,0:0:0:0:
256,192,71047,12,4,74543,0:0:0:0:
440,324,75708,6,4,B|424:297|424:297|385:326|338:311,1,120.750002303124,6|4,0:0|0:0,0:0:0:0:
295,290,76290,2,0,P|282:250|298:207,1,80.5000015354157,8|6,0:0|0:0,0:0:0:0:
348,135,76873,5,2,0:0:0:0:
228,52,77310,1,2,0:0:0:0:
228,52,77455,2,0,L|147:52,1,80.5000015354157,10|2,0:0|0:0,0:0:0:0:
87,127,78038,6,0,L|171:127,1,80.5000015354157,2|6,0:0|0:0,0:0:0:0:
148,221,78620,2,0,L|52:221,1,80.5000015354157,8|2,0:0|0:0,0:0:0:0:
82,316,79203,6,0,L|110:344,1,40.2500007677078,2|0,0:0|0:0,0:0:0:0:
207,344,79640,2,0,L|236:314,1,40.2500007677078,2|8,0:0|0:0,0:0:0:0:
332,316,80077,2,0,L|361:345,1,40.2500007677078,2|0,0:0|0:0,0:0:0:0:
425,111,80950,6,0,P|381:103|336:112,1,80.5000015354157,8|4,0:0|0:0,0:0:0:0:
261,155,81533,2,0,P|201:174|144:149,1,120.750002303124,2|2,0:0|0:0,0:0:0:0:
110,124,82115,2,0,P|66:122|36:157,1,80.5000015354157,8|2,0:0|0:0,0:0:0:0:
95,225,82698,6,0,L|49:230,2,40.2500007677078,2|0|6,0:0|0:0|0:0,0:0:0:0:
177,275,83280,2,0,L|226:269,2,40.2500007677078,8|4|0,0:0|0:0|0:0,0:0:0:0:
103,337,83863,6,0,P|149:368|217:364,1,120.750002303124,4|0,0:0|0:0,0:0:0:0:
254,341,84445,2,0,P|289:323|338:330,1,80.5000015354157,10|0,0:0|0:0,0:0:0:0:
392,253,85028,6,4,B|411:214|411:214|365:211|340:176,1,120.750002303124,6|4,0:0|0:0,0:0:0:0:
331,133,85611,2,0,P|331:96|299:63,1,80.5000015354157,8|6,0:0|0:0,0:0:0:0:
213,28,86193,5,2,0:0:0:0:
105,124,86630,1,2,0:0:0:0:
105,124,86776,2,0,L|105:206,1,80.5000015354157,10|2,0:0|0:0,0:0:0:0:
170,275,87358,6,0,L|250:275,1,80.5000015354157,2|6,0:0|0:0,0:0:0:0:
287,364,87941,2,0,L|377:364,1,80.5000015354157,8|2,0:0|0:0,0:0:0:0:
445,307,88523,6,0,L|416:278,1,40.2500007677078,2|0,0:0|0:0,0:0:0:0:
417,181,88960,2,0,L|457:140,1,40.2500007677078,2|8,0:0|0:0,0:0:0:0:
445,55,89397,2,0,L|406:16,1,40.2500007677078,2|0,0:0|0:0,0:0:0:0:
181,84,90271,6,0,P|137:85|100:106,1,80.5000015354157,8|4,0:0|0:0,0:0:0:0:
40,172,90853,2,0,P|56:225|122:253,1,120.750002303124,2|0,0:0|0:0,0:0:0:0:
159,261,91436,2,0,P|199:266|238:313,1,80.5000015354157,8|2,0:0|0:0,0:0:0:0:
299,246,92018,6,0,L|347:186,1,70,4|4,0:0|0:0,0:0:0:0:
418,155,92601,2,4,B|358:106,1,70
280,124,93183,2,4,L|280:48,2,70,4|4|0,0:0|0:0|0:0,0:0:0:0:
165,247,94348,5,4,0:0:0:0:
280,300,94785,2,0,L|328:284,1,35,4|8,0:0|0:0,0:0:0:0:
388,344,95222,2,0,P|395:245|308:196,1,210,4|8,0:0|0:0,0:0:0:0:
224,210,96387,1,0,0:0:0:0:
149,59,96970,5,4,0:0:0:0:
67,38,97261,1,8,0:0:0:0:
63,121,97552,2,0,B|94:186|46:189|78:259,1,140
130,321,98426,6,0,L|97:358,2,35,8|0|0,0:0|0:0|0:0,0:0:0:0:
163,243,99009,5,4,0:0:0:0:
229,136,99445,2,0,L|277:120,1,35,4|8,0:0|0:0,0:0:0:0:
271,36,99882,2,0,P|341:83|341:168,1,175,4|0,0:0|0:0,0:0:0:0:
371,196,100756,2,0,L|343:261,1,70,8|0,0:0|0:0,0:0:0:0:
189,328,101630,5,4,0:0:0:0:
147,256,101921,1,8,0:0:0:0:
106,328,102212,1,0,0:0:0:0:
62,256,102504,2,0,L|21:256,2,35,4|0|0,0:0|0:0|0:0,0:0:0:0:
106,185,103086,2,0,B|106:113,1,70,10|2,0:0|0:0,0:0:0:0:
106,30,103669,5,6,0:0:0:0:
214,93,104106,2,0,L|266:125,1,35,4|8,0:0|0:0,0:0:0:0:
326,95,104543,2,0,P|310:161|226:194,1,140,4|0,0:0|0:0,0:0:0:0:
167,181,105416,6,0,L|126:142,2,35,8|0|0,0:0|0:0|0:0,0:0:0:0:
244,330,106290,5,4,0:0:0:0:
315,286,106581,1,8,0:0:0:0:
396,306,106873,2,0,P|380:233|316:202,1,140
244,188,107746,1,2,0:0:0:0:
111,291,108329,5,4,0:0:0:0:
103,165,108766,2,0,L|108:112,1,35,4|8,0:0|0:0,0:0:0:0:
29,96,109203,2,0,P|112:45|188:111,1,210,4|8,0:0|0:0,0:0:0:0:
259,152,110368,1,0,0:0:0:0:
252,235,110659,6,0,L|252:309,1,70,4|4,0:0|0:0,0:0:0:0:
336,305,111242,2,4,B|336:235,1,70
419,235,111824,2,4,L|419:305,2,70,4|4|6,0:0|0:0|0:0,0:0:0:0:
241,158,112989,5,6,0:0:0:0:
144,148,113280,2,0,L|63:182,1,80.5000015354157,0|8,0:0|0:0,0:0:0:0:
65,275,113863,2,0,L|16:296,2,40.2500007677078,4|0|0,0:0|0:0|0:0,0:0:0:0:
133,342,114445,1,0,0:0:0:0:
199,271,114737,2,0,L|283:237,1,80.5000015354157,8|0,0:0|0:0,0:0:0:0:
368,259,115319,6,0,L|385:301,2,40.2500007677078,0|0|4,0:0|0:0|0:0,0:0:0:0:
426,181,115902,1,8,0:0:0:0:
331,169,116193,1,0,0:0:0:0:
235,154,116484,2,0,B|188:154|188:154|147:137,1,80.5000015354157
68,102,117067,1,8,0:0:0:0:
109,290,117649,6,0,L|67:334,2,40.2500007677078,4|0|0,0:0|0:0|0:0,0:0:0:0:
184,228,118232,2,0,P|222:239|247:270,1,80.5000015354157,8|4,0:0|0:0,0:0:0:0:
343,271,118814,2,0,L|421:312,1,80.5000015354157
401,212,119397,2,0,L|329:174,1,80.5000015354157,8|0,0:0|0:0,0:0:0:0:
384,94,119979,6,0,L|419:112,2,40.2500007677078,0|0|4,0:0|0:0|0:0,0:0:0:0:
301,42,120562,1,8,0:0:0:0:
219,94,120853,2,0,L|183:76,2,40.2500007677078,0|0|4,0:0|0:0|0:0,0:0:0:0:
232,189,121436,1,0,0:0:0:0:
167,260,121727,1,10,0:0:0:0:
72,241,122018,2,0,L|22:273,2,40.2500007677078,0|0|6,0:0|0:0|0:0,0:0:0:0:
135,166,122601,5,2,0:0:0:0:
232,189,122892,2,0,L|270:136,2,40.2500007677078,8|0|4,0:0|0:0|0:0,0:0:0:0:
271,277,123475,2,0,P|272:313|312:359,2,80.5000015354157,2|2|8,0:0|0:0|0:0,0:0:0:0:
340,209,124348,1,0,0:0:0:0:
377,119,124640,6,0,L|286:78,1,80.5000015354157,2|6,0:0|0:0,0:0:0:0:
208,100,125222,1,8,0:0:0:0:
243,10,125513,2,0,L|295:0,2,40.2500007677078
148,31,126096,2,2,B|110:40|110:40|79:74,1,80.5000015354157,2|10,0:0|0:0,0:0:0:0:
57,164,126678,6,0,L|6:133,2,40.2500007677078,0|0|4,0:0|0:0|0:0,0:0:0:0:
140,212,127261,1,0,0:0:0:0:
222,261,127552,2,0,L|256:282,2,40.2500007677078,8|0|4,0:0|0:0|0:0,0:0:0:0:
227,164,128135,2,0,L|144:111,1,80.5000015354157
97,46,128717,2,0,L|57:46,2,40.2500007677078,8|0|0,0:0|0:0|0:0,0:0:0:0:
180,37,129300,6,0,L|262:19,1,70,4|4,0:0|0:0,0:0:0:0:
288,96,129883,2,4,L|359:109,1,70
391,185,130465,1,0,0:0:0:0:
260,290,131047,6,4,B|194:293|196:340|126:329,1,140,4|14,0:0|0:0,0:0:0:0:
122,178,132212,6,0,L|64:209,2,62.9999980773926,4|2|4,0:0|0:0|0:0,0:0:0:0:
227,68,133378,1,6,0:0:0:0:
377,80,133960,5,6,0:0:0:0:
451,211,134543,1,4,0:0:0:0:
413,276,134834,1,2,0:0:0:0:
337,275,135125,2,0,L|273:254,1,62.9999980773926,4|0,0:0|0:0,0:0:0:0:
305,185,135707,2,0,L|241:163,1,62.9999980773926,6|0,0:0|0:0,0:0:0:0:
174,138,136290,5,14,0:0:0:0:
114,276,136873,2,0,L|43:295,2,62.9999980773926,4|2|4,0:0|0:0|0:0,0:0:0:0:
255,329,138038,2,0,L|324:298,1,62.9999980773926,6|0,0:0|0:0,0:0:0:0:
330,229,138620,6,0,P|368:253|387:298,2,94.499997116089,6|2|2,0:0|0:0|0:0,0:0:0:0:
186,276,140077,2,0,L|134:325,2,62.9999980773926,0|2|0,0:0|0:0|0:0,0:0:0:0:
108,243,140950,6,12,B|164:174|110:160|163:107,1,140,14|12,0:0|0:0,0:0:0:0:
216,57,141824,2,0,L|170:34,2,35,8|0|12,0:0|0:0|0:0,0:0:0:0:
232,139,142407,1,0,0:0:0:0:
309,106,142698,2,8,L|299:52,2,35,12|8|8,0:0|0:0|0:0,0:0:0:0:
309,189,143280,6,12,P|316:247|263:303,1,140,14|12,0:0|0:0,0:0:0:0:
236,227,144154,1,8,0:0:0:0:
234,143,144445,2,8,L|269:80,1,70,12|8,0:0|0:0,0:0:0:0:
343,118,145028,2,8,L|378:58,1,70,12|8,0:0|0:0,0:0:0:0:
256,192,145610,12,4,149106,0:0:0:0:
75,55,150271,6,4,B|136:82|104:111|178:136,1,120.750002303124,6|4,0:0|0:0,0:0:0:0:
212,143,150853,2,0,B|242:167|242:167|253:207,1,80.5000015354157,8|6,0:0|0:0,0:0:0:0:
232,302,151436,5,2,0:0:0:0:
375,322,151873,1,2,0:0:0:0:
375,322,152018,2,0,L|415:251,1,80.5000015354157,10|2,0:0|0:0,0:0:0:0:
492,194,152601,6,0,L|416:152,1,80.5000015354157,2|6,0:0|0:0,0:0:0:0:
344,212,153183,2,0,B|265:168,1,80.5000015354157,8|2,0:0|0:0,0:0:0:0:
302,81,153766,6,0,L|274:53,1,40.2500007677078,2|0,0:0|0:0,0:0:0:0:
177,53,154203,2,0,L|148:83,1,40.2500007677078,2|8,0:0|0:0,0:0:0:0:
52,81,154640,2,0,L|23:52,1,40.2500007677078,2|0,0:0|0:0,0:0:0:0:
81,286,155513,6,0,P|118:297|159:288,1,80.5000015354157,8|4,0:0|0:0,0:0:0:0:
246,249,156096,2,0,P|290:220|355:236,1,120.750002303124,2|2,0:0|0:0,0:0:0:0:
392,262,156678,2,0,P|428:268|468:241,1,80.5000015354157,8|2,0:0|0:0,0:0:0:0:
458,149,157261,6,0,L|507:160,2,40.2500007677078,2|0|6,0:0|0:0|0:0,0:0:0:0:
403,69,157843,2,0,L|355:59,2,40.2500007677078,8|4|0,0:0|0:0|0:0,0:0:0:0:
336,139,158426,6,0,P|273:131|220:108,1,120.750002303124,4|0,0:0|0:0,0:0:0:0:
182,79,159008,2,0,P|138:73|86:87,1,80.5000015354157,10|0,0:0|0:0,0:0:0:0:
65,169,159591,6,4,B|98:222|124:191|164:246,1,120.750002303124,6|4,0:0|0:0,0:0:0:0:
173,286,160173,2,0,P|191:316|247:333,1,80.5000015354157,8|6,0:0|0:0,0:0:0:0:
327,318,160756,5,2,0:0:0:0:
420,207,161193,1,2,0:0:0:0:
420,207,161339,2,0,L|394:123,1,80.5000015354157,10|2,0:0|0:0,0:0:0:0:
303,102,161921,6,0,L|326:179,1,80.5000015354157,2|6,0:0|0:0,0:0:0:0:
261,251,162504,2,0,L|237:169,1,80.5000015354157,8|2,0:0|0:0,0:0:0:0:
186,92,163086,6,0,L|158:120,1,40.2500007677078,2|0,0:0|0:0,0:0:0:0:
158,217,163523,2,0,L|129:244,1,40.2500007677078,2|8,0:0|0:0,0:0:0:0:
129,341,163960,2,0,L|100:370,1,40.2500007677078,2|0,0:0|0:0,0:0:0:0:
336,318,164834,6,0,P|373:329|414:320,1,80.5000015354157,8|4,0:0|0:0,0:0:0:0:
474,246,165417,2,0,P|459:186|402:158,1,120.750002303124,2|2,0:0|0:0,0:0:0:0:
364,144,165999,2,0,P|323:132|286:86,1,80.5000015354157,8|2,0:0|0:0,0:0:0:0:
241,42,166581,6,0,B|171:42,1,70,4|4,0:0|0:0,0:0:0:0:
171,126,167164,2,4,B|101:126,1,70
101,209,167746,2,4,L|31:209,2,70,4|4|14,0:0|0:0|0:0,0:0:0:0:
437,197,169494,5,8,0:0:0:0:
361,149,169785,1,0,0:0:0:0:
277,181,170077,1,0,0:0:0:0:
249,269,170368,1,0,0:0:0:0:
333,237,170659,2,0,L|365:257,2,35,8|0|0,0:0|0:0|0:0,0:0:0:0:
116,104,180562,6,8,L|83:184,1,70
167,199,181144,2,8,L|193:134,1,70
224,55,181727,1,8,0:0:0:0:
281,116,182018,2,8,L|316:130,1,35
257,191,182455,2,8,L|292:205,1,35
331,277,182892,6,8,B|260:277,1,70
223,352,183474,2,8,B|293:352,1,70
377,352,184057,1,8,0:0:0:0:
449,310,184348,2,8,L|449:268,1,35
393,211,184785,2,8,L|393:167,1,35
256,192,185222,12,0,188717,0:0:0:0:
418,85,189882,6,4,B|427:127|427:127|382:130|348:168,1,120.750002303124,14|8,0:0|0:0,0:0:0:0:
333,200,190464,2,0,B|321:237|321:237|337:282,1,80.5000015354157,4|10,0:0|0:0,0:0:0:0:
249,321,191047,2,4,B|203:268|263:258|219:203,1,120.750002303124,6|10,0:0|0:0,0:0:0:0:
183,181,191629,2,0,B|141:170|141:170|107:135,1,80.5000015354157,6|10,0:0|0:0,0:0:0:0:
152,53,192212,6,0,B|200:25|200:25|265:25,1,120.750002303124,6|8,0:0|0:0,0:0:0:0:
302,56,192794,2,0,B|334:73|334:73|396:73,1,80.5000015354157,4|10,0:0|0:0,0:0:0:0:
450,122,193378,2,0,B|417:178|474:178|443:243,1,120.750002303124,6|10,0:0|0:0,0:0:0:0:
417,277,193960,2,0,B|391:306|391:306|349:306,1,80.5000015354157,4|10,0:0|0:0,0:0:0:0:
253,317,194543,6,4,P|195:338|136:313,1,120.750002303124,6|8,0:0|0:0,0:0:0:0:
117,276,195125,2,0,B|117:229|117:229|144:201,1,80.5000015354157,4|8,0:0|0:0,0:0:0:0:
235,224,195708,2,4,B|293:255|356:219,1,120.750002303124,6|10,0:0|0:0,0:0:0:0:
376,180,196290,2,0,B|376:137|376:137|349:110,1,80.5000015354157,4|10,0:0|0:0,0:0:0:0:
252,110,196873,6,0,P|190:95|130:110,1,120.750002303124,6|8,0:0|0:0,0:0:0:0:
118,152,197455,2,0,P|91:182|45:199,1,80.5000015354157,4|8,0:0|0:0,0:0:0:0:
123,265,198038,2,0,L|132:316,1,40.2500007677078,4|8,0:0|0:0,0:0:0:0:
222,332,198474,1,8,0:0:0:0:
222,332,198619,2,0,L|310:317,1,80.5000015354157,6|8,0:0|0:0,0:0:0:0:
398,326,199203,6,4,P|388:277|336:227,1,120.750002303124,6|8,0:0|0:0,0:0:0:0:
290,230,199785,2,0,B|251:245|251:245|210:229,1,80.5000015354157,4|10,0:0|0:0,0:0:0:0:
119,247,200368,2,6,B|83:187|141:187|113:117,1,120.750002303124,6|10,0:0|0:0,0:0:0:0:
70,119,200950,2,0,P|52:78|58:25,1,80.5000015354157,6|10,0:0|0:0,0:0:0:0:
149,36,201533,6,0,P|206:22|273:38,1,120.750002303124,6|8,0:0|0:0,0:0:0:0:
307,58,202115,2,0,P|331:81|387:91,1,80.5000015354157,4|8,0:0|0:0,0:0:0:0:
452,151,202699,2,0,B|429:207|472:207|452:271,1,120.750002303124,6|10,0:0|0:0,0:0:0:0:
426,309,203281,2,0,B|385:314|385:314|348:335,1,80.5000015354157,4|10,0:0|0:0,0:0:0:0:
308,246,203863,6,8,P|265:255|221:244,1,80.5000015354157,10|10,0:0|0:0,0:0:0:0:
172,169,204445,2,8,P|211:161|250:170,1,80.5000015354157
346,178,205028,6,8,P|389:187|433:176,1,80.5000015354157,10|8,0:0|0:0,0:0:0:0:
482,101,205610,2,8,P|443:93|404:102,1,80.5000015354157,8|10,0:0|0:0,0:0:0:0:
256,192,206193,12,14,207941,0:0:0:0:
