osu file format v14

[General]
AudioFilename: audio.mp3
AudioLeadIn: 0
PreviewTime: 113213
Countdown: 0
SampleSet: Soft
StackLeniency: 0.7
Mode: 0
LetterboxInBreaks: 0
WidescreenStoryboard: 1

[Editor]
Bookmarks: 9887,19790,38140,57072,75713,94353,113285,131635,150276,169790,180567,189887
DistanceSpacing: 1.4
BeatDivisor: 4
GridSize: 4
TimelineZoom: 1.3

[Metadata]
Title:WHISTLE
TitleUnicode:휘파람
Artist:BLACKPINK
ArtistUnicode:블랙핑크
Creator:UniqueBlock11
Version:Hard
Source:
Tags:blackpink korean pop k-pop kpop 블핑 블랙핑크 square one 지수 jisoo 제니 jennie 로제 rosé 리사 lisa yg entertainment beatmasherr collab
BeatmapID:1369602
BeatmapSetID:642149

[Difficulty]
HPDrainRate:5
CircleSize:4
OverallDifficulty:7
ApproachRate:8
SliderMultiplier:2.3
SliderTickRate:1

[Events]
//Background and Video events
0,0,"blackpink.png",0,0
Video,-469,"blackpink.mp4"
//Break Periods
2,171150,179812
//Storyboard Layer 0 (Background)
//Storyboard Layer 1 (Fail)
//Storyboard Layer 2 (Pass)
//Storyboard Layer 3 (Foreground)
//Storyboard Layer 4 (Overlay)
//Storyboard Sound Samples

[TimingPoints]
1145,582.52427184466,4,2,1,30,1,0
17455,-100,4,2,2,30,0,0
17746,-100,4,2,1,30,0,0
17892,-100,4,2,2,30,0,0
18183,-100,4,2,1,30,0,0
18329,-100,4,2,2,30,0,0
18620,-100,4,2,1,30,0,0
18766,-100,4,2,2,30,0,0
18911,-111.111111111111,4,2,2,30,0,0
19203,-100,4,2,1,30,0,0
19785,-133.333333333333,4,2,1,25,0,0
20222,-100,4,2,1,25,0,0
20659,-133.333333333333,4,2,1,25,0,0
21387,-100,4,2,1,25,0,0
21824,-133.333333333333,4,2,1,25,0,0
22407,-100,4,2,1,25,0,0
22989,-133.333333333333,4,2,1,25,0,0
23572,-100,4,2,1,25,0,0
23863,-133.333333333333,4,2,1,25,0,0
24154,-100,4,2,1,25,0,0
25319,-133.333333333333,4,2,1,25,0,0
26047,-100,4,2,1,25,0,0
26484,-133.333333333333,4,2,1,25,0,0
27067,-100,4,2,1,25,0,0
28523,-80,4,2,1,25,0,0
29106,-133.333333333333,4,2,1,25,0,0
29543,-100,4,2,1,25,0,0
29979,-133.333333333333,4,2,1,25,0,0
30562,-100,4,2,1,25,0,0
30853,-133.333333333333,4,2,1,25,0,0
31144,-100,4,2,1,25,0,0
32310,-133.333333333333,4,2,1,25,0,0
33038,-100,4,2,1,25,0,0
34640,-133.333333333333,4,2,1,25,0,0
35368,-100,4,2,1,25,0,0
36096,-100,4,2,2,30,0,0
36387,-100,4,2,1,30,0,0
36533,-100,4,2,2,30,0,0
36824,-100,4,2,1,30,0,0
36970,-100,4,2,2,30,0,0
37261,-100,4,2,1,30,0,0
37407,-100,4,2,2,30,0,0
37552,-111.111111111111,4,2,2,30,0,0
37844,-100,4,2,1,30,0,0
38135,-80,4,2,1,40,0,0
54737,-86.9565217391304,4,2,2,30,0,0
55028,-86.9565217391304,4,2,1,30,0,0
55174,-86.9565217391304,4,2,2,30,0,0
55465,-86.9565217391304,4,2,1,30,0,0
55611,-86.9565217391304,4,2,2,30,0,0
55902,-86.9565217391304,4,2,1,30,0,0
56047,-86.9565217391304,4,2,2,30,0,0
56339,-86.9565217391304,4,2,1,30,0,0
56484,-111.111111111111,4,2,1,30,0,0
57067,-133.333333333333,4,2,3,50,0,0
66387,-111.111111111111,4,2,4,30,0,0
74543,-80,4,2,3,25,0,0
75708,-80,4,2,1,25,0,1
83863,-80,4,2,1,35,0,1
84445,-80,4,2,1,25,0,0
85028,-80,4,2,1,35,0,1
92018,-86.9565217391304,4,2,2,35,0,1
92309,-86.9565217391304,4,2,1,35,0,1
92455,-86.9565217391304,4,2,2,35,0,1
92746,-86.9565217391304,4,2,1,35,0,1
92892,-86.9565217391304,4,2,2,35,0,1
93183,-86.9565217391304,4,2,1,35,0,1
93329,-86.9565217391304,4,2,2,35,0,1
93766,-100,4,2,1,15,0,0
94348,-100,4,2,1,30,0,0
95222,-133.333333333333,4,2,1,25,0,0
95950,-100,4,2,1,25,0,0
96387,-133.333333333333,4,2,1,25,0,0
96970,-100,4,2,1,25,0,0
97552,-133.333333333333,4,2,1,25,0,0
98280,-100,4,2,1,25,0,0
98717,-133.333333333333,4,2,1,25,0,0
99009,-100,4,2,1,25,0,0
99882,-133.333333333333,4,2,1,25,0,0
100611,-100,4,2,1,25,0,0
101047,-133.333333333333,4,2,1,25,0,0
101630,-100,4,2,1,25,0,0
103086,-80,4,2,1,25,0,0
103378,-100,4,2,1,25,0,0
104543,-133.333333333333,4,2,1,25,0,0
105416,-100,4,2,1,25,0,0
105708,-133.333333333333,4,2,1,25,0,0
106290,-100,4,2,1,25,0,0
106873,-133.333333333333,4,2,1,25,0,0
107746,-100,4,2,1,45,0,0
108329,-100,4,2,1,25,0,0
109203,-133.333333333333,4,2,1,25,0,0
110077,-100,4,2,1,25,0,0
110659,-100,4,2,2,30,0,0
110950,-100,4,2,1,30,0,0
111096,-100,4,2,2,30,0,0
111387,-100,4,2,1,30,0,0
111533,-100,4,2,2,30,0,0
111824,-100,4,2,1,30,0,0
111970,-100,4,2,2,30,0,0
112115,-111.111111111111,4,2,2,30,0,0
112407,-80,4,2,1,30,0,0
112989,-80,4,2,1,30,0,0
126096,-66.6666666666667,4,2,1,30,0,0
126387,-80,4,2,1,30,0,0
129300,-100,4,2,2,30,0,0
129591,-100,4,2,1,30,0,0
129737,-100,4,2,2,30,0,0
130028,-100,4,2,1,30,0,0
130174,-100,4,2,2,30,0,0
131047,-200,4,2,2,30,0,0
131630,-133.333333333333,4,2,3,50,0,0
140950,-111.111111111111,4,2,4,30,0,0
149106,-80,4,2,3,25,0,0
150271,-80,4,2,1,25,0,1
158426,-80,4,2,1,35,0,1
159009,-80,4,2,1,25,0,0
159591,-80,4,2,1,35,0,1
166581,-86.9565217391305,4,2,2,35,0,1
166872,-86.9565217391305,4,2,1,35,0,1
167018,-86.9565217391305,4,2,2,35,0,1
167309,-86.9565217391305,4,2,1,35,0,1
167455,-86.9565217391305,4,2,2,35,0,1
167746,-86.9565217391305,4,2,1,35,0,1
167892,-86.9565217391305,4,2,2,35,0,1
168037,-86.9565217391304,4,2,2,35,0,1
168329,-200,4,2,1,35,0,0
168911,-200,4,2,1,5,0,0
169494,-200,4,2,1,25,0,0
180562,-133.333333333333,4,2,4,30,0,0
182892,-111.111111111111,4,2,4,30,0,0
185222,-100,4,2,3,30,0,0
185805,-80,4,2,3,30,0,0
186096,-100,4,2,3,30,0,0
186970,-80,4,2,3,30,0,0
187261,-100,4,2,3,30,0,0
189737,-100,4,2,3,10,0,0
189882,-86.9565217391304,4,2,3,45,0,1
190319,-86.9565217391304,4,2,1,45,0,1
198037,-86.9565217391304,4,2,1,45,0,1
198620,-86.9565217391304,4,2,1,35,0,0
199203,-86.9565217391304,4,2,1,45,0,1
207941,-100,4,2,1,30,0,0

[Colours]
Combo1 : 185,0,185
Combo2 : 0,64,128
Combo3 : 0,97,215
Combo4 : 98,0,196
SliderBorder : 170,0,240
SliderTrackOverride : 25,25,25

[HitObjects]
91,115,9882,38,0,P|153:65|217:117,1,172.5,10|0,0:0|0:0,0:0:0:0:
154,166,10465,2,0,B|87:221|142:246|70:323,1,172.5,6|4,0:0|0:0,0:0:0:0:
149,351,11047,2,0,P|203:361|271:345,1,115,8|6,0:0|0:0,0:0:0:0:
407,285,11630,6,0,B|432:232|432:232|404:176,1,115,2|0,0:0|0:0,0:0:0:0:
379,144,12067,1,2,0:0:0:0:
352,106,12212,2,0,P|296:83|247:104,1,115,10|2,0:0|0:0,0:0:0:0:
175,110,12649,1,0,0:0:0:0:
175,110,12722,1,0,0:0:0:0:
175,110,12795,6,0,L|199:170,1,57.5,2|0,0:0|0:0,0:0:0:0:
124,199,13086,2,0,L|148:259,1,57.5,6|0,0:0|0:0,0:0:0:0:
227,242,13378,2,0,L|249:295,1,57.5,8|0,0:0|0:0,0:0:0:0:
315,340,13669,2,0,L|368:317,1,57.5,2|0,0:0|0:0,0:0:0:0:
442,287,13960,6,0,B|424:248|424:248|379:235|403:209|357:190|357:190|336:143,1,172.5,2|2,0:0|0:0,0:0:0:0:
357,75,14543,2,0,P|323:31|265:20,1,115,8|2,0:0|0:0,0:0:0:0:
212,77,14979,1,0,0:0:0:0:
212,77,15052,1,0,0:0:0:0:
212,75,15125,6,0,B|171:155|228:155|194:253,1,172.5,6|4,0:0|0:0,0:0:0:0:
127,285,15708,1,8,0:0:0:0:
279,334,15999,1,4,0:0:0:0:
427,272,16290,6,0,B|456:237|456:237|456:155|456:155|428:119,1,172.5,2|2,0:0|0:0,0:0:0:0:
350,95,16873,2,0,B|382:37,2,57.5,8|0|2,0:0|0:0|0:0,0:0:0:0:
331,136,17309,1,0,0:0:0:0:
312,178,17455,6,4,L|379:186,2,57.5,6|4|6,0:0|0:0|0:0,0:0:0:0:
232,166,17892,2,4,L|204:98,2,57.5,6|12|6,0:0|0:0|0:0,0:0:0:0:
264,240,18329,2,4,L|196:251,2,57.5
307,254,18766,1,4,0:0:0:0:
345,267,18911,2,4,P|391:283|433:323,1,103.499996841431,4|14,0:0|0:0,0:0:0:0:
189,314,19785,6,4,P|121:307|74:264,1,129.375004935265,6|4,0:0|0:0,0:0:0:0:
118,198,20368,6,0,L|147:130,1,57.5,8|0,0:0|0:0,0:0:0:0:
71,109,20659,2,0,P|162:69|217:153,1,215.625008225441
224,233,21533,6,0,L|271:277,1,57.5,8|0,0:0|0:0,0:0:0:0:
324,324,21824,2,0,B|369:239|299:234|345:158,1,172.500006580353,0|4,0:0|0:0,0:0:0:0:
412,114,22552,6,0,L|429:168,2,57.5,0|8|0,0:0|0:0|0:0,0:0:0:0:
488,101,22989,2,0,P|427:38|354:62,1,172.500006580353
210,120,23863,2,0,B|168:133,2,43.1250016450883,8|0|0,0:0|0:0|0:0,0:0:0:0:
412,163,24445,6,4,P|432:231|350:294,1,172.5
352,216,25028,2,0,B|296:192,1,57.5,8|0,0:0|0:0,0:0:0:0:
288,270,25319,2,0,B|218:263|218:263|196:221|153:211|153:211|123:144,1,215.625008225441,4|0,0:0|0:0,0:0:0:0:
189,103,26193,6,0,L|257:117,1,57.5,8|0,0:0|0:0,0:0:0:0:
275,42,26484,2,0,P|324:103|281:185,1,172.500006580353,0|4,0:0|0:0,0:0:0:0:
208,192,27212,6,0,L|150:191,2,57.5,0|8|4,0:0|0:0|0:0,0:0:0:0:
257,256,27649,2,0,L|281:308,1,57.5
362,297,27941,6,0,L|382:245,2,28.75,4|0|0,0:0|0:0|0:0,0:0:0:0:
346,217,28232,2,0,L|366:165,2,28.75
314,121,28523,6,0,P|390:117|437:178,1,143.75,10|0,0:0|0:0,0:0:0:0:
511,255,29106,6,4,B|489:316|489:316|425:356,1,129.375004935265,6|4,0:0|0:0,0:0:0:0:
360,318,29688,2,0,L|324:257,1,57.5,8|0,0:0|0:0,0:0:0:0:
379,208,29979,2,0,P|301:199|254:277,1,172.500006580353,4|0,0:0|0:0,0:0:0:0:
157,343,30853,2,0,B|116:323|116:323|97:286,1,86.2500032901765,8|0,0:0|0:0,0:0:0:0:
308,43,31727,6,0,L|375:65,1,57.5,4|0,0:0|0:0,0:0:0:0:
318,128,32018,2,0,L|372:145,1,57.5,8|0,0:0|0:0,0:0:0:0:
437,101,32310,2,0,B|458:157|458:157|423:192|418:245|418:245|369:273,1,215.625008225441
288,274,33183,2,0,B|249:326,2,57.5,8|0|0,0:0|0:0|0:0,0:0:0:0:
239,120,33766,6,0,P|186:95|129:112,1,115,4|0,0:0|0:0,0:0:0:0:
103,183,34203,2,0,L|43:165,2,57.5,4|8|0,0:0|0:0|0:0,0:0:0:0:
181,177,34640,2,0,P|280:188|311:87,1,215.625008225441,4|0,0:0|0:0,0:0:0:0:
239,120,35513,6,0,L|207:72,2,57.5,8|0|0,0:0|0:0|0:0,0:0:0:0:
330,252,36096,6,4,L|370:311,2,57.5
397,208,36533,2,4,L|363:158,2,57.5,4|12|4,0:0|0:0|0:0,0:0:0:0:
466,167,36970,2,4,L|503:219,2,57.5
436,131,37407,1,4,0:0:0:0:
409,99,37552,2,4,P|367:62|315:54,1,103.499996841431,4|6,0:0|0:0,0:0:0:0:
120,74,38135,6,2,B|62:103|62:103|62:189,1,143.75,0|6,0:0|0:0,0:0:0:0:
200,327,38717,6,0,B|274:327,1,71.875,0|4,0:0|0:0,0:0:0:0:
337,249,39009,2,0,B|261:249,1,71.875,8|0,0:0|0:0,0:0:0:0:
164,249,39300,2,0,B|217:181,1,71.875,4|0,0:0|0:0,0:0:0:0:
177,95,39591,6,0,P|235:54|306:59,1,143.75
406,59,40028,1,0,0:0:0:0:
359,148,40174,2,0,P|415:186|495:183,1,143.75,8|0,0:0|0:0,0:0:0:0:
363,342,40756,6,0,P|398:348|432:340,2,71.875,0|0|4,0:0|0:0|0:0,0:0:0:0:
298,264,41193,1,0,0:0:0:0:
302,163,41339,2,0,P|253:99|192:97,1,143.75,8|0,0:0|0:0,0:0:0:0:
115,158,41776,1,0,0:0:0:0:
85,253,41921,6,0,P|108:318|173:343,1,143.75
255,283,42358,2,0,L|332:341,2,71.875,0|8|0,0:0|0:0|0:0,0:0:0:0:
210,192,42795,2,0,L|210:110,1,71.875
267,37,43086,6,0,B|303:37|303:37|351:12|420:42,1,143.75,4|0,0:0|0:0,0:0:0:0:
434,134,43523,2,0,B|400:153|400:153|343:153,1,71.875,4|8,0:0|0:0,0:0:0:0:
286,213,43814,2,0,B|320:232|320:232|377:232,1,71.875,0|4,0:0|0:0,0:0:0:0:
434,292,44106,6,0,B|400:311|400:311|343:311,1,71.875
273,348,44397,1,0,0:0:0:0:
173,347,44543,1,0,0:0:0:0:
224,260,44688,1,0,0:0:0:0:
123,260,44834,2,0,P|62:239|34:167,1,143.75,8|0,0:0|0:0,0:0:0:0:
219,92,45416,6,0,B|268:45|268:45|343:45,1,143.75,0|4,0:0|0:0,0:0:0:0:
444,45,45853,1,0,0:0:0:0:
425,144,45999,2,0,B|485:212,2,71.875,8|4|0,0:0|0:0|0:0,0:0:0:0:
324,144,46436,1,0,0:0:0:0:
234,189,46581,6,0,P|282:237|355:240,1,143.75,4|0,0:0|0:0,0:0:0:0:
436,298,47018,1,0,0:0:0:0:
349,350,47164,1,10,0:0:0:0:
147,350,47455,2,0,L|147:277,1,71.875
37,208,47746,6,0,L|108:208,1,71.875,6|0,0:0|0:0,0:0:0:0:
255,208,48038,2,0,L|173:208,1,71.875,2|4,0:0|0:0,0:0:0:0:
162,109,48329,6,0,B|90:132,2,71.875,8|0|4,0:0|0:0|0:0,0:0:0:0:
258,79,48766,1,0,0:0:0:0:
348,120,48911,6,0,L|404:183,1,71.875,2|0,0:0|0:0,0:0:0:0:
492,288,49203,2,0,L|440:224,1,71.875,2|0,0:0|0:0,0:0:0:0:
308,292,49494,2,0,L|372:240,1,71.875,8|0,0:0|0:0,0:0:0:0:
287,181,49785,6,0,B|238:127|238:127|168:106,1,143.75,2|2,0:0|0:0,0:0:0:0:
4,221,50368,2,0,B|53:275|53:275|123:296,1,143.75,6|10,0:0|0:0,0:0:0:0:
287,181,50950,5,0,0:0:0:0:
245,89,51096,2,0,B|172:73|172:73|103:91,1,143.75
16,138,51533,1,0,0:0:0:0:
187,243,51824,2,0,L|177:167,2,71.875,8|0|0,0:0|0:0|0:0,0:0:0:0:
237,330,52261,1,0,0:0:0:0:
337,325,52407,6,0,P|413:260|393:157,1,215.625,4|4,0:0|0:0,0:0:0:0:
318,226,52989,2,0,L|239:201,1,71.875,8|0,0:0|0:0,0:0:0:0:
317,129,53280,2,0,L|238:104,1,71.875,4|0,0:0|0:0,0:0:0:0:
211,12,53572,6,0,P|161:51|149:132,1,143.75
85,206,54009,1,0,0:0:0:0:
85,306,54154,2,0,P|153:328|223:303,1,143.75,8|0,0:0|0:0,0:0:0:0:
377,209,54737,6,4,L|441:196,2,66.1250012612343
300,157,55174,2,4,L|359:127,2,66.1250012612343,4|12|4,0:0|0:0|0:0,0:0:0:0:
210,131,55611,2,4,L|260:88,2,66.1250012612343
117,131,56047,2,4,L|148:72,2,66.1250012612343
27,156,56484,2,0,P|64:209|156:217,1,155.249995262146,4|0,0:0|0:0,0:0:0:0:
183,213,57067,5,14,0:0:0:0:
183,213,57649,1,4,0:0:0:0:
284,191,57941,2,0,L|336:177,1,43.1250016450883,2|0,0:0|0:0,0:0:0:0:
373,200,58232,2,0,B|410:207|410:207|457:198,1,86.2500032901765,4|0,0:0|0:0,0:0:0:0:
458,95,58814,1,6,0:0:0:0:
250,95,59397,5,2,0:0:0:0:
250,95,59979,1,4,0:0:0:0:
198,184,60271,1,2,0:0:0:0:
301,184,60562,2,0,L|348:262,1,86.2500032901765,4|0,0:0|0:0,0:0:0:0:
448,271,61144,2,0,L|403:197,1,86.2500032901765,6|0,0:0|0:0,0:0:0:0:
351,107,61727,5,14,0:0:0:0:
351,107,62310,1,4,0:0:0:0:
258,61,62601,2,0,L|197:62,1,43.1250016450883,2|0,0:0|0:0,0:0:0:0:
189,107,62893,2,0,B|142:99|142:99|95:106,1,86.2500032901765,4|0,0:0|0:0,0:0:0:0:
48,192,63475,1,6,0:0:0:0:
151,192,63766,1,0,0:0:0:0:
241,241,64057,6,0,B|296:205|306:258|374:218,2,129.375004935265,2|2|2,0:0|0:0|0:0,0:0:0:0:
241,241,65513,6,0,P|207:267|165:276,2,86.2500032901765,0|2|0,0:0|0:0|0:0,0:0:0:0:
365,246,66387,6,8,B|396:206|396:206|413:146,1,103.499996841431,14|8,0:0|0:0,0:0:0:0:
416,82,66824,1,0,0:0:0:0:
352,46,66970,2,8,P|300:38|245:48,1,103.499996841431,8|12,0:0|0:0,0:0:0:0:
121,111,67552,1,12,0:0:0:0:
160,248,67844,6,0,L|180:295,1,51.7499984207154,0|8,0:0|0:0,0:0:0:0:
249,274,68135,2,0,L|228:226,1,51.7499984207154,12|8,0:0|0:0,0:0:0:0:
207,156,68426,1,8,0:0:0:0:
284,143,68572,1,0,0:0:0:0:
284,143,68644,1,0,0:0:0:0:
284,143,68717,6,0,P|331:119|392:132,1,103.499996841431,14|8,0:0|0:0,0:0:0:0:
449,144,69154,1,0,0:0:0:0:
442,216,69300,2,8,B|396:225|396:225|346:197,1,103.499996841431,12|8,0:0|0:0,0:0:0:0:
202,214,69882,5,12,0:0:0:0:
237,356,70174,2,8,L|309:340,1,51.7499984207154
303,273,70465,2,0,L|353:262,1,51.7499984207154,4|8,0:0|0:0,0:0:0:0:
424,248,70756,1,8,0:0:0:0:
413,184,70902,1,0,0:0:0:0:
413,184,70975,1,0,0:0:0:0:
413,184,71047,6,0,B|392:117,1,51.7499984207154,6|0,0:0|0:0,0:0:0:0:
328,109,71339,2,0,B|307:42,1,51.7499984207154,4|0,0:0|0:0,0:0:0:0:
243,35,71630,2,4,B|193:35|193:35|147:70,1,103.499996841431
82,195,72212,2,0,L|82:261,1,51.7499984207154,4|0,0:0|0:0,0:0:0:0:
150,272,72504,2,0,L|150:339,1,51.7499984207154,4|0,0:0|0:0,0:0:0:0:
218,348,72795,2,4,B|266:321|266:321|266:272,1,103.499996841431
266,127,73378,6,4,B|242:71,3,51.7499984207154,6|4|4|4,0:0|0:0|0:0|0:0,0:0:0:0:
295,132,73960,2,4,L|315:179,3,51.7499984207154
320,107,74543,6,0,P|365:14|471:47,1,215.625,4|0,0:0|0:0,0:0:0:0:
400,89,75125,6,0,B|431:147|431:147|400:225|400:225|431:300,1,215.625,2|0,0:0|0:0,0:0:0:0:
336,335,75708,6,0,B|289:335|289:335|233:300|223:332|171:295|171:295|111:295,1,215.625,6|4,0:0|0:0,0:0:0:0:
32,265,76290,2,0,P|78:208|156:197,1,143.75,8|6,0:0|0:0,0:0:0:0:
345,215,76873,6,0,B|368:145|368:145|344:75,1,143.75,2|0,0:0|0:0,0:0:0:0:
244,83,77310,1,2,0:0:0:0:
263,181,77455,2,0,P|261:244|324:301,1,143.75,10|2,0:0|0:0,0:0:0:0:
422,291,77892,1,0,0:0:0:0:
422,291,77965,1,0,0:0:0:0:
422,290,78038,6,0,B|428:214|469:233|470:150,1,143.75,2|6,0:0|0:0,0:0:0:0:
322,19,78620,2,0,L|257:50,1,71.875,8|0,0:0|0:0,0:0:0:0:
165,6,78911,2,0,L|100:37,1,71.875
130,133,79203,6,0,L|162:201,1,71.875,2|0,0:0|0:0,0:0:0:0:
350,267,79640,2,0,L|318:202,1,71.875,2|8,0:0|0:0,0:0:0:0:
134,273,80077,2,0,L|162:338,1,71.875,2|0,0:0|0:0,0:0:0:0:
162,339,80295,1,0,0:0:0:0:
163,339,80368,6,0,L|233:356,1,71.875,6|0,0:0|0:0,0:0:0:0:
331,334,80659,2,0,L|387:290,1,71.875,2|4,0:0|0:0,0:0:0:0:
470,231,80950,1,8,0:0:0:0:
342,75,81242,6,0,B|312:94|312:94|305:132,1,71.875,4|0,0:0|0:0,0:0:0:0:
406,131,81533,2,0,P|425:60|380:-2,1,143.75,2|0,0:0|0:0,0:0:0:0:
287,18,81970,1,2,0:0:0:0:
216,89,82115,2,0,B|161:144|146:102|91:154,1,143.75,8|2,0:0|0:0,0:0:0:0:
169,233,82552,1,0,0:0:0:0:
169,233,82625,1,0,0:0:0:0:
169,233,82698,6,0,L|249:217,1,71.875,2|0,0:0|0:0,0:0:0:0:
314,286,82989,2,0,L|243:299,1,71.875,6|0,0:0|0:0,0:0:0:0:
322,202,83280,2,0,L|307:126,1,71.875,8|4,0:0|0:0,0:0:0:0:
401,191,83572,2,0,L|413:261,1,71.875
387,114,83863,6,0,P|338:57|264:62,1,143.75,4|0,0:0|0:0,0:0:0:0:
188,111,84300,1,0,0:0:0:0:
134,195,84445,2,0,P|140:269|202:309,1,143.75,10|0,0:0|0:0,0:0:0:0:
295,327,84882,1,0,0:0:0:0:
295,327,84955,1,0,0:0:0:0:
295,327,85028,6,0,B|295:280|295:280|336:222|296:220|335:162|335:162|335:102,1,215.625,6|4,0:0|0:0,0:0:0:0:
434,135,85610,2,0,B|420:63|420:63|350:20,1,143.75,8|6,0:0|0:0,0:0:0:0:
205,155,86193,6,0,B|135:178|135:178|65:154,1,143.75,2|0,0:0|0:0,0:0:0:0:
32,61,86630,1,2,0:0:0:0:
119,12,86775,2,0,P|182:12|247:63,1,143.75,10|2,0:0|0:0,0:0:0:0:
205,155,87212,1,0,0:0:0:0:
205,155,87285,1,0,0:0:0:0:
205,155,87358,6,0,P|257:201|333:203,1,143.75,2|2,0:0|0:0,0:0:0:0:
455,47,87941,2,0,B|385:62,1,71.875,8|0,0:0|0:0,0:0:0:0:
284,49,88232,2,0,L|205:66,1,71.875,2|0,0:0|0:0,0:0:0:0:
179,159,88523,6,0,L|249:144,1,71.875,2|0,0:0|0:0,0:0:0:0:
331,328,88960,2,0,L|260:341,1,71.875,2|8,0:0|0:0,0:0:0:0:
333,157,89397,2,0,L|416:139,1,71.875,2|0,0:0|0:0,0:0:0:0:
403,141,89615,1,0,0:0:0:0:
403,141,89688,6,0,L|468:169,1,71.875,6|0,0:0|0:0,0:0:0:0:
470,270,89979,2,0,L|404:298,1,71.875,2|4,0:0|0:0,0:0:0:0:
307,270,90270,1,8,0:0:0:0:
119,194,90562,6,0,L|196:222,1,71.875,4|0,0:0|0:0,0:0:0:0:
58,237,90853,2,0,P|49:163|104:120,1,143.75,2|0,0:0|0:0,0:0:0:0:
197,130,91290,1,2,0:0:0:0:
289,169,91436,2,0,B|343:120,2,71.875,8|0|2,0:0|0:0|0:0,0:0:0:0:
231,253,91873,1,0,0:0:0:0:
231,253,91945,1,0,0:0:0:0:
231,253,92018,6,4,L|176:303,2,66.1250012612343,6|4|6,0:0|0:0|0:0,0:0:0:0:
323,249,92455,2,4,L|297:314,2,66.1250012612343
412,225,92892,2,4,L|404:310,2,66.1250012612343
491,176,93329,2,4,L|516:251,2,66.1250012612343,4|4|0,0:0|0:0|0:0,0:0:0:0:
466,99,93766,1,0,0:0:0:0:
466,99,94348,6,4,P|395:39|309:56,1,172.5
248,84,94931,6,0,L|207:141,1,57.5,8|0,0:0|0:0,0:0:0:0:
267,187,95222,2,0,P|165:190|158:79,1,215.625008225441,4|0,0:0|0:0,0:0:0:0:
219,61,96096,6,0,L|276:102,1,57.5,8|0,0:0|0:0,0:0:0:0:
336,128,96387,2,0,B|376:143|376:143|399:186|442:186|442:186|480:225,1,172.500006580353,0|4,0:0|0:0,0:0:0:0:
476,299,97115,6,0,L|419:307,1,57.5,0|8,0:0|0:0,0:0:0:0:
266,330,97552,2,0,B|208:338|208:338|179:300|163:327|133:289|133:289|68:296,1,215.625008225441
66,216,98426,6,0,L|-8:224,2,57.5,8|0|0,0:0|0:0|0:0,0:0:0:0:
226,201,99009,6,4,P|287:251|377:234,1,172.5
384,156,99591,2,0,L|324:118,1,57.5,8|0,0:0|0:0,0:0:0:0:
257,123,99882,2,0,B|191:103|191:103|161:144|112:143|112:143|84:204,1,215.625008225441,4|0,0:0|0:0,0:0:0:0:
87,274,100756,6,0,L|142:307,1,57.5,8|0,0:0|0:0,0:0:0:0:
129,381,101047,2,0,P|198:348|198:256,1,172.500006580353,0|4,0:0|0:0,0:0:0:0:
177,182,101776,6,0,L|156:115,2,57.5,0|8|4,0:0|0:0|0:0,0:0:0:0:
257,188,102213,2,0,L|239:133,1,57.5
312,100,102504,6,0,L|360:92,2,28.75,4|0|0,0:0|0:0|0:0,0:0:0:0:
386,131,102795,2,0,L|434:123,2,28.75
476,176,103086,6,0,P|491:111|437:51,1,143.75,10|0,0:0|0:0,0:0:0:0:
284,55,103669,6,4,B|191:54|206:107|107:103,1,172.5,6|4,0:0|0:0,0:0:0:0:
79,172,104251,2,0,L|73:242,1,57.5,8|0,0:0|0:0,0:0:0:0:
1,210,104543,2,0,P|61:306|154:233,1,258.75000987053,4|8,0:0|0:0,0:0:0:0:
190,163,105562,5,0,0:0:0:0:
265,145,105708,2,0,B|295:118|295:118|342:118|378:93|378:93|431:102,1,172.500006580353,0|4,0:0|0:0,0:0:0:0:
409,260,106581,6,0,L|364:321,1,57.5,8|0,0:0|0:0,0:0:0:0:
439,349,106873,2,0,P|364:383|300:330,1,172.500006580353
140,331,107746,1,2,0:0:0:0:
140,331,108329,6,4,B|140:297|140:297|105:261|145:246|101:208|101:208|100:170,1,172.5
153,110,108911,2,0,L|208:96,1,57.5,8|0,0:0|0:0,0:0:0:0:
269,47,109203,2,0,B|316:64|366:42|366:42|365:93|365:93|420:68|486:103,1,258.75000987053,4|8,0:0|0:0,0:0:0:0:
383,231,110368,1,0,0:0:0:0:
227,191,110659,6,4,L|202:121,2,57.5
171,249,111096,2,4,L|190:304,2,57.5
90,245,111533,2,4,L|68:184,2,57.5
106,288,111970,1,4,0:0:0:0:
123,325,112115,2,4,B|144:373|144:373|221:373,1,103.499996841431,6|0,0:0|0:0,0:0:0:0:
441,53,112989,6,0,B|332:35|332:35|220:55,1,215.625,6|4,0:0|0:0,0:0:0:0:
153,121,113572,2,0,L|174:190,1,71.875,8|0,0:0|0:0,0:0:0:0:
267,227,113863,2,0,B|246:158,1,71.875,4|0,0:0|0:0,0:0:0:0:
338,197,114154,6,0,B|382:211|382:211|396:256|396:256|371:309,1,143.75
338,197,114737,2,0,B|316:242|316:242|330:287|330:287|374:301,1,143.75,8|0,0:0|0:0,0:0:0:0:
454,116,115319,6,0,L|474:48,1,71.875
372,48,115611,2,0,L|351:117,1,71.875,4|0,0:0|0:0,0:0:0:0:
250,117,115902,2,0,B|270:48|270:48|190:48,1,143.75,8|0,0:0|0:0,0:0:0:0:
58,192,116484,6,0,P|125:211|196:192,1,143.75
58,192,117067,2,0,P|125:173|196:192,1,143.75,8|0,0:0|0:0,0:0:0:0:
295,192,117504,1,0,0:0:0:0:
353,273,117649,6,0,L|442:255,1,71.875,4|0,0:0|0:0,0:0:0:0:
365,177,117941,2,0,L|294:192,1,71.875,0|4,0:0|0:0,0:0:0:0:
267,288,118232,2,0,P|194:281|120:253,1,143.75,8|4,0:0|0:0,0:0:0:0:
50,193,118669,1,0,0:0:0:0:
72,95,118814,6,0,B|140:83|140:83|213:95,1,143.75
311,119,119251,1,0,0:0:0:0:
384,187,119397,2,0,B|310:199|310:199|242:187,1,143.75,8|0,0:0|0:0,0:0:0:0:
143,167,119834,1,0,0:0:0:0:
213,95,119979,6,0,L|265:46,1,71.875
362,69,120271,2,0,L|310:118,1,71.875,4|0,0:0|0:0,0:0:0:0:
242,187,120562,2,0,L|296:243,1,71.875,8|4,0:0|0:0,0:0:0:0:
280,338,120853,2,0,L|230:287,1,71.875
135,323,121144,6,0,L|84:272,1,71.875,4|0,0:0|0:0,0:0:0:0:
56,174,121436,2,0,B|110:122|64:102|129:45,1,143.75,0|10,0:0|0:0,0:0:0:0:
288,165,122018,2,0,L|364:157,1,71.875
408,68,122310,6,0,P|456:128|448:204,1,143.75,6|2,0:0|0:0,0:0:0:0:
404,279,122746,1,4,0:0:0:0:
404,279,122892,2,0,L|473:308,2,71.875,8|0|4,0:0|0:0|0:0,0:0:0:0:
310,241,123329,1,0,0:0:0:0:
215,275,123475,2,0,P|150:297|79:273,1,143.75,2|2,0:0|0:0,0:0:0:0:
13,85,124057,2,0,P|79:62|147:84,1,143.75,10|0,0:0|0:0,0:0:0:0:
240,121,124494,1,0,0:0:0:0:
329,167,124640,6,0,B|397:167|397:167|459:213,1,143.75,2|6,0:0|0:0,0:0:0:0:
238,288,125222,2,0,L|302:337,2,71.875,8|0|0,0:0|0:0|0:0,0:0:0:0:
142,321,125659,2,0,L|84:277,1,71.875
85,35,126096,2,0,B|172:67|172:11|276:35,1,172.500006580353,2|10,0:0|0:0,0:0:0:0:
254,30,126678,2,0,L|331:52,1,71.875
414,94,126970,6,0,B|340:119|370:162|283:181,1,143.75,4|0,0:0|0:0,0:0:0:0:
199,183,127407,1,4,0:0:0:0:
98,186,127552,2,0,L|68:254,1,71.875,8|0,0:0|0:0,0:0:0:0:
122,338,127844,2,0,L|151:272,1,71.875,4|0,0:0|0:0,0:0:0:0:
199,183,128135,2,0,P|198:110|247:47,1,143.75
337,47,128572,2,0,L|425:32,2,71.875,0|8|0,0:0|0:0|0:0,0:0:0:0:
305,142,129009,2,0,L|376:129,1,71.875
402,205,129300,6,4,B|470:169,2,57.5
389,284,129737,2,4,L|460:306,2,57.5,4|12|4,0:0|0:0|0:0,0:0:0:0:
323,330,130174,2,0,L|362:379,2,57.5,4|4|0,0:0|0:0|0:0,0:0:0:0:
172,273,131047,6,4,L|140:310,2,38.3333333333333
202,238,131630,5,14,0:0:0:0:
202,238,132212,1,4,0:0:0:0:
293,286,132504,2,0,L|346:297,1,43.1250016450883,2|0,0:0|0:0,0:0:0:0:
361,339,132795,2,0,B|398:346|398:346|445:337,1,86.2500032901765,4|0,0:0|0:0,0:0:0:0:
445,233,133377,1,6,0:0:0:0:
249,165,133960,5,2,0:0:0:0:
249,165,134542,1,4,0:0:0:0:
146,165,134834,1,2,0:0:0:0:
198,76,135125,2,0,L|272:17,1,86.2500032901765,4|0,0:0|0:0,0:0:0:0:
365,48,135707,2,0,L|297:101,1,86.2500032901765,6|0,0:0|0:0,0:0:0:0:
214,163,136290,5,14,0:0:0:0:
214,163,136873,1,4,0:0:0:0:
111,179,137164,2,0,L|111:228,1,43.1250016450883,2|0,0:0|0:0,0:0:0:0:
139,265,137456,2,0,B|129:301|129:301|140:348,1,86.2500032901765,4|0,0:0|0:0,0:0:0:0:
244,348,138038,1,6,0:0:0:0:
331,293,138329,1,0,0:0:0:0:
359,193,138620,6,0,B|386:129|336:127|369:63,2,129.375004935265,2|2|2,0:0|0:0|0:0,0:0:0:0:
359,193,140076,6,0,P|394:210|421:250,2,86.2500032901765,0|2|0,0:0|0:0|0:0,0:0:0:0:
234,194,140950,6,8,B|177:194|177:194|138:167,1,103.499996841431,14|8,0:0|0:0,0:0:0:0:
101,105,141387,1,0,0:0:0:0:
139,43,141533,2,8,B|177:16|177:16|234:16,1,103.499996841431,8|4,0:0|0:0,0:0:0:0:
367,71,142115,1,12,0:0:0:0:
409,209,142407,6,0,L|364:242,1,51.7499984207154,0|8,0:0|0:0,0:0:0:0:
294,233,142698,2,0,L|247:269,1,51.7499984207154,12|8,0:0|0:0,0:0:0:0:
180,257,142989,1,8,0:0:0:0:
115,275,143135,1,0,0:0:0:0:
115,275,143207,1,0,0:0:0:0:
115,275,143280,6,0,P|75:233|79:185,1,103.499996841431,14|8,0:0|0:0,0:0:0:0:
114,128,143717,1,0,0:0:0:0:
177,92,143863,2,8,B|226:75|226:75|280:92,1,103.499996841431,12|8,0:0|0:0,0:0:0:0:
410,143,144445,5,12,0:0:0:0:
440,285,144737,2,8,L|420:351,1,51.7499984207154
353,320,145028,2,0,L|368:270,1,51.7499984207154,4|8,0:0|0:0,0:0:0:0:
392,201,145319,1,8,0:0:0:0:
454,160,145465,1,0,0:0:0:0:
454,160,145538,1,0,0:0:0:0:
454,160,145610,6,0,B|433:93,1,51.7499984207154,6|0,0:0|0:0,0:0:0:0:
365,107,145902,2,0,B|320:50,1,51.7499984207154,4|0,0:0|0:0,0:0:0:0:
262,47,146193,2,4,B|212:47|212:47|166:82,1,103.499996841431
63,178,146775,2,0,L|101:231,1,51.7499984207154,4|0,0:0|0:0,0:0:0:0:
120,290,147067,2,0,L|188:299,1,51.7499984207154,4|0,0:0|0:0,0:0:0:0:
220,349,147358,2,4,B|268:322|268:322|268:273,1,103.499996841431
403,220,147941,6,4,B|347:244,3,51.7499984207154,6|4|4|4,0:0|0:0|0:0|0:0,0:0:0:0:
408,191,148523,2,4,L|455:171,3,51.7499984207154
383,166,149106,6,0,P|295:116|317:17,1,215.625,4|0,0:0|0:0,0:0:0:0:
372,81,149688,6,0,B|175:172,1,215.625,2|0,0:0|0:0,0:0:0:0:
196,270,150271,6,0,B|238:270|238:270|290:233|300:265|356:230|356:230|403:230,1,215.625,6|4,0:0|0:0,0:0:0:0:
501,249,150853,2,0,P|465:310|398:332,1,143.75,8|6,0:0|0:0,0:0:0:0:
197,345,151436,6,0,B|124:345|124:345|80:289,1,143.75,2|0,0:0|0:0,0:0:0:0:
81,188,151873,1,2,0:0:0:0:
181,188,152018,2,0,B|253:182|234:143|315:122,1,143.75,10|2,0:0|0:0,0:0:0:0:
405,89,152455,1,0,0:0:0:0:
405,89,152528,1,0,0:0:0:0:
405,89,152601,6,0,B|441:148|388:155|440:233,1,143.75,2|6,0:0|0:0,0:0:0:0:
248,298,153183,2,0,L|170:258,1,71.875,8|0,0:0|0:0,0:0:0:0:
154,168,153474,2,0,L|217:200,1,71.875
307,248,153766,6,0,L|375:283,1,71.875,2|0,0:0|0:0,0:0:0:0:
376,79,154203,2,0,L|312:45,1,71.875,2|8,0:0|0:0,0:0:0:0:
160,175,154640,2,0,L|96:141,1,71.875,2|0,0:0|0:0,0:0:0:0:
96,141,154858,1,0,0:0:0:0:
96,141,154931,6,0,L|32:107,1,71.875,6|0,0:0|0:0,0:0:0:0:
32,208,155222,2,0,L|32:289,1,71.875,2|4,0:0|0:0,0:0:0:0:
32,380,155513,1,8,0:0:0:0:
193,259,155805,6,0,B|216:232|216:232|211:193,1,71.875,4|0,0:0|0:0,0:0:0:0:
115,224,156096,2,0,P|117:297|180:344,1,143.75,2|0,0:0|0:0,0:0:0:0:
268,336,156533,1,2,0:0:0:0:
364,308,156678,2,0,B|423:254|364:233|426:177,1,143.75,8|2,0:0|0:0,0:0:0:0:
356,117,157115,1,0,0:0:0:0:
356,117,157188,1,0,0:0:0:0:
356,117,157261,6,0,L|268:88,1,71.875,2|0,0:0|0:0,0:0:0:0:
203,150,157552,2,0,L|271:172,1,71.875,6|0,0:0|0:0,0:0:0:0:
210,68,157843,2,0,L|142:46,1,71.875,8|4,0:0|0:0,0:0:0:0:
57,103,158135,2,0,L|125:125,1,71.875
162,219,158426,6,0,P|214:266|289:257,1,143.75,4|0,0:0|0:0,0:0:0:0:
372,212,158863,1,0,0:0:0:0:
466,178,159008,2,0,P|505:242|479:308,1,143.75,10|0,0:0|0:0,0:0:0:0:
391,298,159445,1,0,0:0:0:0:
391,298,159518,1,0,0:0:0:0:
391,298,159591,6,0,B|344:298|344:298|286:339|284:299|226:338|226:338|166:338,1,215.625,6|4,0:0|0:0,0:0:0:0:
85,356,160173,2,0,B|44:304|44:304|44:223,1,143.75,8|6,0:0|0:0,0:0:0:0:
206,107,160756,6,0,B|258:66|258:66|339:66,1,143.75,2|0,0:0|0:0,0:0:0:0:
415,126,161193,1,2,0:0:0:0:
349,202,161338,2,0,P|349:264|281:318,1,143.75,10|2,0:0|0:0,0:0:0:0:
260,229,161775,1,0,0:0:0:0:
260,229,161848,1,0,0:0:0:0:
260,229,161921,6,0,B|206:172|181:207|132:153,1,143.75,2|2,0:0|0:0,0:0:0:0:
61,58,162504,2,0,B|137:50,1,71.875,8|0,0:0|0:0,0:0:0:0:
217,104,162795,2,0,L|288:96,1,71.875,2|0,0:0|0:0,0:0:0:0:
388,87,163086,6,0,L|396:159,1,71.875,2|0,0:0|0:0,0:0:0:0:
228,271,163523,2,0,L|219:200,1,71.875,2|8,0:0|0:0,0:0:0:0:
425,241,163960,2,0,L|435:323,1,71.875,2|0,0:0|0:0,0:0:0:0:
433,312,164178,1,0,0:0:0:0:
433,312,164251,6,0,L|366:339,1,71.875,6|0,0:0|0:0,0:0:0:0:
265,339,164542,2,0,L|199:311,1,71.875,2|4,0:0|0:0,0:0:0:0:
107,268,164833,1,8,0:0:0:0:
275,157,165125,6,0,L|315:86,1,71.875,4|0,0:0|0:0,0:0:0:0:
307,224,165416,2,0,P|232:220|199:158,1,143.75,2|0,0:0|0:0,0:0:0:0:
199,64,165853,1,2,0:0:0:0:
100,83,165999,2,0,B|46:34,2,71.875,8|0|2,0:0|0:0|0:0,0:0:0:0:
110,191,166436,1,0,0:0:0:0:
110,191,166509,1,0,0:0:0:0:
110,191,166581,6,4,L|35:182,2,66.1250012612343,6|4|6,0:0|0:0|0:0,0:0:0:0:
162,267,167018,2,4,L|90:288,2,66.1250012612343
248,300,167455,2,4,L|205:373,2,66.1250012612343
340,295,167892,2,4,L|356:374,2,66.1250012612343,4|4|0,0:0|0:0|0:0,0:0:0:0:
365,263,168329,6,0,B|370:205|339:212|344:143,1,115,14|0,0:0|0:0,0:0:0:0:
343,151,169494,5,8,0:0:0:0:
300,76,169785,1,0,0:0:0:0:
257,151,170077,1,0,0:0:0:0:
214,225,170368,2,0,L|188:269,1,28.75
162,271,170659,1,8,0:0:0:0:
118,269,170805,1,0,0:0:0:0:
81,246,170950,1,0,0:0:0:0:
317,274,180562,6,8,L|404:275,1,86.2500032901765,6|8,0:0|0:0,0:0:0:0:
318,190,181144,2,8,L|231:190,1,86.2500032901765,12|8,0:0|0:0,0:0:0:0:
146,276,181727,2,8,L|233:276,1,86.2500032901765,12|8,0:0|0:0,0:0:0:0:
240,309,182164,2,8,B|276:316|276:316|327:309,1,86.2500032901765
358,301,182601,1,8,0:0:0:0:
366,156,182892,6,8,L|366:50,1,103.499996841431,14|8,0:0|0:0,0:0:0:0:
265,156,183474,2,8,L|265:261,1,103.499996841431,12|8,0:0|0:0,0:0:0:0:
163,156,184057,2,8,L|163:49,1,103.499996841431,12|8,0:0|0:0,0:0:0:0:
131,25,184494,2,8,B|86:20|86:20|53:74,1,103.499996841431
55,111,184931,1,8,0:0:0:0:
207,161,185222,6,0,B|255:109,1,57.5,12|0,0:0|0:0,0:0:0:0:
289,186,185513,2,0,B|251:228,1,57.5,4|0,0:0|0:0,0:0:0:0:
148,226,185805,2,6,P|169:290|241:331,1,143.75
391,337,186387,6,0,L|375:269,1,57.5,4|0,0:0|0:0,0:0:0:0:
456,263,186678,2,0,L|443:208,1,57.5,4|0,0:0|0:0,0:0:0:0:
469,108,186970,2,6,P|398:115|343:173,1,143.75
187,148,187552,6,4,L|249:134,3,57.5,6|4|4|4,0:0|0:0|0:0|0:0,0:0:0:0:
180,187,188135,2,4,L|123:199,3,57.5,6|4|4|4,0:0|0:0|0:0|0:0,0:0:0:0:
202,218,188717,1,6,0:0:0:0:
202,218,189300,2,0,B|282:253|285:201|387:237,1,172.5,2|0,0:0|0:0,0:0:0:0:
460,258,189882,5,14,0:0:0:0:
194,338,190319,1,8,0:0:0:0:
120,281,190465,2,0,B|66:239|66:239|66:172,1,132.250002522469,4|10,0:0|0:0,0:0:0:0:
238,108,191047,6,0,P|279:28|381:22,1,198.375003783703,6|10,0:0|0:0,0:0:0:0:
336,109,191630,1,6,0:0:0:0:
299,290,191921,2,0,L|226:319,1,66.1250012612343,10|0,0:0|0:0,0:0:0:0:
167,253,192212,6,0,L|103:279,1,66.1250012612343,6|0,0:0|0:0,0:0:0:0:
109,184,192504,2,0,L|82:117,1,66.1250012612343,2|8,0:0|0:0,0:0:0:0:
176,112,192795,2,0,L|149:45,1,66.1250012612343,4|0,0:0|0:0,0:0:0:0:
241,29,193086,1,10,0:0:0:0:
394,132,193378,6,0,P|429:189|423:261,1,132.250002522469,6|0,0:0|0:0,0:0:0:0:
340,283,193814,1,10,0:0:0:0:
252,252,193960,2,0,P|251:186|286:132,1,132.250002522469,4|10,0:0|0:0,0:0:0:0:
274,48,194397,1,0,0:0:0:0:
274,48,194470,1,0,0:0:0:0:
274,48,194543,6,0,B|205:25|203:61|133:42,1,132.250002522469,6|2,0:0|0:0,0:0:0:0:
54,69,194979,1,8,0:0:0:0:
75,159,195125,2,0,B|97:188|97:188|128:186|153:204|153:204|201:190,1,132.250002522469,4|8,0:0|0:0,0:0:0:0:
339,86,195708,6,0,B|363:43|363:43|405:35|405:35|449:67|461:33|507:80,1,198.375003783703,6|10,0:0|0:0,0:0:0:0:
505,167,196290,2,0,L|490:242,1,66.1250012612343,4|0,0:0|0:0,0:0:0:0:
420,172,196581,2,0,L|407:238,1,66.1250012612343,10|0,0:0|0:0,0:0:0:0:
438,325,196873,6,0,P|366:321|317:264,1,132.250002522469,6|2,0:0|0:0,0:0:0:0:
315,189,197310,1,8,0:0:0:0:
343,101,197455,2,0,B|277:89|277:89|212:131,1,132.250002522469,4|8,0:0|0:0,0:0:0:0:
42,171,198038,6,0,L|29:240,1,66.1250012612343,4|8,0:0|0:0,0:0:0:0:
213,285,198475,1,8,0:0:0:0:
213,285,198620,2,0,P|276:302|358:314,1,132.250002522469,6|8,0:0|0:0,0:0:0:0:
439,296,199057,1,0,0:0:0:0:
439,296,199130,1,0,0:0:0:0:
439,296,199203,6,0,B|399:193|481:197|430:89,1,198.375003783703,6|8,0:0|0:0,0:0:0:0:
362,47,199785,2,0,P|295:27|219:49,1,132.250002522469,4|10,0:0|0:0,0:0:0:0:
106,173,200368,6,2,B|134:209|134:209|85:223|97:239|53:256|53:256|87:303,1,198.375003783703,6|10,0:0|0:0,0:0:0:0:
173,337,200950,2,0,P|232:312|244:239,1,132.250002522469,6|10,0:0|0:0,0:0:0:0:
216,172,201387,1,0,0:0:0:0:
216,172,201460,1,0,0:0:0:0:
216,172,201533,6,0,B|184:92,1,66.1250012612343,6|0,0:0|0:0,0:0:0:0:
284,104,201824,2,0,L|257:36,1,66.1250012612343,2|8,0:0|0:0,0:0:0:0:
351,54,202115,2,0,L|422:26,1,66.1250012612343,4|0,0:0|0:0,0:0:0:0:
472,101,202407,2,0,L|410:125,1,66.1250012612343,10|0,0:0|0:0,0:0:0:0:
322,154,202698,6,0,B|253:160|260:188|191:192,1,132.250002522469,6|0,0:0|0:0,0:0:0:0:
130,257,203135,1,10,0:0:0:0:
220,273,203280,2,0,B|288:269|276:240|352:232,1,132.250002522469,4|10,0:0|0:0,0:0:0:0:
428,187,203717,1,0,0:0:0:0:
428,187,203790,1,0,0:0:0:0:
428,187,203863,6,12,B|428:54,1,132.250002522469,14|14,0:0|0:0,0:0:0:0:
243,55,204445,6,12,B|111:55,1,132.250002522469
111,240,205028,6,12,L|111:375,1,132.250002522469,14|12,0:0|0:0,0:0:0:0:
281,298,205611,6,0,L|320:358,2,66.1250012612343,12|0|14,0:0|0:0|0:0,0:0:0:0:
234,218,206047,1,0,0:0:0:0:
256,192,206193,12,14,207941,0:0:0:0:
