osu file format v14

[General]
AudioFilename: audio.mp3
AudioLeadIn: 0
PreviewTime: 169489
Countdown: 1
SampleSet: Soft
StackLeniency: 0.7
Mode: 0
LetterboxInBreaks: 0
WidescreenStoryboard: 1

[Editor]
Bookmarks: 37838,39731,48178,228469
DistanceSpacing: 1.9
BeatDivisor: 8
GridSize: 4
TimelineZoom: 1.7

[Metadata]
Title:WHISTLE
TitleUnicode:휘파람
Artist:BLACKPINK
ArtistUnicode:BLACKPINK
Creator:[ L u k a s ]
Version:Expert
Source:
Tags:
BeatmapID:1260137
BeatmapSetID:595868

[Difficulty]
HPDrainRate:6
CircleSize:4
OverallDifficulty:8
ApproachRate:9
SliderMultiplier:2.6
SliderTickRate:1

[Events]
//Background and Video events
0,0,"imgpsh_fullsize.png",0,0
Video,34,"jeeee.mp4"
//Break Periods
//Storyboard Layer 0 (Background)
//Storyboard Layer 1 (Fail)
//Storyboard Layer 2 (Pass)
//Storyboard Layer 3 (Foreground)
//Storyboard Sound Samples

[TimingPoints]
18761,582.52427184466,4,2,0,100,1,0
21091,-133.333333333333,4,2,0,100,0,0
30411,-100,4,2,0,100,0,0
39731,-133.333333333333,4,2,0,100,0,0
47887,-100,4,2,0,100,0,0
49052,-133.333333333333,4,2,0,100,0,0
56042,-100,4,2,0,100,0,0
58372,-133.333333333333,4,2,0,100,0,0
74683,-100,4,2,0,100,0,0
77013,-133.333333333333,4,2,0,100,0,0
86333,-100,4,2,0,100,0,0
90994,-83.3333333333333,4,2,0,100,0,0
94489,-200,4,2,0,100,0,0
95654,-100,4,2,0,100,0,0
113712,-200,4,2,0,100,0,0
114294,-133.333333333333,4,2,0,100,0,0
122450,-100,4,2,0,100,0,0
123615,-133.333333333333,4,2,0,100,0,0
130605,-100,4,2,0,100,0,0
132935,-133.333333333333,4,2,0,100,0,0
149246,-100,4,2,0,100,0,0
151576,-133.333333333333,4,2,0,100,0,0
160896,-100,4,2,0,100,0,0
165557,-83.3333333333333,4,2,0,100,0,0
169052,-200,4,2,0,100,0,0
170217,-100,4,2,0,100,0,0
188275,-200,4,2,0,100,0,0
191188,-133.333333333333,4,2,0,100,0,0
200508,-100,4,2,0,100,0,0
205168,-90.9090909090909,4,2,0,100,0,0
207498,-83.3333333333333,4,2,0,100,0,0
208663,-200,4,2,0,100,0,0
209828,-66.6666666666667,4,2,0,100,0,1
227887,-200,4,2,0,100,0,0

[Colours]
Combo1 : 255,55,155
Combo2 : 0,128,255
Combo3 : 0,64,128
Combo4 : 255,128,192

[HitObjects]
68,148,21091,6,0,B|120:132|120:132|176:144,1,97.50000371933
124,224,21527,1,0,0:0:0:0:
84,52,21673,1,0,0:0:0:0:
84,52,21964,2,0,L|136:48,1,48.750001859665
212,100,22256,2,0,L|328:104,1,97.50000371933
360,28,22693,1,0,0:0:0:0:
296,204,22838,1,0,0:0:0:0:
296,204,23129,1,0,0:0:0:0:
380,164,23275,1,0,0:0:0:0:
300,160,23421,5,0,0:0:0:0:
376,212,23566,1,0,0:0:0:0:
344,136,23712,1,0,0:0:0:0:
336,227,23858,1,0,0:0:0:0:
288,80,24003,1,0,0:0:0:0:
288,80,24149,2,0,P|328:56|392:72,1,97.50000371933
453,114,24586,2,0,P|463:156|457:217,1,97.50000371933
212,333,25168,2,0,P|207:284|217:237,1,97.50000371933
387,161,25751,6,0,B|286:169|286:169,1,97.50000371933
331,85,26188,1,0,0:0:0:0:
360,248,26333,1,0,0:0:0:0:
360,248,26625,2,0,P|337:258|301:259,1,48.750001859665
228,219,26916,2,0,P|181:208|119:224,1,97.50000371933
172,300,27353,1,0,0:0:0:0:
273,141,27498,1,0,0:0:0:0:
264,48,27644,1,0,0:0:0:0:
171,57,27790,1,0,0:0:0:0:
180,150,27935,1,0,0:0:0:0:
273,141,28081,6,0,L|375:136,1,97.50000371933
504,8,28663,2,0,L|453:5,1,48.750001859665
402,82,28955,2,0,L|351:84,1,48.750001859665
278,28,29246,2,0,B|261:83|261:83|277:140,1,97.50000371933
347,344,29828,2,0,B|295:327|267:348|240:363|184:338,1,146.250005578995
113,258,30411,6,0,L|105:180,2,65
203,345,30848,1,0,0:0:0:0:
280,192,30994,2,0,L|286:127,1,65
177,69,31285,2,0,L|183:133,1,65
189,257,31576,2,0,P|226:266|263:264,1,65
343,183,31867,2,0,P|310:183|279:191,1,65
439,232,32159,2,0,P|448:195|446:158,1,65
347,95,32450,1,0,0:0:0:0:
376,107,32522,1,0,0:0:0:0:
409,109,32595,1,0,0:0:0:0:
439,99,32668,1,0,0:0:0:0:
465,80,32741,5,0,0:0:0:0:
354,23,32887,1,0,0:0:0:0:
380,183,33032,1,0,0:0:0:0:
499,150,33178,1,0,0:0:0:0:
274,120,33324,2,0,L|282:215,1,65
380,255,33615,2,0,L|385:190,1,65
396,66,33906,2,0,L|319:69,2,65
487,149,34343,1,0,0:0:0:0:
279,195,34489,2,0,L|214:192,1,65
101,139,34780,1,0,0:0:0:0:
102,171,34852,1,0,0:0:0:0:
104,203,34925,1,0,0:0:0:0:
106,236,34998,1,0,0:0:0:0:
108,268,35071,6,0,L|199:263,2,65
12,347,35508,1,0,0:0:0:0:
21,173,35654,2,0,P|7:134|20:87,1,65
125,68,35945,2,0,P|125:100|113:129,1,65
85,250,36236,2,0,L|170:240,1,65
241,325,36527,2,0,L|156:315,1,65
238,179,36819,2,0,L|230:243,1,65
175,132,37110,1,0,0:0:0:0:
200,111,37182,1,0,0:0:0:0:
231,102,37255,1,0,0:0:0:0:
263,107,37328,1,0,0:0:0:0:
290,124,37401,5,0,0:0:0:0:
414,121,37547,1,0,0:0:0:0:
350,15,37692,1,0,0:0:0:0:
351,207,37838,1,0,0:0:0:0:
511,144,37984,2,0,L|505:79,1,65
451,191,38275,2,0,L|446:256,1,65
351,336,38566,2,0,L|274:339,2,65
474,332,39003,1,0,0:0:0:0:
414,121,39149,2,0,L|349:118,1,65
214,23,39440,2,0,P|232:64|220:112,1,65
198,170,39731,6,0,P|168:236|184:308,1,146.250005578995
304,256,40314,2,0,P|264:248|240:252,1,48.750001859665
276,340,40605,2,0,P|328:344|388:224,1,195.00000743866
380,144,41333,1,0,0:0:0:0:
228,232,41479,1,0,0:0:0:0:
316,264,41625,1,0,0:0:0:0:
300,172,41770,6,0,P|232:136|136:192,1,195.00000743866
220,228,42498,1,0,0:0:0:0:
380,136,42644,2,0,P|388:104|380:72,1,48.750001859665
312,32,42935,2,0,L|116:36,1,195.00000743866
236,296,43809,1,0,0:0:0:0:
268,112,44100,1,0,0:0:0:0:
88,164,44392,6,0,P|72:216|84:260,1,97.50000371933
144,324,44828,1,0,0:0:0:0:
184,148,44974,1,0,0:0:0:0:
92,160,45120,1,0,0:0:0:0:
152,232,45265,2,0,B|228:212|228:212|352:236,1,195.00000743866
400,308,45994,1,0,0:0:0:0:
384,152,46139,2,0,P|376:120|376:96,1,48.750001859665
420,24,46430,6,0,B|360:51|316:29|283:13|207:40,1,195.00000743866
176,112,47159,1,0,0:0:0:0:
376,216,47304,2,0,L|372:148,1,48.750001859665
288,208,47595,2,0,L|285:256,1,48.750001859665
172,304,47887,6,0,L|128:308,2,32.5
240,200,48178,2,0,L|284:204,2,32.5
124,240,48469,2,0,L|83:221,2,32.5
244,276,48760,2,0,L|280:301,2,32.5
160,168,49052,6,0,P|132:104|160:24,1,146.250005578995
308,16,49634,2,0,L|372:8,1,48.750001859665
368,104,49926,2,0,B|216:96,1,146.250005578995
128,108,50508,1,0,0:0:0:0:
184,180,50654,1,0,0:0:0:0:
168,24,50799,1,0,0:0:0:0:
96,196,51091,6,0,P|120:244|216:260,1,146.250005578995
264,192,51673,1,0,0:0:0:0:
172,180,51819,1,0,0:0:0:0:
356,200,51964,2,0,L|352:136,1,48.750001859665
328,60,52256,2,0,B|272:48|272:48|196:64|196:64|128:52,1,195.00000743866
48,32,52984,1,0,0:0:0:0:
180,176,53129,2,0,P|172:224|168:236,1,48.750001859665
140,312,53421,2,0,P|102:281|94:271,1,48.750001859665
40,216,53712,6,0,L|96:204,1,48.750001859665
