osu file format v14

[General]
AudioFilename: audio.mp3
AudioLeadIn: 0
PreviewTime: 59670
Countdown: 0
SampleSet: None
StackLeniency: 0.4
Mode: 0
LetterboxInBreaks: 0
WidescreenStoryboard: 0

[Editor]
Bookmarks: 40495,40804,41113,41423,43587,48536,49773,54721,59051,64618,67093,67402,67557,79464,128948,148742,171010,190804
DistanceSpacing: 0.9
BeatDivisor: 6
GridSize: 4
TimelineZoom: 1.6

[Metadata]
Title:PLAYING WITH FIRE
TitleUnicode:불장난
Artist:BLACKPINK
ArtistUnicode:BLΛƆKPIИK
Creator:Yuuya_ke
Version:EXPERT
Source:
Tags:K-POP KPOP MAPPING CONTEST V KMCV #1 BP YG ENTERTAINMENT 블핑 블랙핑크 SQUARE TWO 지수 JISOO 제니 JENNIE 로제 ROSÉ 리사 LISA DEBUT ALBUM
BeatmapID:1820590
BeatmapSetID:871337

[Difficulty]
HPDrainRate:5
CircleSize:3
OverallDifficulty:9
ApproachRate:9
SliderMultiplier:2.4
SliderTickRate:1

[Events]
//Background and Video events
0,0,"background_2.jpg",0,0
//Break Periods
//Storyboard Layer 0 (Background)
//Storyboard Layer 1 (Fail)
//Storyboard Layer 2 (Pass)
//Storyboard Layer 3 (Foreground)
//Storyboard Sound Samples

[TimingPoints]
289,618.556701030928,4,2,0,60,1,0
9258,-100,4,2,99,60,0,0
9876,-166.666666666667,4,2,0,60,0,0
10082,-166.666666666667,4,2,0,5,0,0
10185,-33.3333333333333,4,2,0,60,0,0
10495,-41.6666666666667,4,2,0,60,0,0
10804,-37.037037037037,4,2,0,60,0,0
10907,-41.6666666666667,4,2,0,60,0,0
13278,-37.037037037037,4,2,0,60,0,0
13381,-41.6666666666667,4,2,0,60,0,0
15134,-41.6666666666667,4,2,0,60,0,0
15752,-37.037037037037,4,2,0,60,0,0
15856,-41.6666666666667,4,2,0,60,0,0
18227,-37.037037037037,4,2,0,60,0,0
18330,-41.6666666666667,4,2,0,60,0,0
19464,-37.037037037037,4,2,0,60,0,0
19670,-41.6666666666667,4,2,0,60,0,0
20082,-50,4,2,0,60,0,0
20185,-58.8235294117647,4,2,0,60,0,0
21319,-52.6315789473684,4,2,0,60,0,0
21423,-58.8235294117647,4,2,0,60,0,0
22557,-66.6666666666667,4,2,0,60,0,0
22660,-58.8235294117647,4,2,0,60,0,0
23484,-58.8235294117647,4,2,0,60,0,0
23794,-52.6315789473684,4,2,0,60,0,0
24103,-58.8235294117647,4,2,0,60,0,0
24721,-76.9230769230769,4,2,0,60,0,0
25031,-66.6666666666667,4,2,0,60,0,0
25134,-58.8235294117647,4,2,0,60,0,0
26268,-52.6315789473684,4,2,0,60,0,0
26371,-58.8235294117647,4,2,0,60,0,0
26577,-76.9230769230769,4,2,0,60,0,0
26886,-58.8235294117647,4,2,0,60,0,0
27505,-66.6666666666667,4,2,0,60,0,0
27608,-58.8235294117647,4,2,0,60,0,0
29670,-76.9230769230769,4,2,0,60,0,0
29979,-66.6666666666667,4,2,0,60,0,0
29979,-66.6666666666667,4,2,0,60,0,0
30289,-58.8235294117647,4,2,0,60,0,0
32453,-66.6666666666667,4,2,0,60,0,0
32557,-58.8235294117647,4,2,0,60,0,0
34618,-76.9230769230769,4,2,0,60,0,0
34928,-66.6666666666667,4,2,0,60,0,0
35082,-58.8235294117647,4,2,0,60,0,0
36165,-52.6315789473684,4,2,0,60,0,0
36268,-58.8235294117647,4,2,0,60,0,0
37402,-66.6666666666667,4,2,0,60,0,0
37557,-58.8235294117647,4,2,0,60,0,0
39567,-76.9230769230769,4,2,0,60,0,0
39876,-50,4,2,0,60,0,0
39979,-58.8235294117647,4,2,0,60,0,0
43897,-50,4,2,0,60,0,0
44206,-58.8235294117647,4,2,0,60,0,0
44515,-76.9230769230769,4,2,0,60,0,0
44825,-66.6666666666667,4,2,0,60,0,0
44928,-58.8235294117647,4,2,0,60,0,0
49464,-76.9230769230769,4,2,0,60,0,0
49773,-58.8235294117647,4,2,0,60,0,0
50701,-50,4,2,0,60,0,0
51010,-58.8235294117647,4,2,0,60,0,0
54412,-76.9230769230769,4,2,0,60,0,0
54721,-66.6666666666667,4,2,0,60,0,0
55340,-58.8235294117647,4,2,0,60,0,0
55959,-55.5555555555556,4,2,0,60,0,0
56577,-50,4,2,0,60,0,0
57196,-117.647058823529,4,2,0,60,0,0
59670,-33.3333333333333,4,2,0,60,0,1
59773,-41.6666666666667,4,2,0,60,0,1
60289,-37.037037037037,4,2,0,60,0,1
60392,-41.6666666666667,4,2,0,60,0,1
61526,-37.037037037037,4,2,0,60,0,1
61835,-41.6666666666667,4,2,0,60,0,1
62763,-37.037037037037,4,2,0,60,0,1
62866,-41.6666666666667,4,2,0,60,0,1

[Colours]
Combo1 : 227,23,120
Combo2 : 85,0,170
Combo3 : 176,0,88
Combo4 : 185,7,222

[HitObjects]
75,23,9258,6,0,P|97:5|127:7,1,60,4|0,0:3|0:3,0:3:0:0:
128,8,9876,6,0,P|149:32|148:49,1,47.9999985351563
140,57,10185,6,0,P|235:46|299:165,1,240.000009155274
106,180,10495,2,0,B|220:214|198:130|323:166,1,191.999994140625
276,373,10804,2,0,B|240:321|185:327|185:327|240:321|263:261,1,216.000000823975
268,249,11113,1,0,0:0:0:0:
53,300,11319,1,0,0:0:0:0:
61,309,11423,6,0,P|104:184|284:145,2,287.999991210938
404,184,12350,1,0,0:0:0:0:
259,30,12557,1,0,0:0:0:0:
255,41,12660,6,0,B|398:19|398:19|376:36|365:62,1,191.999994140625
469,259,12969,2,0,P|503:174|453:97,1,191.999994140625
180,133,13278,2,0,P|278:156|391:180,1,216.000000823975
404,184,13587,1,0,0:0:0:0:
246,341,13794,1,0,0:0:0:0:
244,327,13897,6,0,B|188:378|188:378|202:309|171:243,1,191.999994140625
10,181,14206,2,0,B|78:189|78:189|123:241|123:241|254:256,1,191.999994140625
327,260,14515,1,0,0:0:0:0:
74,331,14721,1,0,0:0:0:0:
0,354,14825,1,0,0:0:0:0:
0,307,14928,1,0,0:0:0:0:
45,292,15031,1,0,0:0:0:0:
45,369,15134,6,0,P|147:352|239:335,1,191.999994140625
401,289,15443,2,0,B|300:309|328:214|187:243,1,191.999994140625
124,46,15752,2,0,P|74:175|122:234,1,216.000000823975
125,237,16062,1,0,0:0:0:0:
253,56,16268,1,0,0:0:0:0:
245,65,16371,6,0,B|373:42|373:42|457:68|450:168,2,287.999991210938
496,257,17299,1,0,0:0:0:0:
337,136,17505,1,0,0:0:0:0:
349,141,17608,6,0,P|267:156|152:183,1,191.999994140625
47,20,17917,2,0,P|144:44|244:62,1,191.999994140625
158,298,18227,2,0,P|52:228|50:127,1,216.000000823975
49,131,18536,1,0,0:0:0:0:
269,287,18742,1,0,0:0:0:0:
258,277,18845,6,0,B|270:325|241:363|241:363|348:338,1,191.999994140625
503,188,19154,2,0,B|382:162|382:162|330:211,1,191.999994140625
435,376,19464,6,0,P|437:310|412:269,1,108.000000411987
168,159,19669,1,0,0:0:0:0:
242,182,19773,1,0,0:0:0:0:
242,135,19876,1,0,0:0:0:0:
197,120,19979,1,0,0:0:0:0:
197,197,20082,6,0,P|244:230|353:195,1,160
256,40,20392,2,0,P|264:90|276:150,1,102.000001945496
447,105,20701,1,0,0:0:0:0:
447,105,21010,2,0,B|417:112|384:94|384:94|426:118|450:161,1,136.000002593994
465,239,21319,6,0,B|373:244|398:196|302:209,1,151.999995941162
279,375,21629,2,0,P|328:333|333:280,1,102.000001945496
244,141,21938,1,0,0:0:0:0:
153,295,22144,1,0,0:0:0:0:
162,284,22247,2,0,P|95:268|20:253,1,136.000002593994
29,364,22557,6,0,P|7:306|29:245,1,120.000004577637
159,191,22866,2,0,P|102:177|45:166,1,102.000001945496
134,368,23175,1,0,0:0:0:0:
266,359,23330,1,0,0:0:0:0:
128,378,23484,2,0,B|225:393|190:340|299:355,1,136.000002593994
405,226,23794,6,0,P|326:264|258:248,1,151.999995941162
190,184,24103,2,0,P|254:155|320:170,1,136.000002593994
360,384,24412,2,0,P|354:348|348:317,2,68.0000012969971
438,308,24721,2,0,P|443:333|447:359,2,51.999997619629
436,296,25031,6,0,P|467:226|453:176,1,120.000004577637
275,206,25340,2,0,P|347:217|393:226,1,102.000001945496
506,98,25649,1,0,0:0:0:0:
506,98,25959,2,0,B|448:78|399:109|399:109|357:102,1,136.000002593994
194,58,26268,6,0,B|306:37|306:37|287:56|283:77,1,151.999995941162
255,191,26577,2,0,P|249:172|243:154,1,38.9999982147218
247,199,26732,2,0,P|241:180|235:162,1,38.9999982147218
90,34,26886,1,0,0:0:0:0:
38,240,27041,1,0,0:0:0:0:
124,146,27196,2,0,B|147:173|147:173|126:280,1,136.000002593994
54,337,27505,6,0,P|106:364|171:354,1,120.000004577637
274,281,27814,1,0,0:0:0:0:
127,271,27969,1,0,0:0:0:0:
319,192,28124,2,0,P|266:184|206:173,1,102.000001945496
102,89,28433,2,0,B|151:97|151:97|117:124|117:174,1,136.000002593994
298,286,28742,6,0,P|348:286|389:258,1,102.000001945496
287,59,29051,2,0,P|305:132|319:194,1,136.000002593994
160,311,29361,2,0,P|153:345|145:378,2,68.0000012969971
219,211,29670,6,0,P|215:198|209:186,2,25.9999988098145
103,170,29825,2,0,P|105:157|111:145,2,25.9999988098145
108,181,29979,6,0,P|142:111|193:82,1,120.000004577637
372,93,30289,2,0,P|318:104|242:117,1,102.000001945496
148,0,30598,2,0,P|202:11|278:24,1,102.000001945496
343,192,30907,2,0,B|281:217|281:217|215:190,1,136.000002593994
205,183,31216,5,0,0:0:0:0:
232,293,31371,1,0,0:0:0:0:
101,364,31526,1,0,0:0:0:0:
128,258,31681,1,0,0:0:0:0:
310,384,31835,2,0,B|408:382|350:342|467:336,1,136.000002593994
349,161,32144,2,0,P|335:228|321:307,1,136.000002593994
234,329,32453,6,0,P|165:300|141:249,1,120.000004577637
142,249,32763,2,0,P|198:239|251:227,1,102.000001945496
312,384,33072,1,0,0:0:0:0:
345,175,33227,1,0,0:0:0:0:
420,327,33381,1,0,0:0:0:0:
229,231,33536,1,0,0:0:0:0:
417,346,33691,6,0,P|404:291|392:246,1,102.000001945496
494,83,34000,2,0,P|480:132|469:181,1,102.000001945496
250,138,34309,2,0,P|216:131|183:126,2,68.0000012969971
182,25,34618,6,0,P|179:11|175:-1,2,25.9999988098145
283,45,34773,2,0,P|285:31|289:18,2,25.9999988098145
272,52,34928,6,0,P|313:75|340:145,1,120.000004577637
150,158,35237,2,0,P|213:145|271:136,1,102.000001945496
379,240,35546,1,0,0:0:0:0:
379,240,35856,2,0,B|359:349|359:349|345:314,1,136.000002593994
147,274,36165,6,0,P|203:223|262:264,1,151.999995941162
56,329,36474,2,0,P|41:281|50:228,1,102.000001945496
239,134,36783,1,0,0:0:0:0:
145,285,36938,1,0,0:0:0:0:
140,82,37093,1,0,0:0:0:0:
140,82,37402,6,0,B|232:50|226:133|323:105,1,180.000006866455
288,15,37866,1,0,0:0:0:0:
402,141,38020,2,0,P|406:91|384:46,1,102.000001945496
268,204,38330,2,0,P|342:218|405:229,1,136.000002593994
203,361,38639,6,0,P|181:309|201:239,1,102.000001945496
363,340,38948,2,0,B|384:322|384:322|272:302,1,136.000002593994
63,356,39258,2,0,P|57:315|49:276,2,68.0000012969971
110,200,39567,2,0,P|114:168|120:139,2,51.999997619629
108,213,39876,6,0,P|180:164|248:182,1,160
186,307,40185,2,0,B|193:255|193:255|220:307,1,102.000001945496
421,275,40495,2,0,B|322:252|322:252|315:261|315:261|306:253|306:253|316:262|316:262|318:275|318:275,1,102.000001945496
178,318,40804,2,0,B|214:360|263:365|300:349|300:349|311:345|311:345|310:339|304:337|304:337|299:342|299:350|299:350|305:356|313:357|313:357,1,136.000002593994
327,154,41113,6,0,B|311:196|311:196|321:252|321:252|334:251|334:251|334:245|328:243|328:243|321:246|321:251|321:251|324:258|332:262|332:262,1,102.000001945496
512,182,41423,2,0,B|413:203|413:203|429:199|429:199|423:201|423:201|420:192|420:192|424:208|427:215|434:216|434:216,1,102.000001945496
187,306,41732,2,0,B|272:297|245:350|337:341,1,136.000002593994
329,340,42041,1,0,0:0:0:0:
89,349,42247,1,0,0:0:0:0:
102,349,42350,6,0,B|74:304|99:251|99:251|62:243,1,136.000002593994
5,140,42660,2,0,P|71:154|142:168,1,136.000002593994
313,67,42969,2,0,P|243:95|126:14,1,204.000003890991
200,247,43484,1,0,0:0:0:0:
208,235,43587,6,0,B|258:222|258:222|298:252|287:305,1,136.000002593994
297,305,43897,2,0,B|309:246|262:212|262:212|207:226,1,160
10,339,44206,2,0,P|42:347|76:356,2,68.0000012969971
199,230,44515,2,0,P|174:236|149:242,1,51.999997619629
226,369,44721,1,0,0:0:0:0:
221,357,44825,6,0,P|289:376|347:359,1,120.000004577637
306,182,45134,2,0,P|294:235|284:283,1,102.000001945496
512,321,45443,2,0,P|458:312|413:301,1,102.000001945496
428,96,45752,2,0,B|410:106|386:106|386:106|413:143|415:190,1,136.000002593994
284,71,46062,6,0,P|353:12|400:6,1,136.000002593994
406,204,46371,2,0,B|406:150|376:108|376:108|368:127|348:146,1,136.000002593994
118,144,46680,2,0,P|187:156|254:172,1,136.000002593994
266,174,46990,1,0,0:0:0:0:
41,62,47196,1,0,0:0:0:0:
49,74,47299,6,0,P|23:135|44:201,1,136.000002593994
111,269,47608,2,0,P|137:208|116:142,1,136.000002593994
280,303,47917,2,0,B|169:289|207:374|85:367,1,204.000003890991
382,362,48433,1,0,0:0:0:0:
371,353,48536,6,0,P|426:353|469:325,1,102.000001945496
357,136,48845,1,0,0:0:0:0:
397,268,49000,1,0,0:0:0:0:
497,99,49154,1,0,0:0:0:0:
304,222,49309,1,0,0:0:0:0:
274,63,49464,6,0,P|270:83|266:104,2,25.9999988098145
371,34,49618,2,0,P|367:17|364:0,2,25.9999988098145
373,46,49773,6,0,P|325:71|266:69,1,102.000001945496
45,32,50082,2,0,B|139:16|139:16|176:37,1,136.000002593994
179,236,50392,2,0,P|191:180|201:123,1,102.000001945496
210,130,50701,2,0,P|196:199|178:291,1,160
85,384,51010,6,0,P|73:328|63:271,1,102.000001945496
54,280,51319,2,0,P|63:330|73:380,1,102.000001945496
313,336,51629,2,0,B|231:331|264:379|178:378,1,136.000002593994
172,374,51938,1,0,0:0:0:0:
297,204,52144,1,0,0:0:0:0:
293,217,52247,6,0,P|348:205|407:194,1,102.000001945496
489,313,52557,1,0,0:0:0:0:
489,313,52711,2,0,P|460:307|431:300,1,51.0000009727478
463,113,52866,2,0,P|492:154|500:204,1,102.000001945496
325,339,53175,1,0,0:0:0:0:
392,196,53330,1,0,0:0:0:0:
191,259,53484,6,0,P|243:247|302:232,1,102.000001945496
424,362,53794,2,0,P|371:350|313:335,1,102.000001945496
314,135,54103,2,0,P|323:97|333:57,2,68.0000012969971
224,16,54412,6,0,P|211:19|199:23,2,25.9999988098145
114,100,54567,2,0,P|126:102|139:106,2,25.9999988098145
151,111,54721,6,0,B|164:156|139:202|139:202|104:192,1,120.000004577637
20,264,55031,2,0,P|70:276|122:288,1,90.0000034332277
324,333,55340,2,0,P|251:309|148:396,1,204.000003890991
314,205,55856,1,0,0:0:0:0:
312,220,55959,6,0,B|403:213|377:272|456:263,1,143.999995605469
466,158,56268,2,0,P|455:201|442:271,1,107.999996704102
237,103,56577,2,0,B|407:76|407:76|377:98|367:144,1,240
375,136,57196,6,0,B|389:81|433:60|479:64|479:64|494:119|440:181|374:167|374:167|308:159|286:88|287:124|249:68|165:66|99:130,1,612.000011672974
107,122,59670,6,0,P|222:88|327:152,1,240.000009155274
262,331,59979,2,0,B|166:308|166:308|132:260|167:209,1,191.999994140625
487,177,60289,2,0,B|364:179|428:253|281:237,1,216.000000823975
274,232,60598,1,0,0:0:0:0:
385,25,60804,1,0,0:0:0:0:
388,37,60907,6,0,P|339:25|284:13,1,95.9999970703126
92,165,61113,2,0,P|186:142|298:115,1,191.999994140625
184,5,61423,1,0,0:0:0:0:
290,131,61526,2,0,B|307:149|310:174|310:174|240:244|299:348,1,216.000000823975
296,346,61835,1,0,0:0:0:0:
11,244,62041,1,0,0:0:0:0:
6,256,62144,6,0,B|119:232|90:302|209:288,1,191.999994140625
139,104,62453,2,0,P|159:171|190:291,1,191.999994140625
349,362,62763,2,0,B|277:349|277:349|218:387|218:387|143:373,1,216.000000823975
