osu file format v14

[General]
AudioFilename: audio.mp3
AudioLeadIn: 0
PreviewTime: 59670
Countdown: 1
SampleSet: Soft
StackLeniency: 0.7
Mode: 0
LetterboxInBreaks: 0
WidescreenStoryboard: 1

[Editor]
DistanceSpacing: 2.4
BeatDivisor: 6
GridSize: 4
TimelineZoom: 1

[Metadata]
Title:PLAYING WITH FIRE
TitleUnicode:불장난
Artist:BLACKPINK
ArtistUnicode:BLΛƆKPIИK
Creator:Lilyanna
Version:Normal
Source:
Tags:
BeatmapID:1850920
BeatmapSetID:885587

[Difficulty]
HPDrainRate:5
CircleSize:4
OverallDifficulty:5
ApproachRate:5
SliderMultiplier:1.5
SliderTickRate:1

[Events]
//Background and Video events
0,0,"jennie fire.jpg",0,0
//Break Periods
2,126056,127748
//Storyboard Layer 0 (Background)
//Storyboard Layer 1 (Fail)
//Storyboard Layer 2 (Pass)
//Storyboard Layer 3 (Foreground)
//Storyboard Sound Samples

[TimingPoints]
289,618.556701030928,4,2,1,65,1,0
10185,-100,4,2,1,80,0,1
20082,-100,4,2,1,65,0,0
59670,-100,4,2,1,80,0,1
79464,-100,4,2,1,65,0,0
108536,-100,4,2,1,65,0,0
109154,-100,4,2,1,65,0,0
128948,-100,4,2,1,80,0,1
148742,-100,4,2,1,65,0,0
171010,-100,4,2,1,80,0,1
190804,-100,4,2,0,65,0,0

[Colours]
Combo1 : 192,192,192
Combo2 : 255,214,193
Combo3 : 255,111,111
Combo4 : 255,156,108
Combo5 : 163,163,209

[HitObjects]
496,60,9876,5,8,0:0:0:0:
475,147,10185,6,0,P|457:220|464:246,1,75,4|0,0:0|0:0,0:0:0:0:
367,208,10804,2,0,L|276:226,1,75,8|0,0:2|0:0,0:0:0:0:
327,137,11423,2,0,L|241:151,1,75,2|0,0:0|0:0,0:0:0:0:
163,161,12041,1,8,0:0:0:0:
146,72,12350,1,0,0:0:0:0:
231,44,12660,6,0,L|305:31,1,75,2|0,0:0|0:0,0:0:0:0:
378,82,13278,2,0,P|405:109|415:162,1,75,8|0,0:0|0:0,0:0:0:0:
327,160,13897,2,0,L|252:172,1,75,2|0,0:0|0:0,0:0:0:0:
195,232,14515,2,0,P|218:284|183:338,1,112.5,8|0,0:0|0:0,0:0:0:0:
235,349,15134,6,0,L|309:336,1,75,4|0,0:0|0:0,0:0:0:0:
367,267,15752,2,0,P|399:227|409:188,1,75,8|0,0:2|0:0,0:0:0:0:
316,205,16371,2,0,P|319:154|304:117,1,75,2|0,0:0|0:0,0:0:0:0:
234,83,16990,1,8,0:0:0:0:
165,141,17299,1,0,0:0:0:0:
92,88,17608,6,0,L|11:100,1,75,2|0,0:0|0:0,0:0:0:0:
22,189,18227,2,0,L|108:177,1,75,8|0,0:0|0:0,0:0:0:0:
97,268,18845,2,0,L|171:257,1,75,2|0,0:0|0:0,0:0:0:0:
226,327,19464,2,0,P|278:317|339:334,1,112.5,8|0,0:0|0:0,0:0:0:0:
367,300,20082,6,0,L|373:225,1,75,4|0,1:0|0:0,0:0:0:0:
325,148,20701,2,0,L|244:141,1,75,8|0,0:0|0:0,0:0:0:0:
181,83,21319,2,0,P|212:141|183:245,1,150,2|8,0:0|0:0,0:0:0:0:
126,274,22247,1,0,0:0:0:0:
192,335,22557,6,0,L|272:331,2,75,2|0|8,0:0|0:0|0:0,0:0:0:0:
126,274,23484,1,0,0:0:0:0:
56,216,23794,2,0,L|58:135,1,75,2|0,0:0|0:0,0:0:0:0:
146,156,24412,2,0,L|148:75,1,75,8|0,0:0|0:0,0:0:0:0:
238,84,25031,6,0,L|232:159,1,75,2|0,0:0|0:0,0:0:0:0:
276,237,25650,2,0,L|350:243,1,75,8|0,0:0|0:0,0:0:0:0:
415,181,26268,2,0,P|384:239|413:343,1,150,2|8,0:0|0:0,0:0:0:0:
314,357,27196,1,0,0:0:0:0:
226,333,27506,6,0,L|111:341,1,112.5,2|0,0:0|0:0,0:0:0:0:
74,319,28124,2,0,P|88:264|83:233,1,75,8|0,0:0|0:0,0:0:0:0:
138,173,28742,2,0,L|250:165,1,112.5,2|0,0:0|0:0,0:0:0:0:
295,160,29361,1,8,0:0:0:0:
356,93,29670,1,0,0:0:0:0:
399,171,29979,6,0,L|396:250,1,75,2|0,0:0|0:0,0:0:0:0:
306,258,30598,2,0,L|303:337,1,75,8|0,0:0|0:0,0:0:0:0:
213,330,31216,2,0,P|160:303|72:346,1,150,2|8,0:0|0:0,0:0:0:0:
21,265,32144,1,0,0:0:0:0:
63,185,32453,6,0,P|69:130|61:97,1,75,2|0,0:0|0:0,0:0:0:0:
133,51,33072,2,0,L|216:47,1,75,8|0,0:0|0:0,0:0:0:0:
277,104,33691,2,0,B|259:177|306:177|272:268,1,150,2|8,0:0|0:0,0:0:0:0:
199,207,34618,1,0,0:0:0:0:
144,278,34928,6,0,L|69:284,1,75,2|0,0:0|0:0,0:0:0:0:
92,370,35546,2,0,L|167:364,1,75,8|0,0:0|0:0,0:0:0:0:
253,338,36165,2,0,P|251:256|291:228,1,112.5,2|0,0:0|0:0,0:0:0:0:
308,217,36783,1,8,0:0:0:0:
279,131,37093,1,0,0:0:0:0:
245,47,37402,6,0,L|120:59,1,112.5,0|0,0:0|0:0,0:0:0:0:
93,80,38020,2,0,P|104:134|100:176,1,75,8|0,0:0|0:0,0:0:0:0:
138,236,38639,2,0,L|249:225,1,112.5,0|0,0:0|0:0,0:0:0:0:
295,225,39258,1,8,0:0:0:0:
366,279,39567,1,0,0:0:0:0:
398,195,39876,6,0,L|389:109,1,75,6|0,0:0|0:0,0:0:0:0:
321,62,40495,2,0,L|231:65,1,75,8|0,0:0|0:0,0:0:0:0:
175,120,41113,2,0,P|191:178|179:210,1,75,2|0,0:0|0:0,0:0:0:0:
100,212,41732,2,0,P|84:154|96:122,1,75,8|0,0:0|0:0,0:0:0:0:
79,51,42350,6,0,L|178:36,1,75,2|0,0:0|0:0,0:0:0:0:
236,73,42969,2,0,L|310:84,1,75,8|0,0:0|0:0,0:0:0:0:
378,142,43587,2,0,P|349:217|348:258,1,112.5,0|0,0:0|0:0,0:0:0:0:
305,266,44206,2,0,L|225:279,1,75,8|0,0:0|0:0,0:0:0:0:
162,219,44825,6,0,L|82:232,1,75,2|0,0:0|0:0,0:0:0:0:
52,148,45443,2,0,P|60:102|58:63,1,75,8|0,0:0|0:0,0:0:0:0:
146,49,46062,2,0,L|220:36,1,75,2|0,0:0|0:0,0:0:0:0:
266,113,46680,2,0,L|340:100,1,75,8|0,0:0|0:0,0:0:0:0:
403,164,47299,6,0,L|405:249,1,75,2|0,0:0|0:0,0:0:0:0:
445,319,47917,1,8,0:0:0:0:
270,275,48536,2,0,L|138:295,1,112.5,2|0,0:0|0:0,0:0:0:0:
115,280,49154,2,0,P|112:217|104:182,1,75,8|0,0:0|0:0,0:0:0:0:
59,130,49773,6,0,P|62:67|70:32,1,75,2|0,0:0|0:0,0:0:0:0:
153,42,50392,2,0,L|205:34,2,37.5,8|0|0,0:0|0:0|0:0,0:0:0:0:
181,127,51010,2,0,L|233:119,2,37.5,2|0|0,0:0|0:0|0:0,0:0:0:0:
208,212,51629,2,0,L|294:196,1,75,8|0,0:0|0:0,0:0:0:0:
336,126,52247,6,0,L|337:88,2,37.5,2|0|0,0:0|0:0|0:0,0:0:0:0:
401,188,52866,2,0,L|394:281,1,75,8|0,0:0|0:0,0:0:0:0:
315,304,53484,2,0,L|199:320,1,112.5,2|0,0:0|0:0,0:0:0:0:
158,319,54103,2,0,P|169:248|157:206,1,112.5,8|0,0:0|0:0,0:0:0:0:
121,183,54721,6,0,P|110:112|122:70,1,112.5,2|0,0:0|0:0,0:0:0:0:
151,40,55340,1,8,0:0:0:0:
323,90,55959,2,0,P|334:161|322:203,1,112.5,2|0,0:0|0:0,0:0:0:0:
293,233,56578,1,8,0:0:0:0:
354,62,59670,6,0,P|345:117|349:162,1,75,6|0,0:0|0:0,0:0:0:0:
410,198,60289,2,0,P|419:253|415:298,1,75,8|0,0:0|0:0,0:0:0:0:
332,299,60907,2,0,P|283:290|183:320,1,150,2|8,0:0|0:0,0:0:0:0:
106,277,61835,1,0,0:0:0:0:
51,205,62144,6,0,L|56:120,1,75,2|0,0:0|0:0,0:0:0:0:
143,148,62763,2,0,L|148:63,1,75,8|0,0:0|0:0,0:0:0:0:
233,47,63381,2,0,L|378:51,1,112.5,2|0,0:0|0:0,0:0:0:0:
375,83,64000,2,0,P|366:126|369:167,1,75,8|0,0:0|0:0,0:0:0:0:
324,235,64618,6,0,L|226:250,1,75,2|0,0:0|0:0,0:0:0:0:
201,322,65237,2,0,L|103:307,1,75,8|0,0:0|0:0,0:0:0:0:
65,244,65856,2,0,B|48:169|92:169|68:91,1,150,2|8,0:0|0:0,0:0:0:0:
129,29,66783,1,0,0:0:0:0:
208,71,67093,6,0,L|285:65,1,75,2|0,0:0|0:0,0:0:0:0:
362,106,67711,2,0,L|350:229,1,112.5,8|0,0:0|0:0,0:0:0:0:
344,262,68330,2,0,P|401:254|423:267,1,75,2|0,0:0|0:0,0:0:0:0:
408,350,68948,2,0,P|372:360|337:348,1,75,8|0,0:0|0:0,0:0:0:0:
248,334,69567,6,0,L|245:244,1,75,6|0,0:0|0:0,0:0:0:0:
155,252,70185,2,0,L|152:162,1,75,8|0,0:0|0:0,0:0:0:0:
68,143,70804,2,0,L|232:114,1,150,2|8,0:0|0:0,0:0:0:0:
285,59,71732,1,0,0:0:0:0:
353,117,72041,6,0,P|358:178|365:204,1,75,2|0,0:0|0:0,0:0:0:0:
447,217,72660,2,0,P|453:253|455:291,1,75,8|0,0:0|0:0,0:0:0:0:
375,332,73278,2,0,L|230:328,1,112.5,2|0,0:0|0:0,0:0:0:0:
226,301,73897,2,0,P|235:258|232:217,1,75,8|0,0:0|0:0,0:0:0:0:
155,183,74515,6,0,L|80:194,1,75,2|0,0:0|0:0,0:0:0:0:
57,107,75134,2,0,L|155:92,1,75,8|0,0:0|0:0,0:0:0:0:
216,66,75753,2,0,P|288:83|373:51,1,150,2|8,0:0|0:0,0:0:0:0:
448,68,76680,1,0,0:0:0:0:
447,158,76990,6,0,L|452:232,1,75,2|0,0:0|0:0,0:0:0:0:
372,272,77608,2,0,L|363:151,1,112.5,8|0,0:0|0:0,0:0:0:0:
319,148,78227,2,0,P|262:156|240:143,1,75,0|0,0:0|0:0,0:0:0:0:
170,104,78845,2,0,P|134:92|99:102,1,75,0|0,0:0|0:0,0:0:0:0:
128,187,79464,6,0,L|135:302,1,112.5,4|0,0:0|0:0,0:0:0:0:
156,338,80082,2,0,P|230:322|310:339,1,150,0|0,3:0|3:0,0:0:0:0:
426,204,81319,2,0,L|427:112,1,75,0|0,3:0|0:0,0:0:0:0:
364,64,81938,6,0,B|288:42|288:96|203:58,2,150,0|0|0,3:0|3:0|3:0,0:0:0:0:
426,129,83484,1,0,0:0:0:0:
364,194,83794,2,0,L|366:285,1,75,0|0,3:0|0:0,0:0:0:0:
297,327,84412,6,0,L|207:336,1,75,0|0,3:0|0:0,0:0:0:0:
153,276,85031,2,0,L|63:285,1,75,0|0,3:0|0:0,0:0:0:0:
59,195,85649,2,0,P|64:108|61:62,1,112.5,0|0,3:0|0:0,0:0:0:0:
103,62,86268,2,0,L|177:54,1,75,0|0,3:0|0:0,0:0:0:0:
251,106,86886,6,0,P|263:161|258:198,1,75,0|0,3:0|0:0,0:0:0:0:
200,245,87505,2,0,P|200:282|210:318,1,75,0|0,3:0|0:0,0:0:0:0:
298,340,88124,2,0,L|401:323,1,75,0|0,3:0|0:0,0:0:0:0:
375,237,88742,2,0,L|478:220,1,75,0|0,3:0|0:0,0:0:0:0:
470,137,89361,6,0,L|457:63,1,75,0|0,3:0|0:0,0:0:0:0:
369,43,89979,2,0,B|271:69|271:69|202:61,1,150,0|0,3:0|3:0,0:0:0:0:
137,33,90907,1,0,0:0:0:0:
84,105,91216,2,0,B|72:144|72:144|74:186,1,75,0|0,3:0|0:0,0:0:0:0:
97,265,91835,6,0,B|168:243|168:243|243:280,1,150,0|0,3:0|3:0,0:0:0:0:
316,317,92763,1,0,0:0:0:0:
388,263,93072,2,0,B|400:224|400:224|398:182,1,75,0|0,3:0|0:0,0:0:0:0:
313,158,93691,2,0,B|311:123|311:123|323:84,1,75,0|0,3:0|0:0,0:0:0:0:
234,44,94309,6,0,B|195:49|195:49|121:34|121:34|62:42,1,150,0|0,3:0|3:0,0:0:0:0:
47,120,95237,1,0,0:0:0:0:
81,203,95546,2,0,L|77:282,1,75,0|0,3:0|0:0,0:0:0:0:
155,323,96165,2,0,B|194:311|194:311|236:313,1,75,0|0,3:0|0:0,0:0:0:0:
299,257,96783,6,0,L|305:174,1,75,0|0,3:0|0:0,0:0:0:0:
363,114,97402,2,0,B|397:112|397:112|436:124,1,75,0|0,3:0|0:0,0:0:0:0:
65,51,99258,6,0,L|69:126,1,75,6|0,0:0|0:0,0:0:0:0:
157,143,99876,2,0,L|153:218,1,75,8|0,0:0|0:0,0:0:0:0:
80,271,100495,2,0,L|43:260,2,37.5,2|0|0,0:0|0:0|0:0,0:0:0:0:
140,337,101113,2,0,L|218:327,1,75,8|0,0:0|0:0,0:0:0:0:
301,305,101732,6,0,L|305:230,1,75,2|0,0:0|0:0,0:0:0:0:
393,213,102350,2,0,L|389:138,1,75,8|0,0:0|0:0,0:0:0:0:
316,85,102969,2,0,L|279:96,2,37.5,2|0|0,0:0|0:0|0:0,0:0:0:0:
388,33,103587,2,0,L|466:43,1,75,8|0,0:0|0:0,0:0:0:0:
470,132,104206,6,0,L|476:256,1,112.5,0|0,0:0|0:0,0:0:0:0:
475,289,104825,1,0,0:0:0:0:
385,279,105134,1,0,0:0:0:0:
313,334,105443,2,0,L|230:344,1,75,0|0,0:0|0:0,0:0:0:0:
175,278,106062,2,0,L|92:288,1,75,0|0,0:0|0:0,0:0:0:0:
144,92,108536,6,0,L|262:79,1,112.5,0|0,0:0|0:0,0:0:0:0:
295,100,109154,6,0,L|302:174,1,75,6|0,0:0|0:0,0:0:0:0:
345,254,109773,2,0,L|419:251,1,75,8|0,0:0|0:0,0:0:0:0:
399,339,110392,2,0,L|324:341,1,75,2|0,0:0|0:0,0:0:0:0:
240,307,111010,2,0,L|230:223,1,75,8|0,0:0|0:0,0:0:0:0:
158,178,111628,6,0,L|83:189,1,75,2|0,0:0|0:0,0:0:0:0:
64,101,112247,2,0,L|142:91,1,75,8|0,0:0|0:0,0:0:0:0:
218,51,112866,2,0,P|224:106|248:157,1,112.5,0|0,0:0|0:0,0:0:0:0:
285,183,113484,2,0,L|365:170,1,75,8|0,0:0|0:0,0:0:0:0:
394,253,114103,6,0,L|314:266,1,75,2|0,0:0|0:0,0:0:0:0:
231,283,114721,2,0,P|239:329|237:368,1,75,8|0,0:0|0:0,0:0:0:0:
149,339,115340,2,0,L|74:326,1,75,2|0,0:0|0:0,0:0:0:0:
78,237,115958,2,0,L|152:224,1,75,8|0,0:0|0:0,0:0:0:0:
217,162,116577,6,0,L|215:87,1,75,2|0,0:0|0:0,0:0:0:0:
280,24,117195,1,8,0:0:0:0:
336,194,117814,2,0,L|468:214,1,112.5,2|0,0:0|0:0,0:0:0:0:
465,252,118432,2,0,P|459:289|459:326,1,75,8|0,0:0|0:0,0:0:0:0:
373,355,119051,6,0,P|335:360|298:360,1,75,2|0,0:0|0:0,0:0:0:0:
251,283,119670,2,0,L|215:279,2,37.5,8|0|0,0:0|0:0|0:0,0:0:0:0:
281,198,120288,2,0,L|333:190,2,37.5,2|0|0,0:0|0:0|0:0,0:0:0:0:
233,121,120907,2,0,L|147:105,1,75,8|0,0:0|0:0,0:0:0:0:
82,60,121525,6,0,L|83:22,2,37.5,2|0|0,0:0|0:0|0:0,0:0:0:0:
46,143,122144,2,0,L|39:236,1,75,8|0,0:0|0:0,0:0:0:0:
79,298,122763,2,0,L|190:282,1,112.5,0|2,0:0|0:0,0:0:0:0:
235,279,123381,2,0,P|224:208|236:166,1,112.5,8|0,0:0|0:0,0:0:0:0:
279,167,124000,6,0,P|350:178|392:166,1,112.5,0|0,0:0|0:0,0:0:0:0:
428,146,124618,1,0,0:0:0:0:
265,67,125237,2,0,P|194:56|152:68,1,112.5,0|0,0:0|0:0,0:0:0:0:
122,97,125856,1,8,0:0:0:0:
104,49,128948,6,0,L|99:149,1,75,6|0,0:0|0:0,0:0:0:0:
186,151,129567,2,0,L|191:251,1,75,8|0,0:0|0:0,0:0:0:0:
127,290,130185,2,0,P|196:264|270:272,1,150,2|8,0:0|0:0,0:0:0:0:
333,337,131113,1,0,0:0:0:0:
399,276,131422,6,0,L|404:191,1,75,2|0,0:0|0:0,0:0:0:0:
483,159,132041,2,0,L|488:74,1,75,8|0,0:0|0:0,0:0:0:0:
406,45,132660,2,0,L|293:41,1,112.5,2|0,0:0|0:0,0:0:0:0:
250,54,133278,2,0,P|258:90|257:127,1,75,8|0,0:0|0:0,0:0:0:0:
188,184,133896,6,0,L|90:199,1,75,2|0,0:0|0:0,0:0:0:0:
108,285,134515,2,0,L|182:296,1,75,8|0,0:0|0:0,0:0:0:0:
263,334,135134,2,0,B|280:259|236:259|260:181,1,150,2|8,0:0|0:0,0:0:0:0:
335,140,136061,1,0,0:0:0:0:
385,65,136371,6,0,L|462:59,1,75,2|0,0:0|0:0,0:0:0:0:
481,146,136989,2,0,L|469:269,1,112.5,8|0,0:0|0:0,0:0:0:0:
444,295,137608,2,0,P|408:284|373:296,1,75,2|0,0:0|0:0,0:0:0:0:
291,333,138226,2,0,P|255:343|220:331,1,75,8|0,0:0|0:0,0:0:0:0:
146,278,138845,6,0,L|143:188,1,75,6|0,0:0|0:0,0:0:0:0:
56,180,139463,2,0,L|53:90,1,75,8|0,0:0|0:0,0:0:0:0:
132,62,140082,2,0,P|203:79|299:62,1,150,2|8,0:0|0:0,0:0:0:0:
363,39,141010,1,0,0:0:0:0:
439,86,141319,6,0,L|451:173,1,75,2|0,0:0|0:0,0:0:0:0:
359,167,141938,2,0,L|367:241,1,75,8|0,0:0|0:0,0:0:0:0:
319,317,142556,2,0,L|174:313,1,112.5,0|0,0:0|0:0,0:0:0:0:
161,308,143175,2,0,P|170:265|167:224,1,75,0|0,0:0|0:0,0:0:0:0:
110,166,143793,6,0,L|35:177,1,75,2|0,0:0|0:0,0:0:0:0:
45,87,144412,2,0,L|143:72,1,75,8|0,0:0|0:0,0:0:0:0:
208,91,145031,2,0,P|280:108|362:82,1,150,2|8,0:0|0:0,0:0:0:0:
432,47,145958,1,0,0:0:0:0:
438,136,146268,6,0,L|443:210,1,75,2|0,0:0|0:0,0:0:0:0:
353,205,146886,2,0,L|361:317,1,112.5,8|0,0:0|0:0,0:0:0:0:
317,328,147505,2,0,P|260:320|238:333,1,75,2|0,0:0|0:0,0:0:0:0:
158,346,148123,2,0,P|123:356|87:348,1,75,2|0,0:0|0:0,0:0:0:0:
39,270,148742,6,0,L|32:157,1,112.5,4|0,1:0|0:0,0:0:0:0:
62,123,149360,2,0,P|136:139|216:122,2,150,2|2|2,0:0|0:0|0:0,0:0:0:0:
221,39,151216,6,0,P|295:23|375:40,1,150,2|2,0:0|0:0,0:0:0:0:
456,193,152453,2,0,P|382:206|309:190,1,150,2|2,0:0|0:0,0:0:0:0:
197,331,153691,6,0,L|184:165,1,150,2|2,0:0|0:0,0:0:0:0:
32,277,154928,2,0,L|45:111,1,150,2|2,0:0|0:0,0:0:0:0:
213,65,156165,6,0,B|299:80|299:80|379:62,1,150,2|2,0:0|0:0,0:0:0:0:
443,226,157402,2,0,B|381:212|381:212|295:227,1,150,2|2,0:0|0:0,0:0:0:0:
152,336,158639,6,0,B|174:248|174:248|158:210|163:174,1,150,2|2,0:0|0:0,0:0:0:0:
245,155,159567,1,0,0:0:0:0:
285,74,159876,2,0,L|436:63,1,150,2|2,0:0|0:0,0:0:0:0:
445,242,161113,6,0,L|295:231,1,150,2|2,0:0|0:0,0:0:0:0:
132,307,162350,2,0,P|149:239|120:149,1,150,2|2,0:0|0:0,0:0:0:0:
75,90,163278,1,0,0:0:0:0:
163,76,163587,6,0,L|315:61,2,150,2|2|2,0:0|0:0|0:0,0:0:0:0:
303,189,165443,2,0,L|392:180,1,75,2|0,0:0|0:0,0:0:0:0:
256,192,166062,12,0,168536,0:0:0:0:
422,325,171010,6,0,P|367:316|322:320,1,75,6|0,0:0|0:0,0:0:0:0:
265,278,171629,2,0,P|210:287|165:283,1,75,8|0,0:0|0:0,0:0:0:0:
130,353,172247,2,0,P|139:304|109:204,1,150,2|8,0:0|0:0,0:0:0:0:
59,136,173175,1,0,0:0:0:0:
133,84,173484,6,0,L|218:88,1,75,2|0,0:0|0:0,0:0:0:0:
281,36,174103,2,0,L|366:41,1,75,8|0,0:0|0:0,0:0:0:0:
412,109,174721,2,0,L|408:254,1,112.5,2|0,0:0|0:0,0:0:0:0:
389,262,175340,2,0,L|305:256,1,75,0|0,0:0|0:0,0:0:0:0:
231,292,175958,6,0,L|216:194,1,75,2|0,0:0|0:0,0:0:0:0:
132,192,176577,2,0,L|191:112,1,75,8|0,0:0|0:0,0:0:0:0:
220,52,177196,2,0,B|145:35|145:79|67:55,1,150,2|8,0:0|0:0,0:0:0:0:
19,129,178123,1,0,0:0:0:0:
68,204,178433,6,0,L|74:281,1,75,2|0,0:0|0:0,0:0:0:0:
152,322,179051,2,0,L|263:332,1,112.5,8|0,0:0|0:0,0:0:0:0:
293,298,179670,2,0,P|285:241|298:219,1,75,0|0,0:0|0:0,0:0:0:0:
373,190,180288,2,0,P|384:225|374:260,1,75,0|0,0:0|0:0,0:0:0:0:
410,343,180907,6,0,L|500:340,1,75,6|0,0:0|0:0,0:0:0:0:
494,251,181525,2,0,L|491:176,1,75,8|0,0:0|0:0,0:0:0:0:
443,99,182144,2,0,L|279:128,1,150,2|8,0:0|0:0,0:0:0:0:
217,79,183072,1,0,0:0:0:0:
136,120,183381,6,0,P|75:125|49:132,1,75,2|0,0:0|0:0,0:0:0:0:
69,218,184000,2,0,P|106:216|143:210,1,75,8|0,0:0|0:0,0:0:0:0:
228,238,184618,2,0,L|224:350,1,112.5,2|0,0:0|0:0,0:0:0:0:
270,354,185237,2,0,P|307:353|343:361,1,75,0|0,0:0|0:0,0:0:0:0:
406,297,185855,6,0,L|395:222,1,75,2|0,0:0|0:0,0:0:0:0:
480,193,186474,2,0,L|468:118,1,75,8|0,0:0|0:0,0:0:0:0:
389,74,187093,2,0,P|317:91|232:59,1,150,2|8,0:0|0:0,0:0:0:0:
166,26,188020,1,0,0:0:0:0:
148,114,188330,6,0,L|153:188,1,75,2|0,0:0|0:0,0:0:0:0:
109,267,188948,2,0,L|230:258,1,112.5,8|0,0:0|0:0,0:0:0:0:
260,236,189567,2,0,P|252:179|265:157,1,75,0|0,0:0|0:0,0:0:0:0:
344,136,190185,2,0,P|356:100|346:65,1,75,0|0,0:0|0:0,0:0:0:0:
257,50,190804,6,0,L|166:67,1,75,2|2,0:0|0:0,0:0:0:0:
119,127,191423,2,0,P|167:198|63:269,1,225,2|0,0:0|0:0,0:0:0:0:
