osu file format v14

[General]
AudioFilename: audio.mp3
AudioLeadIn: 0
PreviewTime: 59670
Countdown: 1
SampleSet: Soft
StackLeniency: 0.7
Mode: 0
LetterboxInBreaks: 0
WidescreenStoryboard: 0

[Editor]
DistanceSpacing: 2.4
BeatDivisor: 6
GridSize: 4
TimelineZoom: 1

[Metadata]
Title:PLAYING WITH FIRE
TitleUnicode:불장난
Artist:BLACKPINK
ArtistUnicode:BLΛƆKPIИK
Creator:Lilyanna
Version:Insane
Source:
Tags:
BeatmapID:1850921
BeatmapSetID:885587

[Difficulty]
HPDrainRate:6
CircleSize:4
OverallDifficulty:6
ApproachRate:8.5
SliderMultiplier:2.1
SliderTickRate:1

[Events]
//Background and Video events
0,0,"jennie fire.jpg",0,0
//Break Periods
2,169354,170335
//Storyboard Layer 0 (Background)
//Storyboard Layer 1 (Fail)
//Storyboard Layer 2 (Pass)
//Storyboard Layer 3 (Foreground)
//Storyboard Sound Samples

[TimingPoints]
289,618.556701030928,4,2,1,65,1,0
10185,-125,4,2,1,75,0,1
20082,-125,4,2,1,65,0,0
39876,-200,4,2,1,65,0,0
40495,-125,4,2,1,65,0,0
44206,-166.666666666667,4,2,1,65,0,0
44825,-250,4,2,1,65,0,0
45443,-125,4,2,1,65,0,0
55340,-166.666666666667,4,2,1,65,0,0
55959,-250,4,2,1,65,0,0
56577,-500,4,2,1,65,0,0
59670,-100,4,2,1,80,0,1
79464,-125,4,2,1,65,0,0
99258,-100,4,2,1,65,0,0
108536,-40,4,2,1,65,0,0
109154,-200,4,2,1,65,0,0
109773,-125,4,2,1,65,0,0
113484,-166.666666666667,4,2,1,65,0,0
114103,-250,4,2,1,65,0,0
114721,-125,4,2,1,65,0,0
124618,-166.666666666667,4,2,1,65,0,0
125237,-250,4,2,1,65,0,0
125855,-500,4,2,1,65,0,0
128948,-100,4,2,1,80,0,1
148742,-100,4,2,1,65,0,0
149361,-142.857142857143,4,2,1,65,0,0
169154,-142.857142857143,4,2,1,65,0,0
171010,-100,4,2,1,80,0,1
190804,-100,4,2,0,65,0,0

[Colours]
Combo1 : 192,192,192
Combo2 : 255,214,193
Combo3 : 255,111,111
Combo4 : 255,156,108
Combo5 : 163,163,209

[HitObjects]
154,54,9876,6,0,L|111:54,1,35,8|0,0:0|0:0,0:0:0:0:
119,54,10185,6,0,P|143:102|133:149,1,84,4|0,0:0|0:0,0:0:0:0:
66,112,10649,1,0,0:0:0:0:
140,130,10804,2,0,L|209:119,1,56,8|0,0:2|0:0,0:0:0:0:
211,118,11113,1,0,0:0:0:0:
293,175,11319,1,0,0:0:0:0:
294,192,11423,2,0,L|293:271,1,56,2|0,0:0|0:0,0:0:0:0:
304,261,11732,2,0,L|303:340,1,56
310,333,12041,1,8,0:0:0:0:
429,241,12350,1,0,0:0:0:0:
392,146,12557,1,0,0:0:0:0:
391,129,12660,6,0,L|392:50,1,56,2|0,0:0|0:0,0:0:0:0:
384,58,12970,2,0,L|328:58,1,56
312,53,13279,1,8,0:0:0:0:
244,126,13484,1,0,0:0:0:0:
243,143,13588,2,0,L|244:222,1,56
246,216,13897,1,2,0:0:0:0:
131,272,14103,1,0,0:0:0:0:
130,255,14207,6,0,L|131:166,1,84,0|8,0:0|0:0,0:0:0:0:
73,88,14721,2,0,L|65:117,3,28
139,38,15134,6,0,P|187:62|234:52,1,84,4|0,0:0|0:0,0:0:0:0:
288,37,15598,1,0,0:0:0:0:
305,110,15753,2,0,L|316:179,1,56,8|0,0:2|0:0,0:0:0:0:
318,182,16062,1,0,0:0:0:0:
235,233,16268,1,0,0:0:0:0:
236,250,16372,2,0,L|235:329,1,56,2|0,0:0|0:0,0:0:0:0:
224,319,16681,2,0,L|145:318,1,56
152,325,16990,1,8,0:0:0:0:
342,312,17299,1,0,0:0:0:0:
151,184,17506,1,0,0:0:0:0:
150,167,17609,6,0,L|151:88,1,56,2|0,0:0|0:0,0:0:0:0:
143,96,17917,2,0,L|87:96,1,56
70,96,18228,1,8,0:0:0:0:
222,36,18433,1,0,0:0:0:0:
239,35,18537,2,0,L|318:36,1,56
312,38,18846,1,2,0:0:0:0:
390,101,19052,1,0,0:0:0:0:
389,118,19154,6,0,L|390:207,1,84,0|8,0:0|0:0,0:0:0:0:
295,235,19670,2,0,L|287:264,3,28
217,305,20082,6,0,L|142:310,1,56,4|0,1:0|0:0,0:0:0:0:
144,312,20392,1,0,0:0:0:0:
81,223,20546,1,0,0:0:0:0:
81,223,20701,2,0,P|78:169|72:135,1,84,8|0,0:0|0:0,0:0:0:0:
204,65,21319,2,0,P|207:119|213:153,1,84,2|0,0:0|0:0,0:0:0:0:
323,185,21783,1,0,0:0:0:0:
323,185,21938,2,0,P|360:180|383:181,1,56,8|0,0:0|0:0,0:0:0:0:
390,168,22247,2,0,P|385:131|386:108,1,56
391,96,22557,6,0,P|396:59|395:36,1,56,2|0,0:0|0:0,0:0:0:0:
389,25,22866,1,0,0:0:0:0:
277,58,23020,1,0,0:0:0:0:
277,58,23175,2,0,L|185:61,1,84,8|0,0:0|0:0,0:0:0:0:
159,66,23639,1,0,0:0:0:0:
126,163,23794,1,2,0:0:0:0:
64,76,23948,1,0,0:0:0:0:
143,165,24104,1,0,0:0:0:0:
68,60,24258,1,0,0:0:0:0:
161,165,24412,1,8,0:0:0:0:
31,218,24618,1,0,0:0:0:0:
39,203,24721,2,0,L|61:162,2,28
91,287,25031,6,0,L|166:292,1,56,2|0,0:0|0:0,0:0:0:0:
164,294,25341,1,0,0:0:0:0:
277,264,25495,1,0,0:0:0:0:
277,264,25650,2,0,P|274:210|268:176,1,84,8|0,0:0|0:0,0:0:0:0:
360,102,26113,1,0,0:0:0:0:
360,102,26268,2,0,P|363:156|369:190,1,84,2|0,0:0|0:0,0:0:0:0:
341,291,26732,1,0,0:0:0:0:
341,291,26887,2,0,P|313:290|285:295,1,56,8|0,0:0|0:0,0:0:0:0:
272,306,27196,2,0,P|235:311|212:310,1,56
201,302,27505,6,0,P|206:265|197:209,1,84,2|0,0:0|0:0,0:0:0:0:
169,149,27969,1,0,0:0:0:0:
237,117,28124,2,0,P|257:116|278:113,1,42,8|0,0:0|0:0,0:0:0:0:
406,213,28433,2,0,P|385:213|364:216,1,42
384,31,28742,1,2,0:0:0:0:
384,31,28897,2,0,P|389:68|380:124,1,84
364,216,29361,2,0,P|385:213|406:213,1,42,8|0,0:0|0:0,0:0:0:0:
278,113,29670,2,0,P|257:116|237:116,1,42
384,31,29979,5,2,0:0:0:0:
96,167,30289,1,0,0:0:0:0:
211,211,30443,1,0,0:0:0:0:
103,151,30598,1,8,0:0:0:0:
204,195,30752,1,0,0:0:0:0:
40,278,30907,2,0,P|77:274|96:283,1,56
103,295,31216,2,0,L|97:352,1,56,2|0,0:0|0:0,0:0:0:0:
111,361,31526,2,0,L|166:364,1,42
217,286,31835,2,0,L|272:289,1,42,8|0,0:0|0:0,0:0:0:0:
315,363,32144,2,0,L|370:366,1,42
417,319,32453,5,2,0:0:0:0:
460,227,32660,1,0,0:0:0:0:
461,206,32763,2,0,L|460:153,1,42
352,124,33072,2,0,L|352:165,1,42,8|0,0:0|0:0,0:0:0:0:
479,68,33381,2,0,L|437:68,1,42
338,127,33691,2,0,L|339:169,1,42,2|0,0:0|0:0,0:0:0:0:
241,42,34000,2,0,L|283:42,1,42
242,150,34309,2,0,L|201:151,1,42,8|0,0:0|0:0,0:0:0:0:
114,91,34618,2,0,L|113:49,1,42
53,165,34928,5,2,0:0:0:0:
127,281,35237,2,0,P|129:261|126:239,1,42
201,151,35546,2,0,P|223:155|242:150,1,42,8|0,0:0|0:0,0:0:0:0:
283,42,35855,2,0,P|260:38|241:42,1,42
339,169,36164,2,0,P|342:143|338:127,1,42,2|0,0:0|0:0,0:0:0:0:
437,68,36474,2,0,P|456:71|479:68,1,42
352,166,36783,2,0,P|354:141|351:124,1,42,8|0,0:0|0:0,0:0:0:0:
459,196,37092,2,0,P|456:216|459:237,1,42
399,284,37402,6,0,P|354:274|299:289,1,84
216,324,37866,1,0,0:0:0:0:
216,324,38020,2,0,P|220:275|218:266,1,42,8|0,0:0|0:0,0:0:0:0:
151,199,38330,2,0,P|147:248|149:257,1,42
104,113,38639,1,0,0:0:0:0:
104,113,38793,2,0,P|153:109|162:111,1,42
256,140,39103,2,0,P|207:144|198:142,1,42,0|8,0:0|0:0,0:0:0:0:
412,235,39567,2,0,P|411:255|406:276,1,42
406,276,39876,6,0,P|362:277|338:289,1,52.5,6|0,0:0|0:0,0:0:0:0:
281,317,40340,1,0,0:0:0:0:
251,210,40495,2,0,L|245:108,1,84,8|0,0:0|0:0,0:0:0:0:
104,73,41113,2,0,L|206:67,1,84,2|0,0:0|0:0,0:0:0:0:
262,56,41577,1,0,0:0:0:0:
422,83,41732,2,0,L|339:79,1,84,8|0,0:0|0:0,0:0:0:0:
254,135,42350,6,0,L|259:219,1,84,2|0,0:0|0:0,0:0:0:0:
287,301,42814,1,0,0:0:0:0:
121,306,42969,2,0,L|205:309,1,84,8|0,0:0|0:0,0:0:0:0:
45,300,43433,1,0,0:0:0:0:
100,220,43587,2,2,P|95:165|67:127,1,84,0|0,0:0|0:0,0:0:0:0:
54,42,44051,1,0,0:0:0:0:
166,142,44206,6,0,P|154:113|133:91,1,62.9999980773926,8|0,0:0|0:0,0:0:0:0:
54,42,44670,1,0,0:0:0:0:
191,41,44825,6,0,P|174:28|155:22,1,42,2|0,0:0|0:0,0:0:0:0:
54,42,45289,1,0,0:0:0:0:
26,211,45443,2,0,L|32:128,1,84,8|0,0:0|0:0,0:0:0:0:
147,225,46062,2,0,L|142:309,1,84,2|0,0:0|0:0,0:0:0:0:
213,146,46526,1,0,0:0:0:0:
371,209,46680,2,0,L|287:209,1,84,8|0,0:0|0:0,0:0:0:0:
416,91,47196,1,0,0:0:0:0:
399,93,47299,6,0,L|315:93,1,84,2|0,0:0|0:0,0:0:0:0:
223,48,47763,1,0,0:0:0:0:
164,217,47917,2,0,P|170:175|162:135,1,84,8|0,0:0|0:0,0:0:0:0:
101,289,48381,1,0,0:0:0:0:
203,330,48536,2,0,L|251:329,1,42,2|0,0:0|0:0,0:0:0:0:
310,212,48845,2,0,L|311:260,1,42
193,343,49154,2,0,L|241:342,1,42,8|0,0:0|0:0,0:0:0:0:
322,199,49463,2,0,L|323:247,1,42
400,160,49773,6,0,L|405:279,1,84,2|0,0:0|0:0,0:0:0:0:
308,296,50237,1,0,0:0:0:0:
236,249,50392,1,8,0:0:0:0:
160,288,50546,1,0,0:0:0:0:
232,338,50701,1,0,0:0:0:0:
244,226,51010,5,2,0:0:0:0:
144,280,51164,1,0,0:0:0:0:
231,357,51319,1,0,0:0:0:0:
86,126,51629,2,0,P|96:194|86:234,1,84,8|0,0:0|0:0,0:0:0:0:
172,56,52247,5,2,0:0:0:0:
255,57,52401,1,0,0:0:0:0:
298,128,52556,1,0,0:0:0:0:
273,208,52711,1,0,0:0:0:0:
222,345,52866,2,0,P|224:303|214:262,1,84,8|0,0:0|0:0,0:0:0:0:
273,208,53330,1,0,0:0:0:0:
298,288,53484,5,2,0:0:0:0:
380,304,53639,1,0,0:0:0:0:
437,243,53794,1,0,0:0:0:0:
416,162,53948,1,0,0:0:0:0:
334,142,54103,2,0,P|323:101|326:59,1,84,8|0,0:0|0:0,0:0:0:0:
165,108,54721,6,0,B|128:159|128:159|162:223,1,126,2|0,0:0|0:0,0:0:0:0:
79,285,55340,6,0,B|94:256|94:256|63:203,1,94.499997116089,8|0,0:0|0:0,0:0:0:0:
160,290,55959,6,0,B|125:355,1,63,2|0,0:0|0:0,0:0:0:0:
231,313,56577,6,0,B|215:347,1,31.5,8|0,0:0|0:0,0:0:0:0:
256,192,57196,12,0,59051,0:0:0:0:
336,83,59670,6,0,P|329:105|332:156,1,70,6|0,0:0|0:0,0:0:0:0:
323,171,59979,2,0,L|248:165,1,70
229,167,60289,1,8,0:0:0:0:
196,36,60495,1,0,0:0:0:0:
184,57,60598,1,0,0:0:0:0:
60,65,60804,1,0,0:0:0:0:
65,86,60907,2,0,P|67:123|60:165,1,70,2|0,0:0|0:0,0:0:0:0:
59,178,61216,1,0,0:0:0:0:
132,287,61371,1,0,0:0:0:0:
132,287,61526,2,0,P|192:283|219:300,1,52.5,8|0,0:0|0:0,0:0:0:0:
273,332,61835,1,0,0:0:0:0:
315,206,62041,1,0,0:0:0:0:
319,189,62144,6,0,P|321:147|308:115,1,70,2|0,0:0|0:0,0:0:0:0:
299,103,62453,2,0,L|372:95,1,70
390,90,62763,1,8,0:0:0:0:
225,43,62969,1,0,0:0:0:0:
204,45,63072,2,0,L|134:52,1,70
116,63,63381,2,0,P|121:102|109:136,1,70,2|0,0:0|0:0,0:0:0:0:
102,150,63691,2,0,P|98:178|104:211,1,52.5
167,310,64000,2,0,P|171:282|165:249,1,52.5,8|0,0:0|0:0,0:0:0:0:
210,118,64309,2,0,P|204:155|206:173,2,35
291,116,64618,6,0,P|280:148|281:209,1,70,2|0,0:0|0:0,0:0:0:0:
292,199,64928,2,0,L|367:193,1,70
386,195,65238,1,8,0:0:0:0:
424,302,65444,1,0,0:0:0:0:
412,323,65547,1,0,0:0:0:0:
272,329,65753,1,0,0:0:0:0:
251,324,65856,2,0,P|214:322|172:329,1,70,2|0,0:0|0:0,0:0:0:0:
159,330,66165,1,0,0:0:0:0:
60,237,66320,1,0,0:0:0:0:
60,237,66475,2,0,P|85:244|112:243,1,52.5,8|0,0:0|0:0,0:0:0:0:
193,147,66784,1,0,0:0:0:0:
341,229,66990,1,0,0:0:0:0:
345,212,67093,6,0,P|347:170|334:138,1,70,2|0,0:0|0:0,0:0:0:0:
326,126,67402,1,0,0:0:0:0:
188,128,67608,1,0,0:0:0:0:
183,107,67710,2,0,L|170:32,1,70,8|0,0:0|0:0,0:0:0:0:
151,31,68020,2,0,L|81:38,1,70
64,50,68330,2,0,P|60:78|70:124,1,70,2|0,0:0|0:0,0:0:0:0:
77,138,68639,1,0,0:0:0:0:
89,321,68794,1,0,0:0:0:0:
89,321,68948,2,0,P|85:293|196:215,1,175,8|0,0:0|0:0,0:0:0:0:
367,226,69567,6,0,P|360:248|363:299,1,70,6|0,0:0|0:0,0:0:0:0:
378,310,69876,2,0,L|453:304,1,70
472,306,70186,1,8,0:0:0:0:
480,166,70392,1,0,0:0:0:0:
468,187,70495,1,0,0:0:0:0:
296,90,70701,1,0,0:0:0:0:
317,95,70804,2,0,P|354:97|396:90,1,70,2|0,0:0|0:0,0:0:0:0:
409,89,71113,1,0,0:0:0:0:
233,32,71268,1,0,0:0:0:0:
233,32,71423,2,0,P|173:28|146:45,1,52.5,8|0,0:0|0:0,0:0:0:0:
201,143,71732,1,0,0:0:0:0:
95,107,71938,1,0,0:0:0:0:
91,124,72041,6,0,P|89:166|102:198,1,70,2|0,0:0|0:0,0:0:0:0:
111,210,72350,2,0,L|38:218,1,70
20,223,72660,1,8,0:0:0:0:
126,313,72866,1,0,0:0:0:0:
147,315,72969,2,0,L|217:322,1,70
230,305,73278,2,0,P|226:277|235:234,1,70,2|0,0:0|0:0,0:0:0:0:
246,219,73588,2,0,P|250:191|244:158,1,52.5
201,41,73897,2,0,P|197:69|203:102,1,52.5,8|0,0:0|0:0,0:0:0:0:
327,34,74206,2,0,P|299:30|274:35,2,35
340,35,74515,6,0,L|330:128,1,70,2|0,0:0|0:0,0:0:0:0:
341,118,74825,2,0,L|416:112,1,70
435,114,75135,1,8,0:0:0:0:
502,236,75341,1,0,0:0:0:0:
490,257,75444,1,0,0:0:0:0:
354,220,75650,1,0,0:0:0:0:
333,215,75753,2,0,L|254:220,1,70,2|0,0:0|0:0,0:0:0:0:
241,220,76062,1,0,0:0:0:0:
100,182,76217,1,0,0:0:0:0:
100,182,76372,2,0,L|158:174,1,52.5,8|0,0:0|0:0,0:0:0:0:
210,314,76681,1,0,0:0:0:0:
247,128,76887,1,0,0:0:0:0:
251,111,76990,6,0,L|240:37,1,70,2|0,0:0|0:0,0:0:0:0:
230,27,77299,1,0,0:0:0:0:
369,27,77505,1,0,0:0:0:0:
372,49,77608,2,0,L|383:117,1,70,8|0,0:0|0:0,0:0:0:0:
396,136,77918,2,0,L|478:134,1,70
479,147,78227,2,0,P|464:195|489:267,1,105
446,348,78691,1,0,0:0:0:0:
237,286,78845,2,0,P|307:269|400:287,1,157.5
121,191,79464,6,0,P|191:208|251:193,1,126,4|0,0:0|0:0,0:0:0:0:
181,42,80082,2,0,P|172:95|198:133,1,84,0|0,3:0|0:0,0:0:0:0:
343,64,80701,2,0,L|240:77,1,84,0|0,3:0|0:0,0:0:0:0:
399,167,81319,2,0,L|296:154,1,84,0|0,3:0|0:0,0:0:0:0:
482,131,81938,6,0,P|489:184|465:222,1,84,0|0,3:0|0:0,0:0:0:0:
422,275,82402,1,0,0:0:0:0:
422,275,82557,2,0,L|332:288,1,84,0|0,3:0|0:0,0:0:0:0:
193,370,83175,2,0,L|283:357,1,84,0|0,3:0|0:0,0:0:0:0:
259,275,83639,1,0,0:0:0:0:
259,275,83794,2,0,P|249:206|251:165,1,84,0|0,3:0|0:0,0:0:0:0:
91,132,84258,1,0,0:0:0:0:
91,132,84412,6,0,P|160:142|201:140,1,84,0|0,3:0|0:0,0:0:0:0:
242,92,84876,1,0,0:0:0:0:
242,92,85031,2,0,L|340:85,1,84,0|0,3:0|0:0,0:0:0:0:
379,244,85649,2,0,P|366:166|371:128,1,84,0|0,3:0|0:0,0:0:0:0:
280,306,86113,1,0,0:0:0:0:
280,306,86268,2,0,P|293:228|288:190,1,84,0|0,3:0|0:0,0:0:0:0:
125,218,86886,6,0,L|223:211,1,84,0|0,3:0|0:0,0:0:0:0:
256,142,87350,1,0,0:0:0:0:
256,142,87505,2,0,P|246:77|257:46,1,84,0|0,3:0|0:0,0:0:0:0:
82,53,88124,2,0,L|165:47,1,84,0|0,3:0|0:0,0:0:0:0:
334,54,88742,2,0,L|250:59,1,84,0|0,3:0|0:0,0:0:0:0:
195,123,89206,1,0,0:0:0:0:
195,123,89361,6,0,L|181:258,1,126,0|0,3:0|0:0,0:0:0:0:
268,311,89979,1,0,3:0:0:0:
287,288,90134,1,0,0:0:0:0:
315,280,90289,1,0,0:0:0:0:
344,283,90443,1,0,0:0:0:0:
369,297,90598,2,0,P|349:239|361:187,1,84,0|0,3:0|0:0,0:0:0:0:
411,153,91062,1,0,0:0:0:0:
411,153,91216,2,0,P|428:190|429:232,1,84,0|0,3:0|0:0,0:0:0:0:
319,92,91835,5,0,3:0:0:0:
300,115,91990,1,0,0:0:0:0:
272,123,92145,1,0,0:0:0:0:
243,120,92299,1,0,0:0:0:0:
218,106,92453,2,0,L|211:169,1,42,0|0,3:0|0:0,0:0:0:0:
132,215,92763,2,0,L|125:152,1,42
163,294,93072,5,0,3:0:0:0:
135,302,93227,1,0,0:0:0:0:
106,299,93381,1,0,0:0:0:0:
81,285,93536,2,0,L|74:348,1,42,0|0,0:0|3:0,0:0:0:0:
26,220,93845,1,0,0:0:0:0:
30,190,94000,1,0,0:0:0:0:
33,160,94154,1,0,0:0:0:0:
36,130,94309,6,0,L|43:69,1,42,0|0,3:0|0:0,0:0:0:0:
156,30,94618,2,0,L|160:71,1,42
27,120,94928,2,0,L|45:61,1,42,0|0,3:0|0:0,0:0:0:0:
163,44,95237,2,0,L|159:85,1,42
271,176,95546,1,0,3:0:0:0:
267,146,95701,1,0,0:0:0:0:
264,116,95855,1,0,0:0:0:0:
261,86,96010,2,0,L|254:25,1,42,0|0,0:0|3:0,0:0:0:0:
366,39,96319,2,0,L|362:81,2,42
470,130,96783,6,0,L|425:147,1,42,0|0,3:0|0:0,0:0:0:0:
352,198,97093,2,0,L|397:215,1,42
504,260,97402,2,0,L|459:277,1,42,0|0,3:0|0:0,0:0:0:0:
319,298,97711,2,0,L|364:315,1,42
145,52,99103,5,0,0:0:0:0:
145,52,99258,6,0,L|159:128,1,52.5,6|0,0:0|0:0,0:0:0:0:
43,151,99567,2,0,L|119:165,1,52.5
263,152,99876,2,0,L|187:166,1,52.5,8|0,0:0|0:0,0:0:0:0:
137,275,100185,2,0,L|151:199,1,52.5
154,103,100495,6,0,L|145:52,1,52.5,2|0,0:0|0:0,0:0:0:0:
211,161,100804,2,0,L|263:152,1,52.5
94,160,101113,2,0,L|43:151,1,52.5,8|0,0:0|0:0,0:0:0:0:
146,223,101422,2,0,L|137:275,1,52.5
226,321,101732,5,2,0:0:0:0:
276,309,101886,1,0,0:0:0:0:
324,330,102041,1,0,0:0:0:0:
374,314,102196,1,0,0:0:0:0:
429,237,102350,1,8,0:0:0:0:
379,225,102504,1,0,0:0:0:0:
331,246,102659,1,0,0:0:0:0:
281,230,102814,1,0,0:0:0:0:
315,104,102969,6,0,P|324:140|321:166,1,52.5,2|0,0:0|0:0,0:0:0:0:
196,132,103278,2,0,P|187:96|190:70,1,52.5
315,104,103587,2,0,L|372:93,1,52.5,8|0,0:0|0:0,0:0:0:0:
196,132,103897,2,0,L|139:143,1,52.5
43,250,104206,6,0,L|152:223,1,105
211,268,104670,1,0,0:0:0:0:
293,288,104825,2,0,P|276:322|271:346,1,52.5
318,184,105134,2,0,P|284:201|260:206,1,52.5
417,168,105443,2,0,P|400:202|395:226,1,52.5
335,52,105752,2,0,P|352:86|357:110,1,52.5
471,39,106062,2,0,P|454:73|449:97,2,52.5
335,52,106526,1,0,0:0:0:0:
265,155,106680,6,0,P|262:120|265:96,1,52.5
335,52,106990,1,0,0:0:0:0:
258,23,107144,1,0,0:0:0:0:
192,74,107299,1,0,0:0:0:0:
178,69,107608,1,0,0:0:0:0:
245,15,107763,1,0,0:0:0:0:
259,102,107917,2,0,P|253:167|254:227,1,105
252,206,108536,6,0,B|219:175|219:175|184:197|184:197|180:152|129:122|129:122|78:148|82:212,1,262.5
45,282,109154,6,0,L|113:295,1,52.5,6|0,0:0|0:0,0:0:0:0:
175,306,109618,1,0,0:0:0:0:
230,163,109773,2,0,L|235:247,1,84,8|0,0:0|0:0,0:0:0:0:
328,107,110391,2,0,L|430:101,1,84,2|0,0:0|0:0,0:0:0:0:
484,144,110855,1,0,0:0:0:0:
329,194,111010,2,0,L|412:198,1,84,8|0,0:0|0:0,0:0:0:0:
250,241,111628,6,0,L|255:325,1,84,2|0,0:0|0:0,0:0:0:0:
181,366,112092,1,0,0:0:0:0:
114,239,112247,2,0,L|111:323,1,84,8|0,0:0|0:0,0:0:0:0:
35,361,112711,1,0,0:0:0:0:
22,278,112865,2,2,L|29:183,1,84,0|0,0:0|0:0,0:0:0:0:
39,110,113329,1,0,0:0:0:0:
151,198,113484,6,0,P|139:169|118:147,1,62.9999980773926,8|0,0:0|0:0,0:0:0:0:
39,110,113948,1,0,0:0:0:0:
154,46,114103,6,0,P|137:59|118:65,1,42,2|0,0:0|0:0,0:0:0:0:
39,110,114567,1,0,0:0:0:0:
36,284,114721,6,0,L|42:201,1,84,8|0,0:0|0:0,0:0:0:0:
198,263,115340,2,0,L|193:347,1,84,2|0,0:0|0:0,0:0:0:0:
198,179,115804,1,0,0:0:0:0:
366,149,115958,2,0,L|282:149,1,84,8|0,0:0|0:0,0:0:0:0:
438,233,116474,1,0,0:0:0:0:
421,235,116577,6,0,L|362:242,1,42,2|0,0:0|0:0,0:0:0:0:
299,154,116886,2,0,L|329:143,3,21
282,149,117196,2,0,P|288:107|280:67,1,84,8|0,0:0|0:0,0:0:0:0:
206,27,117659,1,0,0:0:0:0:
136,88,117814,2,0,L|94:88,1,42,2|0,0:0|0:0,0:0:0:0:
88,172,118123,2,0,L|40:173,1,42
124,80,118433,2,0,L|82:80,1,42,8|0,0:0|0:0,0:0:0:0:
76,164,118742,2,0,L|28:165,1,42
139,221,119051,6,0,L|144:340,1,84,2|0,0:0|0:0,0:0:0:0:
210,355,119515,1,0,0:0:0:0:
284,316,119670,1,8,0:0:0:0:
360,277,119824,1,0,0:0:0:0:
288,227,119979,1,0,0:0:0:0:
296,209,120288,5,2,0:0:0:0:
362,259,120442,1,0,0:0:0:0:
294,309,120597,1,0,0:0:0:0:
366,81,120907,2,0,P|376:149|366:189,1,84,8|0,0:0|0:0,0:0:0:0:
172,56,121525,5,2,0:0:0:0:
255,57,121679,1,0,0:0:0:0:
223,134,121834,1,0,0:0:0:0:
138,131,121989,1,0,0:0:0:0:
197,293,122144,2,0,P|199:251|189:210,1,84,8|0,0:0|0:0,0:0:0:0:
105,212,122608,1,0,0:0:0:0:
131,124,122763,5,0,0:0:0:0:
267,62,122917,1,0,0:0:0:0:
226,142,123072,1,0,0:0:0:0:
177,43,123227,1,2,0:0:0:0:
331,214,123381,2,0,P|320:173|323:131,1,84,8|0,0:0|0:0,0:0:0:0:
92,205,124000,6,0,B|150:185|150:227|219:204,1,126
77,127,124618,2,0,P|123:119|177:132,1,94.499997116089
214,285,125237,2,0,P|191:288|137:275,1,63
81,272,125855,6,0,B|63:306,1,31.5,8|0,0:0|0:0,0:0:0:0:
256,192,126474,12,0,128330,0:0:0:0:
336,83,128948,6,0,L|336:164,1,70,6|0,0:0|0:0,0:0:0:0:
323,171,129257,2,0,L|248:165,1,70
229,167,129567,1,8,0:0:0:0:
239,281,129773,1,0,0:0:0:0:
227,302,129876,1,0,0:0:0:0:
109,208,130082,1,0,0:0:0:0:
114,229,130185,2,0,P|116:266|109:308,1,70,2|0,0:0|0:0,0:0:0:0:
108,321,130494,1,0,0:0:0:0:
75,125,130649,1,0,0:0:0:0:
75,125,130804,2,0,P|135:121|162:138,1,52.5,8|0,0:0|0:0,0:0:0:0:
228,62,131113,1,0,0:0:0:0:
305,212,131319,1,0,0:0:0:0:
309,195,131422,6,0,L|298:121,1,70,2|0,0:0|0:0,0:0:0:0:
299,103,131731,2,0,L|372:95,1,70
390,90,132041,1,8,0:0:0:0:
179,119,132247,1,0,0:0:0:0:
177,140,132350,2,0,L|170:210,1,70
172,221,132660,2,0,P|176:249|167:296,1,70,2|0,0:0|0:0,0:0:0:0:
151,301,132969,2,0,P|123:297|90:303,1,52.5
240,338,133278,2,0,P|265:341|291:337,1,52.5,8|0,0:0|0:0,0:0:0:0:
267,246,133587,2,0,P|264:215|264:208,2,35
274,198,133896,6,0,P|306:209|367:208,1,70,2|0,0:0|0:0,0:0:0:0:
362,201,134206,2,0,L|356:131,1,70
355,110,134516,1,8,0:0:0:0:
442,26,134722,1,0,0:0:0:0:
430,47,134825,1,0,0:0:0:0:
297,33,135031,1,0,0:0:0:0:
276,28,135134,2,0,P|239:26|197:33,1,70,2|0,0:0|0:0,0:0:0:0:
184,34,135443,1,0,0:0:0:0:
53,83,135598,1,0,0:0:0:0:
53,83,135753,2,0,P|78:90|105:89,1,52.5,8|0,0:0|0:0,0:0:0:0:
204,153,136062,1,0,0:0:0:0:
323,206,136268,1,0,0:0:0:0:
327,189,136371,6,0,P|329:147|316:115,1,70,2|0,0:0|0:0,0:0:0:0:
308,103,136680,1,0,0:0:0:0:
233,233,136886,1,0,0:0:0:0:
228,254,136990,2,0,L|215:329,1,70,8|0,0:0|0:0,0:0:0:0:
196,330,137298,2,0,L|126:323,1,70
114,314,137608,2,0,P|128:271|105:221,1,70,2|0,0:0|0:0,0:0:0:0:
115,225,137917,1,0,0:0:0:0:
135,74,138072,1,0,0:0:0:0:
135,74,138226,2,0,P|131:102|242:180,1,175,8|0,0:0|0:0,0:0:0:0:
367,226,138845,6,0,P|360:248|363:299,1,70,6|0,0:0|0:0,0:0:0:0:
378,310,139154,2,0,L|453:304,1,70
472,306,139464,1,8,0:0:0:0:
480,166,139670,1,0,0:0:0:0:
468,187,139773,1,0,0:0:0:0:
330,85,139979,1,0,0:0:0:0:
351,90,140082,2,0,P|388:92|430:85,1,70,2|0,0:0|0:0,0:0:0:0:
443,84,140391,1,0,0:0:0:0:
244,36,140546,1,0,0:0:0:0:
244,36,140701,2,0,P|184:32|157:49,1,52.5,8|0,0:0|0:0,0:0:0:0:
90,53,141010,1,0,0:0:0:0:
203,144,141216,1,0,0:0:0:0:
207,161,141319,6,0,P|209:203|196:235,1,70,2|0,0:0|0:0,0:0:0:0:
187,247,141628,2,0,L|260:255,1,70
278,260,141938,1,8,0:0:0:0:
156,336,142144,1,0,0:0:0:0:
135,338,142247,2,0,L|65:345,1,70
44,341,142557,2,0,L|57:243,1,70
54,249,142866,2,0,L|47:185,1,52.5
121,94,143175,2,0,L|119:155,1,52.5
207,216,143484,2,0,P|203:188|208:168,2,35
215,182,143793,6,0,L|308:172,1,70,2|0,0:0|0:0,0:0:0:0:
298,183,144103,2,0,L|292:258,1,70
294,277,144413,1,8,0:0:0:0:
391,315,144619,1,0,0:0:0:0:
379,336,144722,1,0,0:0:0:0:
454,236,144928,1,0,0:0:0:0:
459,215,145031,2,0,L|454:136,1,70,2|0,0:0|0:0,0:0:0:0:
454,123,145340,1,0,0:0:0:0:
311,75,145495,1,0,0:0:0:0:
311,75,145650,2,0,L|369:67,1,52.5,8|0,0:0|0:0,0:0:0:0:
365,170,145959,1,0,0:0:0:0:
246,232,146165,1,0,0:0:0:0:
250,215,146268,6,0,L|239:141,1,70,2|0,0:0|0:0,0:0:0:0:
229,131,146577,1,0,0:0:0:0:
123,39,146783,1,0,0:0:0:0:
120,61,146886,2,0,L|109:129,1,70,8|0,0:0|0:0,0:0:0:0:
96,148,147196,2,0,L|14:146,1,70
13,159,147505,2,0,P|28:207|3:279,1,105,2|0,0:0|0:0,0:0:0:0:
53,336,147969,1,0,0:0:0:0:
275,286,148123,2,0,P|205:269|105:306,1,157.5,2|0,0:0|0:0,0:0:0:0:
230,185,148742,6,0,P|300:202|400:165,1,157.5,4|0,1:0|0:0,0:0:0:0:
293,41,149361,2,0,P|299:111|292:132,1,73.4999977569581,2|0,0:0|0:0,0:0:0:0:
214,183,149979,2,0,P|208:113|215:92,1,73.4999977569581,2|0,0:0|0:0,0:0:0:0:
130,32,150598,2,0,L|34:44,1,73.4999977569581,2|0,0:0|0:0,0:0:0:0:
53,151,151216,6,0,L|125:160,1,73.4999977569581,2|0,0:0|0:0,0:0:0:0:
219,218,151835,2,0,P|231:263|225:307,1,73.4999977569581,2|0,0:0|0:0,0:0:0:0:
313,217,152453,2,0,P|301:172|307:128,1,73.4999977569581,2|0,0:0|0:0,0:0:0:0:
409,172,153072,2,0,L|505:160,1,73.4999977569581,2|0,0:0|0:0,0:0:0:0:
486,53,153690,6,0,L|413:43,1,73.4999977569581,2|0,0:0|0:0,0:0:0:0:
411,183,154309,2,0,L|507:171,1,73.4999977569581,2|0,0:0|0:0,0:0:0:0:
487,44,154928,2,0,L|414:34,1,73.4999977569581,2|0,0:0|0:0,0:0:0:0:
315,83,155546,2,0,P|321:129|308:176,1,73.4999977569581,2|0,0:0|0:0,0:0:0:0:
215,200,156165,6,0,L|136:210,1,73.4999977569581,2|0,0:0|0:0,0:0:0:0:
183,311,156783,2,0,L|104:301,1,73.4999977569581,2|0,0:0|0:0,0:0:0:0:
242,194,157402,2,0,L|163:204,1,73.4999977569581,2|0,0:0|0:0,0:0:0:0:
210,305,158020,2,0,L|131:295,1,73.4999977569581,2|0,0:0|0:0,0:0:0:0:
57,219,158639,6,0,P|61:158|41:125,1,73.4999977569581,2|0,0:0|0:0,0:0:0:0:
76,72,159103,1,0,0:0:0:0:
76,72,159258,2,0,L|171:72,1,73.4999977569581,2|0,0:0|0:0,0:0:0:0:
241,132,159876,2,0,L|229:226,1,73.4999977569581,2|0,0:0|0:0,0:0:0:0:
270,271,160340,1,0,0:0:0:0:
270,271,160495,2,0,L|365:271,1,73.4999977569581,2|0,0:0|0:0,0:0:0:0:
418,190,161113,6,0,L|411:104,1,73.4999977569581,2|0,0:0|0:0,0:0:0:0:
368,53,161577,1,0,0:0:0:0:
368,53,161732,2,0,L|281:57,1,73.4999977569581,2|0,0:0|0:0,0:0:0:0:
145,81,162350,1,2,0:0:0:0:
138,117,162505,1,0,0:0:0:0:
136,153,162660,1,0,0:0:0:0:
139,189,162814,1,0,0:0:0:0:
148,224,162969,1,2,0:0:0:0:
231,288,163278,2,0,L|243:270,3,18.3749994392395
258,265,163587,6,0,P|300:278|340:268,1,73.4999977569581,2|0,0:0|0:0,0:0:0:0:
392,183,164206,2,0,P|350:170|310:180,1,73.4999977569581,2|0,0:0|0:0,0:0:0:0:
215,143,164825,2,0,L|224:59,1,73.4999977569581,2|0,0:0|0:0,0:0:0:0:
149,27,165289,1,0,0:0:0:0:
149,27,165443,2,0,L|57:32,1,73.4999977569581,2|0,0:0|0:0,0:0:0:0:
42,136,166062,5,2,3:0:0:0:
264,191,166371,1,2,0:0:0:0:
40,291,166680,1,2,0:0:0:0:
171,69,166990,1,2,0:0:0:0:
74,371,167299,1,2,0:0:0:0:
135,321,167453,1,0,0:0:0:0:
135,321,167763,2,0,L|208:337,1,73.4999977569581
270,278,168227,2,0,P|243:224|347:235,1,220.499993270874
336,83,171010,6,0,L|336:164,1,70,6|0,0:0|0:0,0:0:0:0:
327,173,171319,2,0,L|252:167,1,70
233,168,171629,1,8,0:0:0:0:
174,281,171835,1,0,0:0:0:0:
162,302,171938,1,0,0:0:0:0:
105,190,172144,1,0,0:0:0:0:
105,168,172247,6,0,P|106:141|89:86,1,70,2|0,0:0|0:0,0:0:0:0:
84,89,172556,1,0,0:0:0:0:
63,288,172711,1,0,0:0:0:0:
63,288,172866,2,0,P|123:292|150:275,1,52.5,8|0,0:0|0:0,0:0:0:0:
189,168,173175,1,0,0:0:0:0:
287,303,173381,1,0,0:0:0:0:
297,285,173484,6,0,L|286:211,1,70,2|0,0:0|0:0,0:0:0:0:
289,193,173793,2,0,L|362:185,1,70
381,183,174103,1,8,0:0:0:0:
236,71,174309,1,0,0:0:0:0:
218,82,174412,2,0,L|211:152,1,70
200,171,174721,5,2,0:0:0:0:
47,243,174928,1,0,0:0:0:0:
40,219,175031,2,0,L|38:159,1,52.5
110,300,175340,1,0,0:0:0:0:
121,147,175546,2,0,L|120:112,3,35
196,213,175958,6,0,P|228:202|289:203,1,70,2|0,0:0|0:0,0:0:0:0:
283,185,176268,2,0,L|277:115,1,70
277,93,176578,1,8,0:0:0:0:
399,43,176784,1,0,0:0:0:0:
387,64,176887,1,0,0:0:0:0:
207,50,177093,1,0,0:0:0:0:
186,46,177196,6,0,P|149:44|107:51,1,70,2|0,0:0|0:0,0:0:0:0:
97,62,177505,1,0,0:0:0:0:
171,159,177660,1,0,0:0:0:0:
171,159,177815,2,0,P|164:184|165:211,1,52.5,8|0,0:0|0:0,0:0:0:0:
86,308,178124,1,0,0:0:0:0:
261,208,178330,1,0,0:0:0:0:
273,189,178433,6,0,P|275:147|262:115,1,70,2|0,0:0|0:0,0:0:0:0:
255,102,178742,1,0,0:0:0:0:
346,60,178948,1,0,0:0:0:0:
368,64,179052,2,0,L|443:51,1,70,8|0,0:0|0:0,0:0:0:0:
455,63,179360,2,0,L|443:131,1,70
435,155,179670,5,0,0:0:0:0:
321,184,179876,1,0,0:0:0:0:
315,205,179979,2,0,L|323:262,1,52.5
221,182,180289,1,0,0:0:0:0:
237,277,180495,2,0,L|243:326,3,35
347,333,180907,6,0,P|369:326|428:332,1,70,6|0,0:0|0:0,0:0:0:0:
437,332,181216,2,0,L|431:262,1,70
429,240,181526,1,8,0:0:0:0:
472,99,181732,1,0,0:0:0:0:
463,119,181835,1,0,0:0:0:0:
338,69,182041,1,0,0:0:0:0:
320,81,182144,6,0,L|250:85,1,70,2|0,0:0|0:0,0:0:0:0:
230,73,182453,1,0,0:0:0:0:
253,196,182608,1,0,0:0:0:0:
253,196,182763,2,0,P|260:220|259:247,1,52.5,8|0,0:0|0:0,0:0:0:0:
175,327,183072,1,0,0:0:0:0:
350,319,183278,1,0,0:0:0:0:
368,304,183381,6,0,P|401:293|435:296,1,70,2|0,0:0|0:0,0:0:0:0:
453,284,183690,2,0,P|442:247|445:211,1,70
453,195,184000,1,8,0:0:0:0:
467,65,184206,1,0,0:0:0:0:
447,55,184309,2,0,L|377:62,1,70
357,67,184618,5,2,0:0:0:0:
208,189,184825,1,0,0:0:0:0:
201,165,184928,2,0,L|199:105,1,52.5
271,246,185237,1,0,0:0:0:0:
267,77,185443,2,0,L|266:42,3,35
160,36,185855,6,0,L|67:26,1,70,2|0,0:0|0:0,0:0:0:0:
65,36,186165,2,0,L|60:106,1,70
59,128,186475,1,8,0:0:0:0:
33,270,186681,1,0,0:0:0:0:
21,291,186784,1,0,0:0:0:0:
167,263,186990,1,0,0:0:0:0:
181,280,187093,6,0,L|260:275,1,70,2|0,0:0|0:0,0:0:0:0:
270,288,187402,1,0,0:0:0:0:
354,173,187557,1,0,0:0:0:0:
354,173,187712,2,0,L|301:165,1,52.5,8|0,0:0|0:0,0:0:0:0:
276,56,188021,1,0,0:0:0:0:
177,160,188227,1,0,0:0:0:0:
159,149,188330,6,0,L|89:159,1,70,2|0,0:0|0:0,0:0:0:0:
74,145,188639,1,0,0:0:0:0:
66,301,188845,1,0,0:0:0:0:
83,289,188948,2,0,L|152:300,1,70,8|0,0:0|0:0,0:0:0:0:
171,286,189258,2,0,L|240:287,1,70
261,295,189567,5,0,0:0:0:0:
362,165,189773,1,0,0:0:0:0:
342,175,189876,2,0,L|272:173,1,70
251,182,190185,1,0,0:0:0:0:
93,199,190392,2,0,L|73:229,3,35
60,246,190804,5,2,0:0:0:0:
286,314,191113,1,2,0:0:0:0:
39,354,191423,1,2,0:0:0:0:
260,209,191629,1,2,0:0:0:0:
247,233,191732,1,2,0:0:0:0:
271,328,191938,1,2,0:0:0:0:
240,78,192247,1,2,0:0:0:0:
