osu file format v14

[General]
AudioFilename: audio.mp3
AudioLeadIn: 0
PreviewTime: 59670
Countdown: 1
SampleSet: Soft
StackLeniency: 0.7
Mode: 0
LetterboxInBreaks: 0
WidescreenStoryboard: 1

[Editor]
DistanceSpacing: 2.4
BeatDivisor: 6
GridSize: 4
TimelineZoom: 1

[Metadata]
Title:PLAYING WITH FIRE
TitleUnicode:불장난
Artist:BLACKPINK
ArtistUnicode:BLΛƆKPIИK
Creator:Lilyanna
Version:Hard
Source:
Tags:
BeatmapID:1850922
BeatmapSetID:885587

[Difficulty]
HPDrainRate:6
CircleSize:4
OverallDifficulty:6
ApproachRate:8
SliderMultiplier:1.8
SliderTickRate:1

[Events]
//Background and Video events
0,0,"jennie fire.jpg",0,0
//Break Periods
2,106680,107786
2,168736,170260
//Storyboard Layer 0 (Background)
//Storyboard Layer 1 (Fail)
//Storyboard Layer 2 (Pass)
//Storyboard Layer 3 (Foreground)
//Storyboard Sound Samples

[TimingPoints]
289,618.556701030928,4,2,1,65,1,0
10185,-100,4,2,1,80,0,1
20082,-100,4,2,1,65,0,0
59670,-100,4,2,1,80,0,1
79464,-100,4,2,1,65,0,0
108536,-50,4,2,1,65,0,0
109154,-100,4,2,1,65,0,0
128948,-100,4,2,1,80,0,1
148742,-100,4,2,1,65,0,0
171010,-100,4,2,1,80,0,1
190804,-100,4,2,0,65,0,0

[Colours]
Combo1 : 192,192,192
Combo2 : 255,214,193
Combo3 : 255,111,111
Combo4 : 255,156,108
Combo5 : 163,163,209

[HitObjects]
372,52,9876,5,8,0:0:0:0:
372,52,10185,6,0,P|361:120|369:147,1,90,4|0,0:0|0:0,0:0:0:0:
291,190,10804,2,0,P|302:232|294:275,1,60,8|0,0:2|0:0,0:0:0:0:
301,248,11113,1,0,0:0:0:0:
216,215,11423,2,0,P|148:204|118:215,1,90,2|0,0:0|0:0,0:0:0:0:
87,226,11886,1,0,0:0:0:0:
87,226,12041,2,0,L|77:125,1,90,8|0,0:0|0:0,0:0:0:0:
141,53,12557,1,0,0:0:0:0:
170,51,12660,6,0,P|225:47|272:61,1,90,2|0,0:0|0:0,0:0:0:0:
337,98,13278,2,0,L|412:73,1,60,8|0,0:0|0:0,0:0:0:0:
393,80,13587,1,0,0:0:0:0:
409,189,13897,2,0,L|347:199,1,60,2|0,0:0|0:0,0:0:0:0:
349,198,14206,1,0,0:0:0:0:
309,302,14515,1,8,0:0:0:0:
246,249,14721,2,0,L|153:263,1,90,0|0,0:0|0:0,0:0:0:0:
157,262,15134,6,0,P|146:194|154:167,1,90,4|0,0:0|0:0,0:0:0:0:
202,100,15753,2,0,P|213:58|205:15,1,60,8|0,0:2|0:0,0:0:0:0:
212,42,16062,1,0,0:0:0:0:
122,53,16372,2,0,P|54:42|24:53,1,90,2|0,0:0|0:0,0:0:0:0:
19,89,16835,1,0,0:0:0:0:
19,89,16990,2,0,L|9:190,1,90,8|0,0:0|0:0,0:0:0:0:
77,234,17506,1,0,0:0:0:0:
106,232,17609,6,0,P|161:228|208:242,1,90,2|0,0:0|0:0,0:0:0:0:
246,162,18227,2,0,L|321:137,1,60,8|0,0:0|0:0,0:0:0:0:
302,143,18536,1,0,0:0:0:0:
349,219,18846,2,0,L|287:240,1,60,2|0,0:0|0:0,0:0:0:0:
292,238,19155,1,0,0:0:0:0:
282,348,19464,1,8,0:0:0:0:
362,304,19670,2,0,L|458:295,1,90,0|0,0:0|0:0,0:0:0:0:
451,295,20082,5,4,1:0:0:0:
456,205,20392,1,0,0:0:0:0:
456,205,20546,1,0,0:0:0:0:
456,205,20701,2,0,P|449:160|453:116,1,90,8|0,0:0|0:0,0:0:0:0:
371,80,21319,2,0,P|303:93|224:72,1,150,2|0,0:0|0:0,0:0:0:0:
226,73,21938,1,8,0:0:0:0:
137,59,22247,2,0,L|121:124,1,60,0|0,0:0|0:0,0:0:0:0:
123,117,22557,5,2,0:0:0:0:
179,186,22866,2,0,L|159:279,1,90,0|8,0:0|0:0,0:0:0:0:
213,343,23484,1,0,0:0:0:0:
293,302,23794,2,0,L|300:250,2,45,2|0|0,0:0|0:0|0:0,0:0:0:0:
328,329,24258,1,0,0:0:0:0:
328,329,24412,2,0,P|389:318|445:337,1,90,8|0,0:0|0:0,0:0:0:0:
464,247,25031,5,2,0:0:0:0:
394,190,25340,1,0,0:0:0:0:
394,190,25495,1,0,0:0:0:0:
394,190,25649,2,0,P|380:129|399:94,1,90,8|0,0:0|0:0,0:0:0:0:
399,61,26113,1,0,0:0:0:0:
399,61,26268,2,0,L|275:69,1,90,2|0,0:0|0:0,0:0:0:0:
225,34,26886,2,0,L|101:42,1,90,8|0,0:0|0:0,0:0:0:0:
76,108,27505,6,0,P|87:170|62:250,1,135,2|0,0:0|0:0,0:0:0:0:
48,278,28124,2,0,L|148:284,1,90,8|0,0:0|0:0,0:0:0:0:
226,268,28742,2,0,P|215:206|240:126,1,135,2|0,0:0|0:0,0:0:0:0:
254,98,29361,2,0,L|154:92,1,90,8|0,0:0|0:0,0:0:0:0:
84,51,29979,5,2,0:0:0:0:
53,136,30289,1,0,0:0:0:0:
53,136,30443,1,0,0:0:0:0:
53,136,30598,2,0,L|50:238,1,90,8|0,0:0|0:0,0:0:0:0:
106,296,31216,2,0,P|176:280|247:302,1,135,2|0,0:0|0:0,0:0:0:0:
274,271,31835,2,0,L|276:181,1,90,8|0,0:0|0:0,0:0:0:0:
224,107,32453,5,2,0:0:0:0:
293,49,32763,1,0,0:0:0:0:
293,49,32917,1,0,0:0:0:0:
293,49,33072,2,0,L|385:51,1,90,8|0,0:0|0:0,0:0:0:0:
410,136,33691,2,0,P|400:194|410:238,1,90,2|0,0:0|0:0,0:0:0:0:
481,272,34309,2,0,P|490:228|485:183,1,90,8|0,0:0|0:0,0:0:0:0:
410,136,34928,5,2,0:0:0:0:
385,49,35237,1,0,0:0:0:0:
385,49,35392,1,0,0:0:0:0:
385,49,35546,2,0,L|276:59,1,90,8|0,0:0|0:0,0:0:0:0:
252,71,36010,1,0,0:0:0:0:
252,71,36165,2,0,P|256:123|227:187,1,90,2|0,0:0|0:0,0:0:0:0:
216,193,36629,1,0,0:0:0:0:
216,193,36783,2,0,P|164:189|143:195,2,45,8|0|0,0:0|0:0|0:0,0:0:0:0:
127,111,37402,6,0,P|139:175|94:260,1,135,0|0,0:0|0:0,0:0:0:0:
158,249,38020,2,0,L|245:229,1,90,8|0,0:0|0:0,0:0:0:0:
303,299,38639,2,0,P|291:235|336:150,1,135,0|0,0:0|0:0,0:0:0:0:
339,133,39258,2,0,L|233:110,1,90,8|0,0:0|0:0,0:0:0:0:
293,34,39876,6,0,L|380:53,1,90,6|0,0:0|0:0,0:0:0:0:
422,70,40340,1,0,0:0:0:0:
422,70,40495,2,0,P|399:126|423:186,1,90,8|0,0:0|0:0,0:0:0:0:
417,242,41113,2,0,P|419:286|398:325,1,90,2|0,0:0|0:0,0:0:0:0:
356,342,41577,1,0,0:0:0:0:
356,342,41732,2,0,L|262:351,1,90,8|0,0:0|0:0,0:0:0:0:
253,261,42350,6,0,L|163:269,1,90,2|0,0:0|0:0,0:0:0:0:
118,276,42814,1,0,0:0:0:0:
118,276,42969,2,0,P|125:213|106:169,1,90,8|0,0:0|0:0,0:0:0:0:
138,101,43587,2,0,L|257:97,1,90,0|0,0:0|0:0,0:0:0:0:
270,82,44051,1,0,0:0:0:0:
270,82,44206,2,0,L|389:78,1,90,8|0,0:0|0:0,0:0:0:0:
398,102,44670,1,0,0:0:0:0:
398,102,44825,6,0,P|388:154|412:214,1,90,2|0,0:0|0:0,0:0:0:0:
362,272,45443,2,0,L|267:285,1,90,8|0,0:0|0:0,0:0:0:0:
201,339,46062,2,0,L|106:352,1,90,2|0,0:0|0:0,0:0:0:0:
67,341,46526,1,0,0:0:0:0:
67,341,46680,2,0,P|79:272|62:222,1,90,8|0,0:0|0:0,0:0:0:0:
110,170,47299,6,0,B|153:157|153:191|208:167,1,90,2|0,0:0|0:0,0:0:0:0:
216,82,47917,2,0,B|259:95|259:61|303:81,1,90,8|0,0:0|0:0,0:0:0:0:
380,126,48536,2,0,P|352:198|369:241,1,90,2|0,0:0|0:0,0:0:0:0:
348,252,49000,1,0,0:0:0:0:
348,252,49154,2,0,L|249:246,1,90,8|0,0:0|0:0,0:0:0:0:
213,241,49618,1,0,0:0:0:0:
213,241,49773,6,0,L|123:246,1,90,2|0,0:0|0:0,0:0:0:0:
49,194,50392,2,0,L|41:142,2,45,8|0|0,0:0|0:0|0:0,0:0:0:0:
134,167,51010,2,0,L|140:122,2,45,2|0|0,0:0|0:0|0:0,0:0:0:0:
177,246,51629,2,0,L|266:240,1,90,8|0,0:0|0:0,0:0:0:0:
330,177,52247,6,0,L|336:132,2,45,2|0|0,0:0|0:0|0:0,0:0:0:0:
350,217,52711,1,0,0:0:0:0:
350,217,52866,2,0,P|414:207|453:228,1,90,8|0,0:0|0:0,0:0:0:0:
480,208,53330,1,0,0:0:0:0:
480,208,53484,2,0,P|472:146|487:117,1,90,2|0,0:0|0:0,0:0:0:0:
485,77,53948,1,0,0:0:0:0:
485,77,54103,2,0,L|384:81,1,90,8|0,0:0|0:0,0:0:0:0:
256,192,54721,12,0,57196,0:0:0:0:
292,280,59670,6,0,P|360:288|402:288,1,90,6|0,0:0|0:0,0:0:0:0:
449,228,60289,2,0,L|469:184,2,45,8|0|0,0:0|0:0|0:0,0:0:0:0:
360,210,60907,2,0,L|412:115,1,90,2|0,0:0|0:0,0:0:0:0:
338,67,61526,1,8,0:0:0:0:
248,55,61835,2,0,L|183:67,1,60,0|0,0:0|0:0,0:0:0:0:
188,65,62144,6,0,P|212:119|183:178,1,90,2|0,0:0|0:0,0:0:0:0:
127,190,62763,2,0,P|111:144|114:137,2,45,8|0|0,0:0|0:0|0:0,0:0:0:0:
172,269,63381,2,0,L|271:271,1,90,2|0,0:0|0:0,0:0:0:0:
306,274,63845,1,0,0:0:0:0:
306,274,64000,2,0,P|295:223|339:135,1,135,8|0,0:0|0:0,0:0:0:0:
307,106,64618,6,0,P|239:114|197:114,1,90,2|0,0:0|0:0,0:0:0:0:
143,62,65237,2,0,L|163:18,2,45,8|0|0,0:0|0:0|0:0,0:0:0:0:
63,104,65855,2,0,L|55:204,1,90,2|0,0:0|0:0,0:0:0:0:
38,282,66474,1,8,0:0:0:0:
128,275,66783,2,0,L|195:264,1,60,0|0,0:0|0:0,0:0:0:0:
187,265,67093,5,2,0:0:0:0:
250,201,67402,1,0,0:0:0:0:
250,201,67557,1,0,0:0:0:0:
250,201,67711,2,0,P|234:141|248:102,1,90,8|0,0:0|0:0,0:0:0:0:
323,79,68329,2,0,L|422:81,1,90,2|0,0:0|0:0,0:0:0:0:
454,112,68793,1,0,0:0:0:0:
454,112,68948,2,0,P|432:164|459:254,1,135,8|0,0:0|0:0,0:0:0:0:
413,269,69567,6,0,P|345:261|303:261,1,90,6|0,0:0|0:0,0:0:0:0:
251,206,70186,2,0,L|271:162,2,45,8|0|0,0:0|0:0|0:0,0:0:0:0:
165,177,70804,2,0,L|214:81,1,90,2|0,0:0|0:0,0:0:0:0:
245,15,71423,1,8,0:0:0:0:
156,28,71732,2,0,L|82:45,1,60,0|0,0:0|0:0,0:0:0:0:
97,41,72041,6,0,P|121:95|92:154,1,90,2|0,0:0|0:0,0:0:0:0:
39,171,72660,2,0,P|23:125|26:118,2,45,8|0|0,0:0|0:0|0:0,0:0:0:0:
98,239,73278,2,0,L|197:241,1,90,2|0,0:0|0:0,0:0:0:0:
231,229,73742,1,0,0:0:0:0:
231,229,73897,2,0,P|220:178|264:90,1,135,8|0,0:0|0:0,0:0:0:0:
293,115,74515,6,0,P|361:123|403:123,1,90,2|0,0:0|0:0,0:0:0:0:
467,92,75134,2,0,L|447:48,2,45,8|0|0,0:0|0:0|0:0,0:0:0:0:
453,180,75752,2,0,L|429:281,1,90,2|0,0:0|0:0,0:0:0:0:
407,354,76371,1,8,0:0:0:0:
328,309,76680,2,0,L|261:296,1,60,0|0,0:0|0:0,0:0:0:0:
269,297,76990,5,2,0:0:0:0:
236,213,77299,1,0,0:0:0:0:
236,213,77454,1,0,0:0:0:0:
236,213,77608,2,0,P|252:153|238:114,1,90,8|0,0:0|0:0,0:0:0:0:
184,61,78226,2,0,L|85:63,1,90,0|0,0:0|0:0,0:0:0:0:
55,82,78690,1,0,0:0:0:0:
55,82,78845,2,0,B|30:151|67:150|45:238,1,135,0|0,0:0|0:0,0:0:0:0:
72,254,79464,6,0,P|138:241|218:276,1,135,4|0,0:0|0:0,0:0:0:0:
245,266,80082,2,0,L|251:164,1,90,0|0,3:0|0:0,0:0:0:0:
340,185,80701,2,0,L|346:83,1,90,0|0,3:0|0:0,0:0:0:0:
269,46,81319,2,0,P|203:59|123:24,1,135,0|0,3:0|0:0,0:0:0:0:
94,38,81938,6,0,P|104:91|82:164,1,90,0|0,3:0|0:0,0:0:0:0:
33,187,82557,2,0,P|23:230|28:275,1,90,0|0,3:0|0:0,0:0:0:0:
104,322,83175,2,0,L|220:315,1,90,0|0,3:0|0:0,0:0:0:0:
233,295,83639,1,0,0:0:0:0:
233,295,83794,2,0,L|349:288,1,90,0|0,3:0|0:0,0:0:0:0:
385,225,84412,6,0,B|408:159|344:159|397:72,1,135,0|0,3:0|0:0,0:0:0:0:
352,62,85031,2,0,L|259:76,1,90,0|0,3:0|0:0,0:0:0:0:
182,36,85649,2,0,L|89:50,1,90,0|0,3:0|0:0,0:0:0:0:
57,132,86268,2,0,B|48:170|48:170|56:239|56:239|50:284,1,135,0|0,3:0|0:0,0:0:0:0:
91,288,86886,6,0,P|146:281|186:290,1,90,0|0,3:0|0:0,0:0:0:0:
263,320,87505,2,0,P|307:327|351:319,1,90,0|0,3:0|0:0,0:0:0:0:
393,239,88124,2,0,L|385:144,1,90,0|0,3:0|0:0,0:0:0:0:
317,90,88742,2,0,L|200:98,1,90,0|0,3:0|0:0,0:0:0:0:
170,166,89361,6,0,L|177:255,1,90,0|0,3:0|0:0,0:0:0:0:
113,319,89979,2,0,L|52:326,2,45,0|0|0,3:0|0:0|0:0,0:0:0:0:
201,338,90598,2,0,L|294:331,1,90,0|0,3:0|0:0,0:0:0:0:
321,297,91062,1,0,0:0:0:0:
321,297,91216,2,0,P|311:238|328:178,1,90,0|0,3:0|0:0,0:0:0:0:
412,131,91835,6,0,L|422:70,2,45,0|0|0,3:0|0:0|0:0,0:0:0:0:
367,139,92299,1,0,0:0:0:0:
367,139,92453,2,0,P|296:128|252:148,1,90,0|0,3:0|0:0,0:0:0:0:
112,174,93072,2,0,P|183:185|227:165,1,90,0|0,3:0|0:0,0:0:0:0:
163,97,93691,1,0,3:0:0:0:
43,207,94000,1,0,0:0:0:0:
43,207,94154,1,0,0:0:0:0:
43,207,94309,6,0,P|59:254|44:301,1,90,0|0,3:0|0:0,0:0:0:0:
46,336,94773,1,0,0:0:0:0:
46,336,94928,2,0,P|125:326|149:329,1,90,0|0,3:0|0:0,0:0:0:0:
193,258,95546,2,0,L|184:193,2,45,0|0|0,3:0|0:0|0:0,0:0:0:0:
231,280,96010,1,0,0:0:0:0:
231,280,96165,2,0,P|275:280|319:270,1,90,0|0,3:0|0:0,0:0:0:0:
348,105,96783,6,0,P|347:149|357:193,1,90,0|0,3:0|0:0,0:0:0:0:
396,216,97247,1,0,0:0:0:0:
396,216,97402,2,0,P|456:203|497:211,1,90,0|0,3:0|0:0,0:0:0:0:
105,62,99103,5,0,0:0:0:0:
105,62,99258,2,0,P|97:118|101:157,1,90,6|0,0:0|0:0,0:0:0:0:
127,186,99721,1,0,0:0:0:0:
127,186,99876,2,0,P|135:242|131:281,1,90,8|0,0:0|0:0,0:0:0:0:
103,360,100495,2,0,L|51:361,2,45,2|0|0,0:0|0:0|0:0,0:0:0:0:
147,367,100959,1,0,0:0:0:0:
147,367,101113,2,0,L|272:361,1,90,8|0,0:0|0:0,0:0:0:0:
283,285,101732,6,0,L|276:176,1,90,2|0,0:0|0:0,0:0:0:0:
250,158,102196,1,0,0:0:0:0:
250,158,102350,2,0,L|243:49,1,90,8|0,0:0|0:0,0:0:0:0:
330,42,102969,2,0,P|382:49|434:34,1,90,2|0,0:0|0:0,0:0:0:0:
461,29,103433,1,0,0:0:0:0:
461,29,103587,2,0,L|466:118,1,90,8|0,0:0|0:0,0:0:0:0:
416,193,104206,6,0,P|355:193|316:218,1,90,0|0,0:0|0:0,0:0:0:0:
296,235,104670,1,0,0:0:0:0:
296,235,104825,2,0,L|269:125,1,90,0|0,0:0|0:0,0:0:0:0:
184,149,105443,2,0,L|162:236,1,90,0|0,0:0|0:0,0:0:0:0:
131,268,105907,1,0,0:0:0:0:
131,268,106062,1,0,0:0:0:0:
274,39,108536,6,0,P|237:132|218:33,1,270,0|0,0:0|0:0,0:0:0:0:
219,34,109154,6,0,L|132:53,1,90,6|0,0:0|0:0,0:0:0:0:
90,70,109618,1,0,0:0:0:0:
90,70,109773,2,0,P|113:126|89:186,1,90,8|0,0:0|0:0,0:0:0:0:
18,150,110391,2,0,P|16:194|37:233,1,90,2|0,0:0|0:0,0:0:0:0:
77,254,110855,1,0,0:0:0:0:
77,254,111010,2,0,L|171:263,1,90,8|0,0:0|0:0,0:0:0:0:
207,342,111628,6,0,L|297:350,1,90,2|0,0:0|0:0,0:0:0:0:
336,329,112092,1,0,0:0:0:0:
336,329,112247,2,0,P|329:266|348:222,1,90,8|0,0:0|0:0,0:0:0:0:
398,175,112866,2,0,P|407:131|398:87,1,90,0|0,0:0|0:0,0:0:0:0:
361,61,113329,1,0,0:0:0:0:
361,61,113484,2,0,L|242:57,1,90,8|0,0:0|0:0,0:0:0:0:
226,62,113948,1,0,0:0:0:0:
226,62,114103,6,0,P|236:114|212:174,1,90,2|0,0:0|0:0,0:0:0:0:
138,163,114721,2,0,L|43:176,1,90,8|0,0:0|0:0,0:0:0:0:
46,265,115340,2,0,L|141:278,1,90,2|0,0:0|0:0,0:0:0:0:
180,276,115804,1,0,0:0:0:0:
180,276,115958,2,0,P|168:345|185:395,1,90,8|0,0:0|0:0,0:0:0:0:
261,370,116577,6,0,P|273:301|256:251,1,90,2|0,0:0|0:0,0:0:0:0:
303,198,117196,1,8,0:0:0:0:
265,116,117505,2,0,L|214:109,1,45,0|0,0:0|0:0,0:0:0:0:
175,112,117814,2,0,P|203:184|186:227,1,90,2|0,0:0|0:0,0:0:0:0:
176,231,118278,1,0,0:0:0:0:
176,231,118432,2,0,L|77:225,1,90,8|0,0:0|0:0,0:0:0:0:
51,196,118896,1,0,0:0:0:0:
51,196,119051,6,0,L|56:106,1,90,2|0,0:0|0:0,0:0:0:0:
144,85,119670,2,0,L|150:34,2,45,8|0|0,0:0|0:0|0:0,0:0:0:0:
219,134,120288,2,0,L|225:178,2,45,2|0|0,0:0|0:0|0:0,0:0:0:0:
273,61,120907,2,0,L|362:66,1,90,8|0,0:0|0:0,0:0:0:0:
377,155,121525,6,0,L|370:199,2,45,2|0|0,0:0|0:0|0:0,0:0:0:0:
419,138,121989,1,0,0:0:0:0:
419,138,122144,2,0,P|483:128|522:149,1,90,8|0,0:0|0:0,0:0:0:0:
498,181,122608,1,0,0:0:0:0:
498,181,122762,2,0,P|490:243|505:272,1,90,0|0,0:0|0:0,0:0:0:0:
489,310,123226,1,2,0:0:0:0:
489,310,123381,2,0,L|399:306,1,90,8|0,0:0|0:0,0:0:0:0:
256,192,123999,12,0,126474,0:0:0:0:
295,282,128948,6,0,B|253:270|253:270|189:284,1,90,6|0,0:0|0:0,0:0:0:0:
119,261,129567,2,0,L|99:217,2,45,8|0|0,0:0|0:0|0:0,0:0:0:0:
186,201,130185,2,0,L|143:105,1,90,2|0,0:0|0:0,0:0:0:0:
107,38,130804,1,8,0:0:0:0:
196,39,131113,2,0,L|266:53,1,60,0|0,0:0|0:0,0:0:0:0:
254,50,131422,6,0,L|259:163,1,90,2|0,0:0|0:0,0:0:0:0:
347,152,132041,2,0,L|346:95,2,45,8|0|0,0:0|0:0|0:0,0:0:0:0:
338,242,132659,2,0,L|239:244,1,90,2|0,0:0|0:0,0:0:0:0:
204,233,133123,1,0,0:0:0:0:
204,233,133278,2,0,P|215:182|171:94,1,135,8|0,0:0|0:0,0:0:0:0:
203,65,133896,6,0,B|242:86|242:86|313:73,1,90,2|0,0:0|0:0,0:0:0:0:
376,67,134515,2,0,L|396:23,2,45,8|0|0,0:0|0:0|0:0,0:0:0:0:
330,144,135133,2,0,L|326:247,1,90,2|0,0:0|0:0,0:0:0:0:
360,317,135752,1,8,0:0:0:0:
270,323,136061,2,0,L|196:312,1,60,0|0,0:0|0:0,0:0:0:0:
210,314,136371,5,2,0:0:0:0:
185,227,136680,1,0,0:0:0:0:
185,227,136835,1,0,0:0:0:0:
185,227,136989,2,0,P|201:167|187:128,1,90,8|0,0:0|0:0,0:0:0:0:
133,75,137607,2,0,L|34:77,1,90,2|0,0:0|0:0,0:0:0:0:
3,96,138071,1,0,0:0:0:0:
3,96,138227,2,0,P|25:148|-2:238,1,135,8|0,0:0|0:0,0:0:0:0:
42,253,138845,6,0,B|83:240|83:240|152:245,1,90,6|0,0:0|0:0,0:0:0:0:
182,316,139464,2,0,L|162:360,2,45,8|0|0,0:0|0:0|0:0,0:0:0:0:
227,238,140082,2,0,L|223:133,1,90,2|0,0:0|0:0,0:0:0:0:
228,58,140701,1,8,0:0:0:0:
317,50,141010,2,0,L|379:61,1,60,0|0,0:0|0:0,0:0:0:0:
376,60,141319,6,0,P|357:115|381:173,1,90,2|0,0:0|0:0,0:0:0:0:
450,123,141938,2,0,L|503:136,2,45,8|0|0,0:0|0:0|0:0,0:0:0:0:
438,212,142556,2,0,L|439:301,1,90,0|0,0:0|0:0,0:0:0:0:
405,331,143020,1,0,0:0:0:0:
405,331,143175,2,0,P|354:320|249:338,1,135,0|0,0:0|0:0,0:0:0:0:
248,290,143793,6,0,B|207:277|207:277|138:298,1,90,2|0,0:0|0:0,0:0:0:0:
133,205,144412,2,0,L|153:161,2,45,8|0|0,0:0|0:0|0:0,0:0:0:0:
44,188,145030,2,0,L|85:92,1,90,2|0,0:0|0:0,0:0:0:0:
147,44,145649,1,8,0:0:0:0:
233,69,145958,2,0,L|304:56,1,60,0|0,0:0|0:0,0:0:0:0:
292,58,146268,5,2,0:0:0:0:
349,148,146577,1,0,0:0:0:0:
349,148,146732,1,0,0:0:0:0:
349,148,146886,2,0,P|333:208|347:247,1,90,8|0,0:0|0:0,0:0:0:0:
269,289,147504,2,0,L|179:287,1,90,2|0,0:0|0:0,0:0:0:0:
144,260,147968,1,0,0:0:0:0:
144,260,148123,2,0,B|169:191|132:192|154:104,1,135,2|0,0:0|0:0,0:0:0:0:
170,86,148742,6,0,P|216:95|314:73,1,135,4|0,1:0|0:0,0:0:0:0:
345,89,149361,2,0,P|343:148|351:191,1,90,2|0,0:0|0:0,0:0:0:0:
304,256,149979,2,0,L|201:272,1,90,2|0,0:0|0:0,0:0:0:0:
162,196,150598,2,0,L|59:212,1,90,2|0,0:0|0:0,0:0:0:0:
40,125,151216,6,0,L|52:35,1,90,2|0,0:0|0:0,0:0:0:0:
142,39,151835,2,0,L|154:129,1,90,2|0,0:0|0:0,0:0:0:0:
237,160,152453,2,0,P|283:150|332:166,1,90,2|0,0:0|0:0,0:0:0:0:
365,177,152917,1,0,0:0:0:0:
365,177,153072,2,0,L|377:87,1,90,2|0,0:0|0:0,0:0:0:0:
466,100,153691,6,0,L|454:190,1,90,2|0,0:0|0:0,0:0:0:0:
398,259,154309,2,0,L|293:267,1,90,2|0,0:0|0:0,0:0:0:0:
236,320,154928,2,0,L|131:328,1,90,2|0,0:0|0:0,0:0:0:0:
73,274,155546,2,0,L|70:180,1,90,2|0,0:0|0:0,0:0:0:0:
147,138,156165,6,0,P|186:147|258:130,1,90,2|0,0:0|0:0,0:0:0:0:
277,61,156783,2,0,P|321:54|365:63,1,90,2|0,0:0|0:0,0:0:0:0:
428,127,157402,2,0,L|424:224,1,90,2|0,0:0|0:0,0:0:0:0:
363,283,158020,2,0,L|242:296,1,90,2|0,0:0|0:0,0:0:0:0:
191,255,158639,6,0,P|202:192|188:157,1,90,2|0,0:0|0:0,0:0:0:0:
116,122,159258,2,0,P|105:185|119:220,1,90,2|0,0:0|0:0,0:0:0:0:
194,168,159876,2,0,L|283:158,1,90,2|0,0:0|0:0,0:0:0:0:
326,144,160340,1,0,0:0:0:0:
326,144,160495,2,0,P|310:87|313:55,1,90,2|0,0:0|0:0,0:0:0:0:
395,92,161113,6,0,P|411:149|395:231,1,135,2|0,0:0|0:0,0:0:0:0:
390,267,161732,2,0,P|453:268|485:285,1,90,2|0,0:0|0:0,0:0:0:0:
458,367,162350,2,0,P|395:366|363:349,1,90,2|0,0:0|0:0,0:0:0:0:
327,344,162814,1,0,0:0:0:0:
327,344,162969,2,0,L|201:351,1,90,2|0,0:0|0:0,0:0:0:0:
165,294,163587,6,0,P|172:237|144:155,1,135,2|0,0:0|0:0,0:0:0:0:
155,118,164206,2,0,L|245:111,1,90,2|0,0:0|0:0,0:0:0:0:
332,133,164825,2,0,L|326:230,1,90,2|0,0:0|0:0,0:0:0:0:
342,265,165289,1,0,0:0:0:0:
342,265,165443,2,0,P|396:247|454:260,1,90,2|0,0:0|0:0,0:0:0:0:
256,192,166062,12,0,168536,0:0:0:0:
449,100,171010,6,0,B|423:99|407:88|407:88|343:102,1,90,6|0,0:0|0:0,0:0:0:0:
239,69,171629,2,0,L|278:42,2,45,8|0|0,0:0|0:0|0:0,0:0:0:0:
317,167,172247,2,0,L|215:153,1,90,2|0,0:0|0:0,0:0:0:0:
152,105,172866,1,8,0:0:0:0:
158,231,173175,2,0,L|89:245,1,60,0|0,0:0|0:0,0:0:0:0:
99,242,173484,6,0,L|104:355,1,90,2|0,0:0|0:0,0:0:0:0:
199,340,174103,2,0,L|198:283,2,45,8|0|0,0:0|0:0|0:0,0:0:0:0:
366,247,174721,2,0,L|267:249,1,90,2|0,0:0|0:0,0:0:0:0:
253,209,175185,1,0,0:0:0:0:
253,209,175340,2,0,P|264:158|220:70,1,135,0|0,0:0|0:0,0:0:0:0:
253,42,175958,6,0,B|292:72|363:50,1,90,2|0,0:0|0:0,0:0:0:0:
327,145,176577,2,0,L|308:185,2,45,8|0|0,0:0|0:0|0:0,0:0:0:0:
488,111,177195,2,0,L|398:107,1,90,2|0,0:0|0:0,0:0:0:0:
333,44,177814,1,8,0:0:0:0:
161,78,178123,2,0,L|228:88,1,60,0|0,0:0|0:0,0:0:0:0:
220,86,178433,5,2,0:0:0:0:
309,122,178742,1,0,0:0:0:0:
263,199,179051,2,0,P|247:259|261:298,1,90,8|0,0:0|0:0,0:0:0:0:
349,251,179567,1,0,0:0:0:0:
372,266,179669,2,0,L|461:264,1,90,0|0,0:0|0:0,0:0:0:0:
486,238,180133,1,0,0:0:0:0:
486,238,180288,2,0,P|454:159|491:96,1,150,0|0,0:0|0:0,0:0:0:0:
466,78,180907,6,0,B|425:91|425:91|356:86,1,90,6|0,0:0|0:0,0:0:0:0:
296,126,181526,2,0,L|276:170,2,45,8|0|0,0:0|0:0|0:0,0:0:0:0:
197,240,182144,2,0,L|193:135,1,90,2|0,0:0|0:0,0:0:0:0:
220,63,182763,1,8,0:0:0:0:
68,83,183072,2,0,L|132:93,1,60,0|0,0:0|0:0,0:0:0:0:
127,92,183381,6,0,P|108:147|132:205,1,90,2|0,0:0|0:0,0:0:0:0:
193,150,184000,2,0,L|246:163,2,45,8|0|0,0:0|0:0|0:0,0:0:0:0:
316,76,184618,2,0,L|317:165,1,90,2|0,0:0|0:0,0:0:0:0:
323,210,185082,1,0,0:0:0:0:
323,210,185237,2,0,P|374:199|453:246,1,135,0|0,0:0|0:0,0:0:0:0:
456,191,185855,6,0,B|442:146|442:146|455:105,1,90,2|0,0:0|0:0,0:0:0:0:
365,101,186474,2,0,L|386:45,2,45,8|0|0,0:0|0:0|0:0,0:0:0:0:
249,130,187092,2,0,L|290:34,1,90,2|0,0:0|0:0,0:0:0:0:
194,38,187711,1,8,0:0:0:0:
69,131,188020,2,0,L|137:119,1,60,0|0,0:0|0:0,0:0:0:0:
128,120,188330,5,2,0:0:0:0:
224,95,188639,1,0,0:0:0:0:
219,186,188948,2,0,P|203:246|217:285,1,90,8|0,0:0|0:0,0:0:0:0:
287,303,189464,1,0,0:0:0:0:
305,321,189566,2,0,L|395:323,1,90,0|0,0:0|0:0,0:0:0:0:
430,294,190030,1,0,0:0:0:0:
430,294,190185,2,0,B|405:225|442:226|420:138,1,135,0|0,0:0|0:0,0:0:0:0:
394,126,190804,6,0,L|297:143,1,90,2|2,0:0|0:0,0:0:0:0:
180,82,191423,2,0,L|248:90,1,60,2|2,0:0|0:0,0:0:0:0:
239,89,191732,1,2,0:0:0:0:
394,126,191938,2,0,L|297:143,1,90,2|2,0:0|0:0,0:0:0:0:
