osu file format v14

[General]
AudioFilename: audio.mp3
AudioLeadIn: 0
PreviewTime: 71498
Countdown: 0
SampleSet: Normal
StackLeniency: 0.7
Mode: 1
LetterboxInBreaks: 0
WidescreenStoryboard: 0

[Editor]
Bookmarks: 14793,29338,43884,58429,91157,105702,120248,138429
DistanceSpacing: 1.4
BeatDivisor: 3
GridSize: 32
TimelineZoom: 1.7

[Metadata]
Title:Kill This Love
TitleUnicode:Kill This Love
Artist:BLACKPINK
ArtistUnicode:BLACKPINK
Creator:Blackener
Version:Futsuu
Source:
Tags:Roger ][ -GH- ][ korean k-pop kpop 블핑 블랙핑크 지수 jisoo 제니 jennie 로제 rosÉ rose 리사 lisa yg entertainment
BeatmapID:2387666
BeatmapSetID:1143472

[Difficulty]
HPDrainRate:6
CircleSize:5
OverallDifficulty:4
ApproachRate:5
SliderMultiplier:1.4
SliderTickRate:3

[Events]
//Background and Video events
0,0,"Futsuu.jpg",0,100
//Break Periods
//Storyboard Layer 0 (Background)
//Storyboard Layer 1 (Fail)
//Storyboard Layer 2 (Pass)
//Storyboard Layer 3 (Foreground)
//Storyboard Layer 4 (Overlay)
//Storyboard Sound Samples

[TimingPoints]
248,454.545454545455,4,1,0,80,1,0
7520,-100,4,1,0,75,0,0
14793,-100,4,1,0,80,0,0
27520,-100,4,1,0,70,0,0
29338,-100,4,1,0,80,0,0
42975,-100,4,1,0,60,0,0
43884,-100,4,1,0,70,0,0
58429,-100,4,1,0,75,0,0
65702,-100,4,1,0,80,0,0
71308,-100,4,1,0,70,0,0
72975,-100,4,1,0,75,0,0
76611,454.545454545455,4,1,0,85,1,1
76611,-100,4,1,0,85,0,1
91156,-100,4,1,0,75,0,0
98429,-100,4,1,0,80,0,0
105701,-100,4,1,0,70,0,0
120246,-100,4,1,0,75,0,0
127520,-100,4,1,0,80,0,0
133126,-100,4,1,0,70,0,0
134792,-100,4,1,0,75,0,0
138429,454.545454545455,4,1,0,85,1,1
138429,-100,4,1,0,85,0,1
152974,-100,4,1,0,65,0,0
155701,-100,4,1,0,70,0,0
156610,454.545454545455,4,1,0,70,1,8
156620,454.545454545455,4,1,0,75,1,0
156620,-100,4,1,0,75,0,0
171155,454.545454545455,4,1,0,85,1,1
171155,-100,4,1,0,85,0,1
185700,-100,4,1,0,70,0,0

[HitObjects]
256,192,248,5,4,0:0:0:0:
256,192,1157,1,0,0:0:0:0:
256,192,1611,1,0,0:0:0:0:
256,192,1914,1,0,0:0:0:0:
256,192,2066,1,0,0:0:0:0:
256,192,2520,1,0,0:0:0:0:
256,192,2975,1,8,0:0:0:0:
256,192,3429,1,8,0:0:0:0:
256,192,3884,1,4,0:0:0:0:
256,192,4793,1,0,0:0:0:0:
256,192,5248,1,0,0:0:0:0:
256,192,5551,1,0,0:0:0:0:
256,192,5702,1,0,0:0:0:0:
256,192,6157,1,0,0:0:0:0:
256,192,6611,1,8,0:0:0:0:
256,192,7066,1,8,0:0:0:0:
256,192,7520,1,4,0:0:0:0:
256,192,8429,1,8,0:0:0:0:
256,192,8884,1,8,0:0:0:0:
256,192,9187,1,8,0:0:0:0:
256,192,9338,1,8,0:0:0:0:
256,192,9793,1,0,0:0:0:0:
256,192,10248,1,8,0:0:0:0:
256,192,10702,1,8,0:0:0:0:
256,192,11157,1,4,0:0:0:0:
256,192,12066,1,8,0:0:0:0:
256,192,12520,1,8,0:0:0:0:
256,192,12823,1,8,0:0:0:0:
256,192,12975,1,8,0:0:0:0:
256,224,13429,1,8,0:0:0:0:
288,192,14793,1,4,0:0:0:0:
256,192,15702,1,8,0:0:0:0:
256,192,16157,1,8,0:0:0:0:
256,192,16611,1,0,0:0:0:0:
288,192,17066,1,0,0:0:0:0:
288,192,17520,1,8,0:0:0:0:
288,192,17975,1,8,0:0:0:0:
288,192,18429,1,4,0:0:0:0:
288,192,19338,1,8,0:0:0:0:
256,192,19793,1,8,0:0:0:0:
288,192,20248,1,0,0:0:0:0:
288,192,20702,1,0,0:0:0:0:
256,192,21005,1,0,0:0:0:0:
288,192,21157,1,8,0:0:0:0:
288,192,21611,1,8,0:0:0:0:
256,192,22066,1,4,0:0:0:0:
288,192,22975,1,8,0:0:0:0:
256,192,23429,1,8,0:0:0:0:
288,192,23884,1,0,0:0:0:0:
288,192,24338,1,0,0:0:0:0:
288,192,24793,1,8,0:0:0:0:
288,192,25248,1,8,0:0:0:0:
288,192,25702,1,4,0:0:0:0:
256,192,26611,1,8,0:0:0:0:
256,192,27066,1,8,0:0:0:0:
256,192,27520,12,0,28884,0:0:0:0:
256,192,29338,5,4,0:0:0:0:
256,192,29793,1,0,0:0:0:0:
224,192,30096,1,0,0:0:0:0:
256,192,30248,1,8,0:0:0:0:
256,192,31157,1,0,0:0:0:0:
256,192,31611,1,0,0:0:0:0:
256,192,31914,1,0,0:0:0:0:
256,192,32066,1,8,0:0:0:0:
256,192,32975,1,4,0:0:0:0:
288,192,33429,1,0,0:0:0:0:
288,160,33884,1,8,0:0:0:0:
288,192,34338,1,8,0:0:0:0:
256,192,34793,1,0,0:0:0:0:
256,192,35248,1,0,0:0:0:0:
256,192,35551,1,0,0:0:0:0:
256,192,35702,1,8,0:0:0:0:
256,192,36611,1,4,0:0:0:0:
256,192,37066,1,0,0:0:0:0:
256,192,37520,1,8,0:0:0:0:
256,192,37975,1,8,0:0:0:0:
256,192,38429,1,0,0:0:0:0:
256,192,39338,1,8,0:0:0:0:
256,192,40248,1,4,0:0:0:0:
256,192,40702,1,8,0:0:0:0:
256,192,41157,1,0,0:0:0:0:
256,192,41611,1,8,0:0:0:0:
256,192,42066,1,0,0:0:0:0:
256,192,42520,1,8,0:0:0:0:
256,192,43884,1,0,0:0:0:0:
256,192,44793,1,8,0:0:0:0:
256,192,45702,1,0,0:0:0:0:
256,192,46611,1,8,0:0:0:0:
256,192,47066,1,0,0:0:0:0:
256,192,47520,1,0,0:0:0:0:
256,192,48429,1,8,0:0:0:0:
256,192,49338,1,0,0:0:0:0:
256,192,50248,1,8,0:0:0:0:
256,192,50702,1,8,0:0:0:0:
256,192,50929,1,8,0:0:0:0:
256,192,51157,1,0,0:0:0:0:
256,192,52066,1,8,0:0:0:0:
288,192,52975,1,0,0:0:0:0:
256,192,53884,1,8,0:0:0:0:
256,192,54338,1,8,0:0:0:0:
224,192,54793,1,0,0:0:0:0:
256,192,55702,1,8,0:0:0:0:
256,192,56611,1,0,0:0:0:0:
256,192,57520,1,8,0:0:0:0:
256,192,57975,1,8,0:0:0:0:
224,192,58202,1,8,0:0:0:0:
224,192,58429,1,4,0:0:0:0:
256,192,59111,1,0,0:0:0:0:
256,192,59338,1,8,0:0:0:0:
256,192,59793,1,8,0:0:0:0:
256,192,60248,1,0,0:0:0:0:
256,192,60475,1,8,0:0:0:0:
252,200,60929,1,0,0:0:0:0:
256,192,61157,1,8,0:0:0:0:
256,192,61611,1,8,0:0:0:0:
256,192,62066,1,8,0:0:0:0:
256,192,62748,1,0,0:0:0:0:
256,192,62975,1,8,0:0:0:0:
256,192,63429,1,8,0:0:0:0:
256,224,63884,1,0,0:0:0:0:
256,192,64111,1,8,0:0:0:0:
256,192,64566,1,0,0:0:0:0:
256,192,64793,1,8,0:0:0:0:
256,192,65248,1,0,0:0:0:0:
256,192,65702,1,8,0:0:0:0:
256,192,66611,1,8,0:0:0:0:
256,208,67066,1,8,0:0:0:0:
256,192,67520,1,8,0:0:0:0:
256,192,68429,1,8,0:0:0:0:
256,192,68884,1,8,0:0:0:0:
256,192,69338,1,0,0:0:0:0:
256,192,69793,1,8,0:0:0:0:
256,192,70248,1,8,0:0:0:0:
256,192,70551,1,8,0:0:0:0:
256,192,70702,1,8,0:0:0:0:
256,192,71157,1,4,0:0:0:0:
256,192,72975,1,0,0:0:0:0:
256,192,73884,1,8,0:0:0:0:
256,192,74338,1,8,0:0:0:0:
256,192,74641,1,8,0:0:0:0:
256,192,74793,1,8,0:0:0:0:
256,192,75248,1,8,0:0:0:0:
256,192,75702,1,0,0:0:0:0:
256,192,76611,1,4,0:0:0:0:
256,192,77520,1,8,0:0:0:0:
256,192,78429,1,0,0:0:0:0:
256,192,78884,1,0,0:0:0:0:
256,192,79186,1,0,0:0:0:0:
256,192,79338,1,8,0:0:0:0:
256,192,79793,1,8,0:0:0:0:
256,192,80248,1,4,0:0:0:0:
256,192,81157,1,8,0:0:0:0:
256,192,82066,1,0,0:0:0:0:
256,192,82520,1,8,0:0:0:0:
256,192,82975,1,8,0:0:0:0:
256,192,83277,1,8,0:0:0:0:
256,192,83429,1,8,0:0:0:0:
256,192,83884,1,4,0:0:0:0:
256,192,84792,1,8,0:0:0:0:
256,192,85702,1,0,0:0:0:0:
256,192,86156,1,0,0:0:0:0:
256,192,86459,1,0,0:0:0:0:
256,192,86611,1,8,0:0:0:0:
256,192,87066,1,8,0:0:0:0:
256,192,87520,1,4,0:0:0:0:
256,192,88429,1,8,0:0:0:0:
256,192,89338,1,0,0:0:0:0:
256,192,89792,1,0,0:0:0:0:
256,192,90095,1,0,0:0:0:0:
256,192,90248,1,8,0:0:0:0:
256,192,90702,1,8,0:0:0:0:
256,192,91157,1,4,0:0:0:0:
256,192,92975,1,4,0:0:0:0:
256,192,93429,1,4,0:0:0:0:
256,192,94793,1,4,0:0:0:0:
256,192,97066,1,12,0:0:0:0:
256,192,97520,1,12,0:0:0:0:
256,192,97975,1,12,0:0:0:0:
256,192,98429,1,4,0:0:0:0:
256,192,99338,1,8,0:0:0:0:
256,192,100248,1,4,0:0:0:0:
256,192,101157,1,8,0:0:0:0:
256,192,101611,1,8,0:0:0:0:
256,192,102066,1,4,0:0:0:0:
256,192,102975,1,8,0:0:0:0:
256,192,104338,1,12,0:0:0:0:
256,192,104793,1,12,0:0:0:0:
256,192,105248,1,12,0:0:0:0:
256,192,105702,1,0,0:0:0:0:
256,192,106611,1,8,0:0:0:0:
256,192,107520,1,0,0:0:0:0:
256,192,108429,1,8,0:0:0:0:
256,192,108884,1,0,0:0:0:0:
256,192,109338,1,0,0:0:0:0:
288,192,110248,1,8,0:0:0:0:
256,192,111157,1,0,0:0:0:0:
256,192,112066,1,8,0:0:0:0:
256,192,112520,1,8,0:0:0:0:
256,192,112747,1,8,0:0:0:0:
256,192,112975,1,0,0:0:0:0:
256,192,113884,1,8,0:0:0:0:
256,192,114793,1,0,0:0:0:0:
256,192,115702,1,8,0:0:0:0:
256,192,116156,1,8,0:0:0:0:
256,192,116611,1,0,0:0:0:0:
256,192,117520,1,8,0:0:0:0:
256,192,118429,1,0,0:0:0:0:
256,224,118884,1,0,0:0:0:0:
256,192,119338,1,8,0:0:0:0:
256,224,119793,1,8,0:0:0:0:
256,224,120020,1,8,0:0:0:0:
256,224,120248,1,4,0:0:0:0:
256,192,120929,1,0,0:0:0:0:
256,192,121156,1,8,0:0:0:0:
256,192,121611,1,8,0:0:0:0:
256,192,122066,1,0,0:0:0:0:
256,192,122293,1,8,0:0:0:0:
256,192,122747,1,0,0:0:0:0:
256,192,122975,1,8,0:0:0:0:
256,192,123429,1,8,0:0:0:0:
256,192,123884,1,8,0:0:0:0:
256,192,124566,1,0,0:0:0:0:
256,192,124793,1,8,0:0:0:0:
256,192,125247,1,8,0:0:0:0:
256,224,125702,1,0,0:0:0:0:
256,192,125929,1,8,0:0:0:0:
256,192,126384,1,0,0:0:0:0:
256,192,126611,1,8,0:0:0:0:
256,192,127066,1,8,0:0:0:0:
256,192,127520,1,8,0:0:0:0:
256,192,128429,1,8,0:0:0:0:
256,192,128883,1,8,0:0:0:0:
256,192,129338,1,8,0:0:0:0:
256,192,130247,1,8,0:0:0:0:
256,192,130701,1,8,0:0:0:0:
256,192,131156,1,0,0:0:0:0:
256,224,131611,1,8,0:0:0:0:
256,192,132066,1,8,0:0:0:0:
256,192,132369,1,8,0:0:0:0:
256,192,132520,1,8,0:0:0:0:
256,192,132975,1,4,0:0:0:0:
256,192,134793,1,0,0:0:0:0:
256,192,135702,1,8,0:0:0:0:
256,192,136156,1,8,0:0:0:0:
256,192,136459,1,8,0:0:0:0:
256,192,136611,1,8,0:0:0:0:
256,192,137066,1,8,0:0:0:0:
256,192,137520,1,0,0:0:0:0:
256,192,138429,1,4,0:0:0:0:
256,192,139338,1,8,0:0:0:0:
256,192,140247,1,0,0:0:0:0:
256,192,140701,1,0,0:0:0:0:
256,224,141004,1,0,0:0:0:0:
256,192,141156,1,8,0:0:0:0:
256,192,141611,1,8,0:0:0:0:
256,192,142066,1,4,0:0:0:0:
256,192,142975,1,8,0:0:0:0:
256,192,143884,1,0,0:0:0:0:
256,192,144338,1,8,0:0:0:0:
256,192,144793,1,8,0:0:0:0:
256,192,145095,1,8,0:0:0:0:
256,192,145247,1,8,0:0:0:0:
256,192,145702,1,4,0:0:0:0:
256,192,146610,1,8,0:0:0:0:
256,192,147520,1,0,0:0:0:0:
256,192,147974,1,0,0:0:0:0:
256,192,148277,1,0,0:0:0:0:
256,192,148429,1,8,0:0:0:0:
256,192,148884,1,8,0:0:0:0:
256,192,149338,1,4,0:0:0:0:
256,192,150247,1,8,0:0:0:0:
256,192,151156,1,0,0:0:0:0:
256,192,151611,1,0,0:0:0:0:
256,192,151913,1,0,0:0:0:0:
256,192,152066,1,8,0:0:0:0:
256,192,152520,1,8,0:0:0:0:
256,192,152975,12,0,155247,0:0:0:0:
256,192,155701,5,8,0:0:0:0:
256,192,156156,1,8,0:0:0:0:
256,192,156620,1,0,0:0:0:0:
256,192,157074,1,0,0:0:0:0:
256,192,157377,1,0,0:0:0:0:
288,192,157529,1,8,0:0:0:0:
256,192,158438,1,0,0:0:0:0:
256,192,158892,1,0,0:0:0:0:
256,192,159195,1,0,0:0:0:0:
256,192,159347,1,8,0:0:0:0:
256,192,160256,1,0,0:0:0:0:
256,192,160710,1,0,0:0:0:0:
256,192,161013,1,0,0:0:0:0:
256,192,161165,1,8,0:0:0:0:
256,192,161621,1,8,0:0:0:0:
256,192,162074,1,0,0:0:0:0:
256,192,163438,1,12,0:0:0:0:
256,192,163892,1,4,0:0:0:0:
256,192,164348,1,0,0:0:0:0:
256,192,164650,1,0,0:0:0:0:
256,192,164801,1,8,0:0:0:0:
256,192,165710,1,0,0:0:0:0:
256,192,166165,1,0,0:0:0:0:
256,192,166468,1,0,0:0:0:0:
256,192,166621,1,8,0:0:0:0:
256,192,167530,1,0,0:0:0:0:
256,192,167983,1,0,0:0:0:0:
256,192,168286,1,0,0:0:0:0:
256,192,168439,1,8,0:0:0:0:
256,192,168892,1,0,0:0:0:0:
256,192,169195,12,0,170710,0:0:0:0:
256,192,171155,5,4,0:0:0:0:
256,192,171609,1,0,0:0:0:0:
256,192,172064,1,12,0:0:0:0:
256,192,172518,1,0,0:0:0:0:
256,192,172973,1,12,0:0:0:0:
256,192,173882,1,8,0:0:0:0:
256,192,174336,1,8,0:0:0:0:
256,192,174791,1,4,0:0:0:0:
256,192,175245,1,0,0:0:0:0:
256,192,175700,1,12,0:0:0:0:
256,192,176155,1,0,0:0:0:0:
256,192,176609,1,12,0:0:0:0:
256,192,177518,1,8,0:0:0:0:
256,192,177821,1,8,0:0:0:0:
256,192,177973,1,8,0:0:0:0:
256,192,178427,1,4,0:0:0:0:
256,192,178882,1,0,0:0:0:0:
256,192,179336,1,12,0:0:0:0:
256,192,179791,1,0,0:0:0:0:
256,192,180245,1,12,0:0:0:0:
256,192,181155,1,8,0:0:0:0:
256,192,181609,1,8,0:0:0:0:
256,192,182064,1,4,0:0:0:0:
256,192,182518,1,0,0:0:0:0:
256,192,182973,1,12,0:0:0:0:
256,192,183427,1,0,0:0:0:0:
256,192,183882,1,12,0:0:0:0:
256,192,184791,1,8,0:0:0:0:
256,192,185245,1,8,0:0:0:0:
256,192,185700,1,0,0:0:0:0:
