osu file format v14

[General]
AudioFilename: audio.mp3
AudioLeadIn: 0
PreviewTime: 100087
Countdown: 0
SampleSet: Soft
StackLeniency: 0.5
Mode: 0
LetterboxInBreaks: 0
WidescreenStoryboard: 1

[Editor]
DistanceSpacing: 1.2
BeatDivisor: 4
GridSize: 32
TimelineZoom: 4.699997

[Metadata]
Title:How You Like That
TitleUnicode:How You Like That
Artist:BLACKPINK
ArtistUnicode:BLACKPINK
Creator:Stixy
Version:suyuko's Insane feat. Irre
Source:
Tags:korean k pop k-pop kpop hylt 블핑 블랙핑크 yg entertainment 지수 jisoo 제니 jennie 로제 rosÉ rose 리사 lisa nofc suyuko rosiie lyawi Irreversible armin a_r_m_i_n enerugi elinor eli [_eli_] derandom_otaku derandom otaku ren blackener shirahane suou english BLΛƆKPIИK _DUSK_
BeatmapID:2503001
BeatmapSetID:1201711

[Difficulty]
HPDrainRate:5
CircleSize:4
OverallDifficulty:8
ApproachRate:9
SliderMultiplier:1.8
SliderTickRate:1

[Events]
//Background and Video events
0,0,"bg.jpg",0,0
Video,-730,"video.avi"
//Break Periods
//Storyboard Layer 0 (Background)
//Storyboard Layer 1 (Fail)
//Storyboard Layer 2 (Pass)
//Storyboard Layer 3 (Foreground)
//Storyboard Layer 4 (Overlay)
//Storyboard Sound Samples

[TimingPoints]
1895,461.538461538462,4,2,1,50,1,0
1895,-166.666666666667,4,2,1,50,0,0
2818,-153.846153846154,4,2,1,50,0,0
3741,-142.857142857143,4,2,1,50,0,0
4664,-133.333333333333,4,2,1,50,0,0
5587,-125,4,2,1,50,0,0
6510,-117.647058823529,4,2,1,50,0,0
6856,-117.647058823529,4,2,1,5,0,0
6971,-117.647058823529,4,2,1,50,0,0
7318,-117.647058823529,4,2,1,5,0,0
7433,-117.647058823529,4,2,1,50,0,0
10895,-117.647058823529,4,2,1,50,0,0
12279,-125,4,2,1,50,0,0
12971,-125,4,2,1,60,0,0
12979,-125,4,2,1,60,0,0
18395,-125,4,2,1,5,0,0
18510,-125,4,2,1,60,0,0
27741,-111.111111111111,4,2,1,60,0,0
42395,-111.111111111111,4,2,1,60,0,0
42510,-55.5555555555556,4,2,1,80,0,1
42518,-55.5555555555556,4,2,1,80,0,1
42856,-55.5555555555556,4,2,1,5,0,1
42971,-62.5,4,2,1,80,0,1
43779,-62.5,4,2,1,80,0,1
43895,-62.5,4,2,1,80,0,1
44241,-62.5,4,2,1,5,0,1
44356,-62.5,4,2,1,80,0,1
46202,-55.5555555555556,4,2,1,80,0,1
46548,-55.5555555555556,4,2,1,5,0,1
46664,-62.5,4,2,1,80,0,1
47471,-62.5,4,2,1,80,0,1
47587,-62.5,4,2,1,80,0,1
47933,-62.5,4,2,1,5,0,1
48048,-62.5,4,2,1,80,0,1
49375,-62.5,4,2,1,80,0,1
49433,-62.5,4,2,1,80,0,1
49606,-62.5,4,2,1,80,0,1
49664,-62.5,4,2,1,80,0,1
49837,-62.5,4,2,1,80,0,1
49895,-55.5555555555556,4,2,1,80,0,1
50241,-55.5555555555556,4,2,1,5,0,1
50356,-62.5,4,2,1,80,0,1
53587,-55.5555555555556,4,2,1,80,0,1
53933,-55.5555555555556,4,2,1,5,0,1
54048,-62.5,4,2,1,80,0,1
54856,-62.5,4,2,1,80,0,1
54971,-62.5,4,2,1,80,0,1
55318,-62.5,4,2,1,5,0,1
55433,-62.5,4,2,1,80,0,1
56760,-62.5,4,2,1,80,0,1
56818,-62.5,4,2,1,80,0,1
56991,-62.5,4,2,1,80,0,1
57048,-62.5,4,2,1,80,0,1
57221,-62.5,4,2,1,80,0,1
57279,-62.5,4,2,1,80,0,1
59241,-62.5,4,2,1,80,0,1
59587,-62.5,4,2,1,80,0,1
61087,-62.5,4,2,1,80,0,1
61433,-62.5,4,2,1,80,0,1
64145,-62.5,4,2,1,80,0,1
64202,-62.5,4,2,1,80,0,1
64375,-62.5,4,2,1,80,0,1
64433,-62.5,4,2,1,80,0,1
64606,-62.5,4,2,1,80,0,1
64664,-62.5,4,2,1,80,0,1
72048,-60.2409638554217,4,2,1,70,0,0
72056,-60.2409638554217,4,2,1,70,0,0
72510,-81.9672131147541,4,2,1,70,0,0
73895,-129.87012987013,4,2,1,70,0,0
74356,-53.1914893617021,4,2,1,70,0,0
75279,-42.9184549356223,4,2,1,70,0,0
75971,-60.2409638554217,4,2,1,70,0,0
76260,-60.2409638554217,4,2,1,5,0,0
76433,-60.2409638554217,4,2,1,70,0,0
76721,-60.2409638554217,4,2,1,5,0,0
76895,-36.101083032491,4,2,1,70,0,0
76952,-36.101083032491,4,2,1,5,0,0
77125,-25.7731958762887,4,2,1,70,0,0
77183,-25.7731958762887,4,2,1,5,0,0
77356,-25.7731958762887,4,2,1,70,0,0
77587,-50.251256281407,4,2,1,70,0,0
78510,-125,4,2,1,70,0,0
79318,-125,4,2,1,70,0,0
79433,-76.9230769230769,4,2,1,70,0,0
79606,-75.187969924812,4,2,1,5,0,0
79664,-75.187969924812,4,2,1,70,0,0
79837,-75.187969924812,4,2,1,5,0,0
79895,-75.187969924812,4,2,1,70,0,0
80125,-151.515151515152,4,2,1,70,0,0
80298,-151.515151515152,4,2,1,5,0,0
80356,-151.515151515152,4,2,1,70,0,0
80529,-151.515151515152,4,2,1,5,0,0
80587,-151.515151515152,4,2,1,70,0,0
81279,-75.187969924812,4,2,1,70,0,0
81452,-75.187969924812,4,2,1,5,0,0
81510,-75.187969924812,4,2,1,70,0,0
81683,-75.187969924812,4,2,1,5,0,0
81741,-75.187969924812,4,2,1,70,0,0
81971,-151.515151515152,4,2,1,70,0,0
82144,-151.515151515152,4,2,1,5,0,0
82202,-151.515151515152,4,2,1,70,0,0
82375,-151.515151515152,4,2,1,5,0,0
82433,-151.515151515152,4,2,1,70,0,0
84510,-33.3333333333333,4,2,1,70,0,0
86818,-111.111111111111,4,2,1,60,0,0
86826,-111.111111111111,4,2,1,60,0,0
101471,-111.111111111111,4,2,1,60,0,0
101587,-55.5555555555556,4,2,1,80,0,1
101595,-55.5555555555556,4,2,1,80,0,1
101933,-55.5555555555556,4,2,1,5,0,1
102048,-62.5,4,2,1,80,0,1
102856,-62.5,4,2,1,80,0,1
102971,-62.5,4,2,1,80,0,1
103318,-62.5,4,2,1,5,0,1
103433,-62.5,4,2,1,80,0,1
105279,-55.5555555555556,4,2,1,80,0,1
105625,-55.5555555555556,4,2,1,5,0,1
105741,-62.5,4,2,1,80,0,1
106548,-62.5,4,2,1,80,0,1
106664,-62.5,4,2,1,80,0,1
107010,-62.5,4,2,1,5,0,1
107125,-62.5,4,2,1,80,0,1
108452,-62.5,4,2,1,80,0,1
108510,-62.5,4,2,1,80,0,1
108683,-62.5,4,2,1,80,0,1
108741,-62.5,4,2,1,80,0,1
108914,-62.5,4,2,1,80,0,1
108972,-55.5555555555556,4,2,1,80,0,1
109318,-55.5555555555556,4,2,1,5,0,1
109433,-62.5,4,2,1,80,0,1
112664,-55.5555555555556,4,2,1,80,0,1
113010,-55.5555555555556,4,2,1,5,0,1
113125,-62.5,4,2,1,80,0,1
113933,-62.5,4,2,1,80,0,1
114048,-62.5,4,2,1,80,0,1
114395,-62.5,4,2,1,5,0,1
114510,-62.5,4,2,1,80,0,1
118318,-62.5,4,2,1,80,0,1
118432,-62.5,4,2,1,5,0,1
118664,-62.5,4,2,1,80,0,1
123452,-62.5,4,2,1,80,0,1
123510,-62.5,4,2,1,80,0,1
123683,-62.5,4,2,1,80,0,1
123741,-76.9230769230769,4,2,1,80,0,1
129279,-111.111111111111,4,2,1,80,0,1
131125,-250,4,2,1,50,0,0
131133,-250,4,2,1,50,0,0
138510,-250,4,2,1,60,0,0
138518,-250,4,2,1,60,0,0
145895,-76.9230769230769,4,2,1,80,0,0
145903,-76.9230769230769,4,2,1,80,0,0
160664,-62.5,4,2,1,80,0,1
175433,-90.9090909090909,4,2,1,80,0,0

[Colours]
Combo1 : 255,149,149
Combo2 : 128,128,192
Combo3 : 0,128,128
Combo4 : 255,128,255

[HitObjects]
178,70,1895,6,0,L|155:193,1,107.999996704102,2|2,0:0|0:0,0:0:0:0:
0,80,2818,6,0,L|22:196,1,116.999994644165,2|2,0:0|0:0,0:0:0:0:
178,70,3741,6,0,L|155:193,1,125.999996154785,2|2,0:0|0:0,0:0:0:0:
0,80,4664,6,0,L|29:217,1,135.000005149842,2|2,0:0|0:0,0:0:0:0:
178,70,5587,6,0,L|155:215,1,144,2|2,0:0|0:0,0:0:0:0:
0,80,6510,6,0,L|26:201,1,114.750002188683,2|0,0:0|0:0,0:0:0:0:
41,270,6971,2,0,P|86:243|90:158,1,114.750002188683,2|0,0:0|0:0,0:0:0:0:
82,110,7433,1,2,0:0:0:0:
82,110,7895,1,2,0:0:0:0:
162,132,8125,1,2,0:0:0:0:
222,69,8356,1,2,0:0:0:0:
143,37,8587,1,0,0:0:0:0:
162,132,8818,2,0,L|193:289,1,153.000002918243,2|2,0:0|0:0,0:0:0:0:
256,192,9395,12,0,10895,0:0:0:0:
485,204,12279,6,0,L|497:284,2,72,2|2|2,0:0|0:0|0:0,0:0:0:0:
430,323,12971,2,0,P|461:353|498:357,1,72,6|0,1:2|0:0,0:0:0:0:
415,239,13433,2,0,P|380:247|356:274,1,72
351,367,13895,1,0,1:0:0:0:
351,367,14125,1,2,0:0:0:0:
274,313,14356,6,0,L|262:393,1,72,2|2,0:0|0:0,0:0:0:0:
200,265,14818,2,0,P|223:238|258:229,1,72,2|0,1:2|0:0,0:0:0:0:
192,345,15279,2,0,P|157:336|133:309,1,72
123,226,15741,1,0,1:2:0:0:
123,226,15971,1,2,0:0:0:0:
56,284,16202,1,2,0:0:0:0:
0,213,16433,1,2,0:0:0:0:
80,90,16664,6,0,L|74:171,1,72,2|0,1:2|0:0,0:0:0:0:
85,8,17125,1,2,0:0:0:0:
85,8,17356,1,2,0:0:0:0:
161,93,17587,2,0,L|155:174,1,72,2|2,1:2|0:0,0:0:0:0:
235,43,18048,2,0,P|289:21|350:39,1,108,2|0,0:0|0:0,0:0:0:0:
387,92,18510,6,0,P|351:107|304:97,1,72,2|0,1:2|0:0,0:0:0:0:
432,22,18971,2,0,P|458:50|465:98,1,72,2|0,0:0|0:0,0:0:0:0:
432,157,19433,1,0,1:2:0:0:
432,157,19664,1,2,0:0:0:0:
467,82,19895,1,2,0:0:0:0:
512,149,20125,1,2,0:0:0:0:
479,225,20356,6,0,L|485:306,1,72,6|0,1:2|0:0,0:0:0:0:
411,384,20818,2,0,L|405:312,1,72
396,229,21279,1,0,1:2:0:0:
396,229,21509,1,2,0:0:0:0:
329,287,21740,1,2,0:0:0:0:
278,221,21971,1,2,0:0:0:0:
345,155,22202,6,0,L|351:84,1,72,2|0,1:2|0:0,0:0:0:0:
389,13,22664,2,0,P|352:1|308:14,1,72,0|0,0:2|0:0,0:0:0:0:
227,60,23125,1,0,1:2:0:0:
227,60,23356,1,2,0:0:0:0:
134,10,23587,1,2,0:0:0:0:
54,82,23818,1,2,0:0:0:0:
152,197,24048,6,0,L|147:126,1,72,2|0,1:2|0:0,0:0:0:0:
214,256,24510,1,2,0:0:0:0:
152,197,24741,1,2,0:0:0:0:
102,267,24971,2,0,L|21:273,1,72,2|2,1:2|0:0,0:0:0:0:
37,361,25433,2,0,L|108:355,1,72,2|0,0:0|0:0,0:0:0:0:
194,350,25895,1,2,1:2:0:0:
256,192,26010,12,10,27279,0:0:0:0:
482,159,27741,6,0,L|466:284,2,121.499996292114,6|2|2,1:2|0:0|0:0,0:0:0:0:
367,270,28664,2,0,L|382:149,2,121.499996292114,2|2|2,1:2|0:0|0:0,0:0:0:0:
286,133,29587,2,0,L|270:274,1,121.499996292114,2|2,1:2|0:0,0:0:0:0:
215,61,30279,1,2,0:0:0:0:
215,61,30510,2,0,B|295:33|295:33|372:71,1,161.999995056153,2|0,1:2|0:0,0:0:0:0:
286,133,31202,5,2,0:0:0:0:
286,133,31433,2,0,B|209:160|209:160|126:126,1,161.999995056153,2|0,1:2|0:0,0:0:0:0:
43,47,32125,1,2,0:0:0:0:
43,47,32356,2,0,L|26:177,2,121.499996292114,2|2|2,1:2|0:0|0:0,0:0:0:0:
134,129,33279,2,0,L|117:259,2,121.499996292114,2|2|0,1:2|0:0|0:0,0:0:0:0:
20,280,34202,2,0,P|86:354|213:288,1,242.999992584229,2|0,1:2|0:0,0:0:0:0:
286,217,35125,6,0,L|303:347,2,121.499996292114,2|2|2,1:2|0:0|0:0,0:0:0:0:
392,332,36048,2,0,L|376:211,2,121.499996292114,2|2|2,1:2|0:0|0:0,0:0:0:0:
464,202,36971,2,0,L|484:345,2,121.499996292114,2|2|2,1:2|0:0|0:0,0:0:0:0:
488,76,37895,2,0,B|450:97|450:97|413:86,1,80.9999975280763,2|0,1:2|0:0,0:0:0:0:
283,24,38356,2,0,L|344:17,1,40.4999987640381,2|2,0:0|0:0,0:0:0:0:
65,48,38818,6,0,L|81:158,1,80.9999975280763,2|0,1:2|0:0,0:0:0:0:
93,222,39279,1,2,0:0:0:0:
93,222,39395,1,2,0:0:0:0:
300,105,39741,2,0,B|244:93|216:131|238:131|211:167|150:161,1,161.999995056153,2|2,1:0|0:0,0:0:0:0:
6,68,40664,6,0,L|11:97,1,20.2499993820191,2|0,0:3|0:0,0:0:0:0:
87,123,40895,6,0,L|83:147,1,20.2499993820191,2|0,0:3|0:0,0:0:0:0:
156,77,41125,6,0,L|161:101,1,20.2499993820191,2|2,0:3|0:3,0:0:0:0:
229,132,41356,6,0,L|226:153,1,20.2499993820191,2|0,0:3|0:0,0:0:0:0:
303,87,41587,6,0,L|309:109,1,20.2499993820191,2|0,0:3|0:0,0:0:0:0:
380,137,41818,6,0,L|374:161,1,20.2499993820191
335,384,42510,6,0,B|260:401|217:343|228:340|176:277|100:300,1,242.999992584229,6|0,1:2|0:0,0:0:0:0:
101,319,42971,2,0,L|116:249,1,72,2|0,0:0|0:0,0:0:0:0:
2,140,43202,2,0,L|17:210,1,72,2|0,0:0|0:0,0:0:0:0:
161,56,43433,2,0,P|93:26|23:79,1,144,10|0,0:0|0:0,0:0:0:0:
309,299,43895,2,0,B|325:222|325:222|363:199|363:199|381:91,1,216,2|0,1:2|0:0,0:0:0:0:
400,101,44356,6,0,L|317:89,1,72,2|0,1:2|0:0,0:0:0:0:
441,203,44587,2,0,L|512:192,1,72,2|0,0:0|0:0,0:0:0:0:
289,17,44818,2,0,B|241:75|241:75|265:144,1,144,2|0,1:2|0:0,0:0:0:0:
265,140,45279,1,10,0:0:0:0:
194,3,45395,2,0,B|156:60|156:60|182:150,1,144,2|0,0:0|0:0,0:0:0:0:
235,307,45741,2,0,L|250:363,4,36,2|2|2|2|2,2:3|2:3|2:3|2:3|2:3,0:0:0:0:
0,52,46202,6,0,B|50:79|50:79|97:266,1,242.999992584229,2|0,1:2|0:0,0:0:0:0:
88,285,46664,2,0,L|11:305,1,72,2|0,0:0|0:0,0:0:0:0:
190,206,46895,2,0,L|260:225,1,72,2|0,0:0|0:0,0:0:0:0:
441,340,47125,2,0,P|489:280|466:196,1,144,10|0,0:0|0:0,0:0:0:0:
144,344,47587,2,0,B|221:360|221:360|268:330|268:330|359:353,1,216,2|0,1:2|0:0,0:0:0:0:
359,375,48048,6,0,L|376:287,1,72,2|0,1:2|0:0,0:0:0:0:
227,279,48279,2,0,L|240:349,1,72,2|0,0:0|0:0,0:0:0:0:
374,211,48510,2,0,B|313:175|313:175|242:196,1,144,2|0,1:2|0:0,0:0:0:0:
3,69,48971,5,10,0:2:0:0:
3,69,49029,1,0,0:0:0:0:
3,69,49087,2,0,L|10:104,1,36
20,178,49202,5,2,1:2:0:0:
120,116,49433,5,2,1:2:0:0:
241,198,49664,5,0,1:0:0:0:
363,2,49895,6,0,B|385:94|385:94|355:141|355:141|378:232,1,242.999992584229,2|0,1:2|0:0,0:0:0:0:
397,241,50356,1,0,0:0:0:0:
287,24,50587,5,2,0:0:0:0:
237,36,50702,1,2,0:0:0:0:
186,51,50818,1,10,0:0:0:0:
186,51,51048,5,2,0:0:0:0:
236,64,51163,1,2,0:0:0:0:
287,79,51279,1,2,1:2:0:0:
0,0,51510,2,0,L|16:54,3,36,2|2|2|2,2:3|2:3|2:3|2:3,0:0:0:0:
27,7,51741,6,0,L|46:89,1,72,2|0,1:2|0:0,0:0:0:0:
140,207,51971,2,0,L|156:136,1,72
31,309,52202,2,0,L|-4:154,1,144,0|0,1:0|0:0,0:0:0:0:
313,329,52664,6,0,B|255:318|255:318|221:336|221:336|160:325,1,144,10|2,0:0|0:0,0:0:0:0:
444,349,53125,2,0,L|487:357,2,36,2|2|2,2:3|2:3|2:3,0:0:0:0:
296,228,53356,2,0,L|249:219,2,36,2|2|2,2:3|2:3|2:3,0:0:0:0:
512,141,53587,6,0,B|437:124|394:182|405:185|353:248|277:225,1,242.999992584229,2|0,1:2|0:0,0:0:0:0:
282,246,54048,2,0,L|296:169,1,72,2|0,0:0|0:0,0:0:0:0:
349,18,54279,2,0,L|362:88,1,72,2|0,0:0|0:0,0:0:0:0:
200,232,54510,2,0,L|229:72,1,144,10|0,0:0|0:0,0:0:0:0:
0,349,54971,6,0,B|78:368|78:368|119:340|119:340|202:359,1,216,2|0,1:2|0:0,0:0:0:0:
221,341,55433,2,0,L|303:328,1,72,2|0,1:2|0:0,0:0:0:0:
200,232,55664,2,0,L|120:213,1,72,2|0,0:0|0:0,0:0:0:0:
0,349,55895,2,0,B|44:290|44:290|36:215,1,144,2|0,0:0|0:0,0:0:0:0:
135,67,56356,5,10,0:0:0:0:
135,67,56414,1,0,0:0:0:0:
135,67,56472,2,0,L|100:73,1,36
26,83,56587,5,0,1:0:0:0:
118,195,56818,5,2,1:2:0:0:
279,52,57048,5,0,1:0:0:0:
369,225,57279,6,0,L|334:219,4,36,6|2|2|2|2,2:3|2:3|2:3|2:3|2:3,0:0:0:0:
369,225,57741,5,2,0:0:0:0:
350,265,57856,1,2,0:0:0:0:
371,295,57971,1,2,0:0:0:0:
230,333,58202,2,0,L|62:371,1,144,8|2,0:0|0:0,0:0:0:0:
84,294,58664,1,2,1:2:0:0:
101,327,58779,1,2,0:0:0:0:
89,364,58895,1,2,0:0:0:0:
29,81,59125,5,2,0:0:0:0:
29,81,59587,5,2,1:2:0:0:
62,109,59702,1,2,0:0:0:0:
51,148,59818,1,2,0:0:0:0:
203,109,60048,2,0,L|343:77,1,144,8|2,0:2|1:2,0:0:0:0:
355,147,60510,1,2,0:0:0:0:
324,115,60625,1,2,0:0:0:0:
343,77,60741,1,2,0:0:0:0:
429,352,60971,5,2,0:0:0:0:
429,352,61433,5,2,1:2:0:0:
391,332,61548,1,2,0:0:0:0:
355,351,61664,1,2,0:0:0:0:
159,220,61895,2,0,B|230:202|230:202|298:250,1,144,8|2,0:2|0:0,0:0:0:0:
90,287,62356,1,2,1:2:0:0:
82,250,62471,1,2,0:0:0:0:
74,209,62587,1,2,0:0:0:0:
210,384,62818,6,0,L|200:324,2,36,2|2|2,2:3|2:3|2:3,0:0:0:0:
206,327,63048,1,2,2:3:0:0:
132,78,63279,2,0,L|162:238,1,144,2|0,1:2|0:0,0:0:0:0:
269,20,63741,5,10,0:2:0:0:
269,20,63799,1,0,0:0:0:0:
269,20,63857,2,0,L|263:55,1,36
253,129,63972,5,0,1:2:0:0:
335,100,64202,5,2,1:2:0:0:
454,44,64433,5,0,1:2:0:0:
427,243,64664,6,0,L|433:208,4,36,2|2|2|2|2,1:3|2:3|2:3|2:3|2:3,0:0:0:0:
427,243,65125,5,2,0:0:0:0:
401,235,65241,1,2,0:0:0:0:
367,246,65356,1,2,0:0:0:0:
493,384,65587,2,0,L|516:216,1,144,8|2,0:0|0:0,0:0:0:0:
427,382,66048,5,2,1:2:0:0:
460,369,66163,1,2,0:2:0:0:
493,381,66279,1,2,0:2:0:0:
226,242,66510,6,0,L|220:207,4,36,2|2|2|2|2,1:2|0:3|0:3|0:3|0:3,0:0:0:0:
226,242,66971,5,2,1:2:0:0:
259,230,67087,1,2,0:0:0:0:
292,238,67202,1,2,0:0:0:0:
160,383,67433,2,0,L|137:215,1,144,8|2,0:2|0:0,0:0:0:0:
231,378,67894,5,2,0:0:0:0:
197,367,68009,1,2,0:0:0:0:
160,380,68125,1,2,0:0:0:0:
63,189,68356,6,0,B|126:147|126:147|219:172,1,144,0|2,1:2|0:3,0:0:0:0:
55,259,68818,1,2,0:0:0:0:
42,224,68933,1,2,0:0:0:0:
63,189,69048,1,2,0:0:0:0:
250,92,69279,2,0,L|89:56,1,144,8|2,0:2|0:0,0:0:0:0:
257,19,69741,1,2,1:2:0:0:
236,57,69856,1,2,0:0:0:0:
250,92,69971,1,2,0:0:0:0:
109,60,70202,6,0,L|54:49,2,36,2|2|2,1:2|2:3|2:3,0:0:0:0:
67,30,70433,1,2,2:3:0:0:
191,164,70664,2,0,B|265:184|265:184|341:134,1,144,2|0,0:0|0:0,0:0:0:0:
470,16,71125,1,10,0:2:0:0:
321,322,71933,5,0,0:0:0:0:
328,333,72048,2,0,P|397:355|450:306,1,149.40000216568,6|2,1:2|0:0,0:0:0:0:
389,260,72395,5,2,0:0:0:0:
380,280,72510,2,0,L|388:169,1,109.79999547638,2|2,0:0|0:0,0:0:0:0:
292,72,72971,6,0,L|325:69,1,27.4499988690949,10|0,0:0|0:0,0:0:0:0:
259,205,73202,2,0,L|261:238,1,27.4499988690949,2|0,0:0|0:0,0:0:0:0:
126,172,73433,1,2,1:2:0:0:
126,172,73548,2,0,L|8:180,1,109.79999547638,2|0,0:0|0:0,0:0:0:0:
16,180,73895,6,0,P|12:192|19:181,1,34.6499993126679,2|2,0:2|0:2,0:0:0:0:
63,305,74125,2,0,P|59:317|66:306,1,34.6499993126679,2|2,0:2|0:2,0:0:0:0:
136,76,74356,5,2,1:2:0:0:
336,350,74587,6,0,P|262:309|176:338,2,169.199997418213,2|10|2,0:0|0:2|0:2,0:0:0:0:
355,316,75279,6,0,P|404:329|449:304,1,104.850004199696,2|2,0:2|0:0,0:0:0:0:
496,180,75510,2,0,P|446:166|401:191,1,104.850004199696,2|2,0:0|0:0,0:0:0:0:
401,191,75741,6,0,P|446:166|496:180,1,104.850004199696,2|2,1:2|0:0,0:0:0:0:
449,79,75971,5,2,0:2:0:0:
184,53,76202,2,0,L|232:49,1,37.35000054142,2|0,1:2|0:0,0:0:0:0:
328,83,76433,5,2,0:2:0:0:
63,109,76664,6,0,L|111:113,1,37.35000054142,10|0,0:2|0:0,0:0:0:0:
228,188,76895,6,0,B|236:196|236:196|163:189,1,62.3250020446587,2|0,0:0|0:0,0:0:0:0:
12,248,77125,6,0,B|3:239|3:239|64:244|64:244|54:235,1,87.3000020647431,2|0,1:2|0:0,0:0:0:0:
368,360,77356,5,2,0:0:0:0:
448,304,77587,6,0,B|463:310|484:300|484:300|458:282|423:293|423:293|388:270|349:277,1,179.10000444088,2|2,0:0|0:0,0:0:0:0:
144,364,78048,2,0,B|107:386|61:378|61:378|109:398|151:373,1,179.10000444088,2|2,1:2|0:2,0:0:0:0:
176,111,78510,6,0,L|171:93,1,18,2|0,0:2|0:0,0:0:0:0:
192,116,78741,2,0,L|187:98,1,18
208,121,78971,2,0,L|203:103,1,18
368,24,79202,5,0,0:0:0:0:
489,277,79433,6,0,P|495:319|479:361,1,87.749995983124,2|0,1:2|0:0,0:0:0:0:
407,326,79664,2,0,P|408:294|396:323,1,89.7749963013841,2|0,0:2|0:0,0:0:0:0:
336,364,79895,1,0,0:0:0:0:
384,208,80125,6,0,L|328:204,1,44.5499998640442
344,212,80356,2,0,L|288:216,1,44.5499998640442,8|0,0:0|0:0,0:0:0:0:
256,284,80587,5,2,0:2:0:0:
224,280,80702,1,2,0:2:0:0:
192,276,80818,1,2,1:2:0:0:
38,361,81048,1,2,0:2:0:0:
28,276,81279,6,0,P|22:319|38:361,1,89.7749963013841,2|0,0:0|0:0,0:0:0:0:
105,326,81510,2,0,P|103:294|115:323,1,89.7749963013841,2|0,0:0|0:0,0:0:0:0:
176,364,81741,1,0,1:0:0:0:
128,208,81971,6,0,L|184:204,1,44.5499998640442
168,212,82202,2,0,L|224:216,1,44.5499998640442,8|0,0:0|0:0,0:0:0:0:
256,284,82433,6,0,L|320:280,1,59.3999998187256,2|2,0:0|0:0,0:0:0:0:
488,280,82818,6,0,L|448:282,1,39.5999998791504
368,360,83125,5,2,1:2:0:0:
340,32,83356,1,2,0:0:0:0:
488,280,83587,5,2,1:2:0:0:
502,116,83818,1,2,0:2:0:0:
488,280,84048,1,2,1:2:0:0:
200,187,84279,5,2,0:2:0:0:
42,350,84510,6,0,B|112:371|100:307|167:324,3,135.000005149842,2|2|2|2,1:2|0:2|0:2|0:2,0:0:0:0:
240,368,84971,5,2,0:2:0:0:
340,32,85202,1,2,0:0:0:0:
340,32,85664,5,2,0:0:0:0:
389,200,85895,1,2,0:0:0:0:
30,159,86818,6,0,L|46:284,2,121.499996292114,6|2|2,1:2|0:0|0:0,0:0:0:0:
145,270,87741,2,0,L|130:149,2,121.499996292114,2|2|2,1:2|0:0|0:0,0:0:0:0:
226,133,88664,2,0,L|242:274,1,121.499996292114,2|2,1:2|0:0,0:0:0:0:
297,61,89356,1,2,0:0:0:0:
297,61,89587,2,0,B|217:33|217:33|140:71,1,161.999995056153,2|0,1:2|0:0,0:0:0:0:
226,133,90279,5,2,0:0:0:0:
226,133,90510,2,0,B|303:160|303:160|386:126,1,161.999995056153,2|0,1:2|0:0,0:0:0:0:
469,47,91202,1,2,0:0:0:0:
469,47,91433,2,0,L|486:177,2,121.499996292114,2|2|2,1:2|0:0|0:0,0:0:0:0:
378,129,92356,2,0,L|395:259,2,121.499996292114,2|2|2,1:2|0:0|0:0,0:0:0:0:
443,318,93279,2,0,B|404:339|404:339|359:323,1,80.9999975280763,2|0,1:2|0:0,0:0:0:0:
310,269,93741,1,0,0:0:0:0:
310,269,93971,1,0,0:0:0:0:
226,217,94202,6,0,L|209:347,2,121.499996292114,6|2|2,1:2|0:0|0:0,0:0:0:0:
120,332,95125,2,0,L|136:211,2,121.499996292114,2|2|2,1:2|0:0|0:0,0:0:0:0:
48,202,96048,2,0,L|28:345,2,121.499996292114,2|2|2,1:2|0:0|0:0,0:0:0:0:
24,76,96972,2,0,B|62:97|62:97|99:86,1,80.9999975280763,2|0,1:2|0:0,0:0:0:0:
264,7,97433,2,0,L|223:2,1,40.4999987640381,2|2,0:0|0:0,0:0:0:0:
496,24,97895,6,0,L|488:118,1,80.9999975280763,2|0,1:2|0:0,0:0:0:0:
479,193,98356,1,2,0:0:0:0:
479,193,98471,1,0,0:0:0:0:
267,108,98818,2,0,P|317:81|410:130,1,161.999995056153,2|2,0:0|0:0,0:0:0:0:
391,199,99741,6,0,L|387:219,1,20.2499993820191,2|0,0:3|0:0,0:0:0:0:
311,254,99972,6,0,L|314:277,1,20.2499993820191,2|0,0:3|0:0,0:0:0:0:
228,204,100202,6,0,L|224:224,1,20.2499993820191,2|2,0:3|0:3,0:0:0:0:
151,257,100433,6,0,L|156:278,1,20.2499993820191,2|0,0:3|0:0,0:0:0:0:
77,212,100664,6,0,L|73:237,1,20.2499993820191,2|0,0:3|0:0,0:0:0:0:
0,262,100895,6,0,L|6:286,1,20.2499993820191
216,283,101587,6,0,P|269:364|403:336,1,242.999992584229,6|0,1:2|0:0,0:0:0:0:
411,312,102048,2,0,L|396:242,1,72,2|0,0:0|0:0,0:0:0:0:
510,140,102279,2,0,L|495:210,1,72,2|0,0:0|0:0,0:0:0:0:
351,56,102510,2,0,P|419:26|489:79,1,144,10|0,0:0|0:0,0:0:0:0:
203,299,102972,2,0,B|187:222|187:222|149:199|149:199|131:91,1,216,2|0,1:2|0:0,0:0:0:0:
112,101,103433,6,0,L|195:89,1,72,2|0,1:2|0:0,0:0:0:0:
71,203,103664,2,0,L|0:192,1,72,2|0,0:0|0:0,0:0:0:0:
223,17,103895,2,0,B|271:75|271:75|247:144,1,144,2|0,1:2|0:0,0:0:0:0:
248,139,104356,1,10,0:0:0:0:
318,3,104472,2,0,B|356:60|356:60|330:150,1,144,2|0,0:0|0:0,0:0:0:0:
277,307,104818,2,0,L|262:363,4,36,2|2|2|2|2,2:3|2:3|2:3|2:3|2:3,0:0:0:0:
493,48,105279,6,0,B|469:135|469:135|428:161|428:161|402:265,1,242.999992584229,2|0,1:2|0:0,0:0:0:0:
424,285,105741,2,0,L|501:305,1,72,2|0,0:0|0:0,0:0:0:0:
322,206,105972,2,0,L|252:225,1,72,2|0,0:0|0:0,0:0:0:0:
71,340,106202,2,0,P|23:280|46:196,1,144,10|0,0:0|0:0,0:0:0:0:
368,341,106664,2,0,B|291:357|291:357|244:327|244:327|153:350,1,216,2|0,1:2|0:0,0:0:0:0:
153,375,107125,6,0,L|136:287,1,72,2|0,1:2|0:0,0:0:0:0:
285,279,107356,2,0,L|272:349,1,72,2|0,0:0|0:0,0:0:0:0:
138,211,107587,2,0,P|206:175|281:202,1,144,2|0,1:2|0:0,0:0:0:0:
509,69,108048,5,10,0:2:0:0:
509,69,108106,1,0,0:0:0:0:
509,69,108164,2,0,L|502:104,1,36
492,178,108279,5,2,1:2:0:0:
392,116,108510,5,2,1:2:0:0:
271,198,108741,5,0,1:0:0:0:
149,2,108972,6,0,B|127:94|127:94|157:141|157:141|134:232,1,242.999992584229,2|0,1:2|0:0,0:0:0:0:
115,241,109433,1,0,0:0:0:0:
223,18,109664,5,2,0:0:0:0:
279,32,109779,1,2,0:0:0:0:
336,49,109895,1,10,0:0:0:0:
336,49,110125,5,2,0:0:0:0:
280,63,110240,1,2,0:0:0:0:
223,81,110356,1,2,1:2:0:0:
512,0,110587,2,0,L|496:54,3,36,2|2|2|2,2:3|2:3|2:3|2:3,0:0:0:0:
485,7,110818,6,0,L|466:89,1,72,2|0,1:2|0:0,0:0:0:0:
372,207,111048,2,0,L|356:136,1,72
481,309,111279,2,0,L|516:154,1,144,0|0,1:0|0:0,0:0:0:0:
199,329,111741,6,0,B|348:304,1,144,10|2,0:0|0:0,0:0:0:0:
68,349,112202,2,0,L|27:357,2,36,2|2|2,2:3|2:3|2:3,0:0:0:0:
215,228,112433,2,0,L|254:220,2,36,2|2|2,2:3|2:3|2:3,0:0:0:0:
0,141,112664,6,0,B|75:124|118:182|107:185|159:248|235:225,1,242.999992584229,2|0,1:2|0:0,0:0:0:0:
230,246,113125,2,0,L|216:169,1,72,2|0,0:0|0:0,0:0:0:0:
163,18,113356,2,0,L|150:88,1,72,2|0,0:0|0:0,0:0:0:0:
312,232,113587,2,0,L|283:72,1,144,10|0,0:0|0:0,0:0:0:0:
512,349,114048,6,0,B|434:368|434:368|393:340|393:340|310:359,1,216,2|0,1:2|0:0,0:0:0:0:
291,341,114510,2,0,L|209:328,1,72,2|0,1:2|0:0,0:0:0:0:
321,220,114741,2,0,L|401:201,1,72,2|0,0:0|0:0,0:0:0:0:
256,105,114971,2,0,L|176:86,1,72,2|0,0:0|0:0,0:0:0:0:
504,29,115433,1,10,0:0:0:0:
382,114,115664,1,0,1:0:0:0:
382,114,115721,1,0,0:0:0:0:
382,114,115779,2,0,L|333:108,1,36
256,105,115895,6,0,L|265:3,2,96,2|0|0,1:2|0:0|0:0,0:0:0:0:
143,196,116356,6,0,L|149:147,6,36,6|2|2|2|2|2|2,1:2|2:3|2:3|2:3|2:3|2:3|2:3,0:0:0:0:
112,221,116818,2,0,L|126:296,1,72,2|2,1:3|0:3,0:0:0:0:
232,324,117048,2,0,L|218:253,1,72,2|2,0:3|0:3,0:0:0:0:
105,374,117279,2,0,B|173:363|173:363|195:330|195:330|244:321,1,144,2|2,1:3|0:0,0:0:0:0:
503,368,117741,1,2,1:2:0:0:
476,358,117856,1,2,0:0:0:0:
451,350,117971,1,2,0:0:0:0:
366,185,118202,6,0,L|338:327,1,144,2|0,0:0|0:0,0:0:0:0:
420,198,118664,1,6,1:2:0:0:
392,190,118779,1,2,0:0:0:0:
366,185,118894,1,2,0:0:0:0:
279,39,119125,2,0,L|362:55,1,72,8|0,0:2|0:0,0:0:0:0:
250,121,119356,2,0,L|165:105,1,72,2|0,1:2|0:0,0:0:0:0:
108,65,119587,1,2,0:0:0:0:
88,94,119702,1,2,0:0:0:0:
98,129,119818,1,2,0:0:0:0:
254,156,120048,6,0,L|248:107,4,36,6|2|2|2|2,0:0|2:3|2:3|2:3|2:3,0:0:0:0:
254,156,120510,5,2,1:2:0:0:
274,185,120625,1,2,0:0:0:0:
264,220,120741,1,2,0:0:0:0:
66,303,120971,2,0,L|241:280,1,144,8|2,0:2|0:0,0:0:0:0:
371,377,121433,1,2,1:2:0:0:
337,369,121548,1,2,0:0:0:0:
311,364,121664,1,2,0:0:0:0:
311,364,121895,6,0,L|321:304,2,36,2|2|2,2:3|2:3|2:3,0:0:0:0:
315,307,122125,1,2,2:3:0:0:
389,58,122356,2,0,L|359:218,1,144,2|0,1:2|0:0,0:0:0:0:
252,0,122818,5,10,0:2:0:0:
252,0,122876,1,0,0:0:0:0:
252,0,122934,2,0,L|258:35,1,36
268,109,123049,5,0,1:2:0:0:
199,175,123279,5,2,1:2:0:0:
82,103,123510,5,0,1:2:0:0:
117,308,123741,6,0,L|94:182,1,116.999994644165,4|0,1:2|0:0,0:0:0:0:
37,328,124202,2,0,L|22:262,2,58.4999973220826,2|2|2,0:0|0:0|0:0,0:0:0:0:
301,267,124664,2,0,B|242:252|242:252|179:291,1,116.999994644165,8|2,0:0|0:0,0:0:0:0:
358,366,125125,2,0,B|417:381|417:381|464:351,1,116.999994644165,2|2,1:2|0:2,0:0:0:0:
428,168,125587,2,0,L|403:282,1,116.999994644165,2|2,1:2|0:3,0:0:0:0:
422,82,126048,5,2,1:2:0:0:
451,92,126164,1,2,0:0:0:0:
483,102,126279,1,2,0:0:0:0:
276,152,126510,2,0,L|300:266,1,116.999994644165,8|2,0:2|0:0,0:0:0:0:
289,67,126971,1,2,0:0:0:0:
260,77,127087,1,2,0:0:0:0:
228,87,127202,1,2,0:0:0:0:
38,13,127433,6,0,L|174:40,1,116.999994644165,0|2,1:2|0:3,0:0:0:0:
22,160,127895,1,2,0:0:0:0:
31,128,128010,1,2,0:0:0:0:
40,97,128125,1,2,0:0:0:0:
187,253,128356,2,0,L|157:120,1,116.999994644165,8|2,0:2|0:0,0:0:0:0:
0,257,128818,2,0,B|48:290|48:290|113:273,1,116.999994644165,2|2,1:2|0:0,0:0:0:0:
271,229,129279,6,0,L|370:202,2,80.9999975280763,2|2|2,2:2|2:2|0:0,0:0:0:0:
271,229,130202,1,2,0:2:0:0:
503,15,131125,6,0,B|421:-2|376:52|401:58|354:109|270:99,1,252,4|2,1:2|0:0,0:0:0:0:
203,59,132971,2,0,B|259:86|259:86|301:286,1,252,2|0,1:2|0:0,0:0:0:0:
404,286,134818,2,0,P|327:376|214:339,1,252,0|2,1:2|0:0,0:0:0:0:
181,261,136664,2,0,B|93:234|19:304|19:304|47:340|100:338,1,252,2|2,1:2|0:0,0:0:0:0:
181,261,138510,6,0,L|191:178,1,72,2|2,1:2|0:0,0:0:0:0:
181,261,139433,2,0,L|191:178,1,72,2|2,1:2|0:0,0:0:0:0:
181,261,140356,2,0,L|191:178,1,72,2|2,1:2|0:0,0:0:0:0:
181,261,141279,2,0,L|187:213,2,36,2|2|0,1:2|0:0|0:0,0:0:0:0:
202,115,141971,1,2,0:0:0:0:
261,273,142202,6,0,L|267:225,1,36,2|2,1:2|0:2,0:0:0:0:
261,273,142664,2,0,L|267:225,1,36,2|2,1:2|0:2,0:0:0:0:
261,273,143125,2,0,L|267:225,1,36,2|0,1:2|0:0,0:0:0:0:
261,273,143587,2,0,L|267:225,1,36,2|2,1:2|0:2,0:0:0:0:
116,88,144048,6,0,L|114:96,1,9,2|0,0:3|0:0,0:0:0:0:
205,140,144279,6,0,L|206:148,1,9,2|0,0:3|0:0,0:0:0:0:
290,84,144510,6,0,L|288:92,1,9,2|2,0:3|0:3,0:0:0:0:
362,142,144741,6,0,L|363:150,1,9,2|0,0:3|0:0,0:0:0:0:
478,66,144971,6,0,L|462:150,1,72,2|8,0:0|0:0,0:0:0:0:
500,357,145895,6,0,P|430:375|349:288,1,175.499991966248,6|0,1:2|1:2,0:0:0:0:
334,220,146356,2,0,L|401:207,1,58.4999973220826,8|0,0:2|0:0,0:0:0:0:
354,314,146587,2,0,L|292:301,1,58.4999973220826,0|0,1:2|0:0,0:0:0:0:
196,202,146818,2,0,B|220:283|220:283|160:355,1,175.499991966248,2|0,1:2|1:2,0:0:0:0:
65,251,147279,2,0,L|122:263,1,58.4999973220826,8|0,0:2|0:0,0:0:0:0:
25,384,147510,2,0,L|12:326,1,58.4999973220826,0|0,1:2|0:0,0:0:0:0:
11,156,147741,6,0,B|80:171|80:171|121:154|121:154|199:174,1,175.499991966248,2|0,1:2|1:2,0:0:0:0:
79,80,148202,2,0,L|22:69,1,58.4999973220826,8|0,0:2|0:0,0:0:0:0:
136,13,148433,2,0,L|193:1,1,58.4999973220826,0|0,1:2|0:0,0:0:0:0:
293,93,148664,1,2,1:2:0:0:
293,93,148895,6,0,L|278:36,1,58.4999973220826,0|0,0:0|1:2,0:0:0:0:
406,128,149125,2,0,L|391:184,1,58.4999973220826,8|0,0:2|0:0,0:0:0:0:
327,315,149356,1,0,1:2:0:0:
317,282,149471,1,0,0:0:0:0:
308,252,149587,6,0,B|264:235|212:270|244:272|197:311|140:306,1,175.499991966248,6|0,1:2|1:2,0:0:0:0:
40,257,150048,2,0,L|59:329,1,58.4999973220826,8|0,0:2|0:0,0:0:0:0:
157,215,150279,2,0,L|171:158,1,58.4999973220826,0|0,1:2|0:0,0:0:0:0:
26,86,150510,2,0,B|47:129|47:129|182:160,1,175.499991966248,2|0,1:2|1:2,0:0:0:0:
239,65,150971,2,0,L|170:51,1,58.4999973220826,8|0,0:2|0:0,0:0:0:0:
273,161,151202,2,0,L|330:149,1,58.4999973220826,0|0,1:2|0:0,0:0:0:0:
498,36,151433,6,0,B|435:23|435:23|396:45|396:45|313:28,1,175.499991966248,2|0,1:2|1:2,0:0:0:0:
181,53,151895,2,0,L|239:65,1,58.4999973220826,8|0,0:2|0:0,0:0:0:0:
330,149,152125,2,0,L|273:161,1,58.4999973220826,0|0,1:2|0:0,0:0:0:0:
427,134,152356,1,2,1:2:0:0:
427,134,152471,2,0,L|445:195,1,58.4999973220826,2|0,0:0|0:0,0:0:0:0:
331,316,152702,1,2,1:2:0:0:
331,316,152818,6,0,L|352:236,2,77.9999964294435,10|0|0,0:2|1:2|1:2,0:0:0:0:
475,384,153279,6,0,B|455:318|455:318|471:285|471:285|450:205,1,175.499991966248,6|0,1:2|1:2,0:0:0:0:
496,78,153741,2,0,L|515:142,1,58.4999973220826,8|0,0:2|0:0,0:0:0:0:
393,72,153971,2,0,L|409:15,1,58.4999973220826,0|0,1:2|0:0,0:0:0:0:
355,169,154202,2,0,B|261:174|261:174|189:113,1,175.499991966248,2|0,1:2|1:2,0:0:0:0:
104,33,154664,2,0,L|164:23,1,58.4999973220826,8|0,0:2|0:0,0:0:0:0:
83,136,154895,2,0,L|25:126,1,58.4999973220826,0|0,1:2|0:0,0:0:0:0:
127,268,155125,6,0,B|173:239|173:239|198:121,1,175.499991966248,2|0,1:2|1:2,0:0:0:0:
83,136,155587,2,0,L|70:197,1,58.4999973220826,8|0,0:2|0:0,0:0:0:0:
184,300,155818,2,0,L|171:242,1,58.4999973220826,0|0,1:2|0:0,0:0:0:0:
29,359,156048,1,2,1:2:0:0:
29,359,156279,6,0,L|105:345,1,58.4999973220826,2|0,0:0|1:2,0:0:0:0:
184,301,156510,2,0,L|256:313,1,58.4999973220826,8|0,0:2|0:0,0:0:0:0:
429,352,156741,1,0,1:2:0:0:
400,346,156856,1,0,0:0:0:0:
372,339,156971,6,0,B|387:271|387:271|369:239|369:239|384:158,1,175.499991966248,6|0,1:2|1:2,0:0:0:0:
313,79,157433,2,0,L|301:145,1,58.4999973220826,8|0,0:2|0:0,0:0:0:0:
224,218,157664,2,0,L|213:160,1,58.4999973220826,0|0,1:2|0:0,0:0:0:0:
247,14,157895,2,0,P|316:-9|407:69,1,175.499991966248,2|0,1:2|1:2,0:0:0:0:
302,136,158356,2,0,L|313:79,1,58.4999973220826,8|0,0:2|0:0,0:0:0:0:
213,160,158587,2,0,L|224:218,1,58.4999973220826,0|0,1:2|0:0,0:0:0:0:
130,74,158818,6,0,L|93:259,1,175.499991966248,2|0,1:2|1:2,0:0:0:0:
33,101,159279,2,0,L|20:177,1,58.4999973220826,8|0,0:2|0:0,0:0:0:0:
48,17,159510,1,0,1:2:0:0:
457,359,160664,6,0,L|382:378,1,72,6|0,1:2|0:0,0:0:0:0:
435,205,160895,2,0,L|485:256,1,72,2|0,0:0|1:2,0:0:0:0:
318,302,161125,2,0,L|337:232,1,72,10|0,0:2|0:0,0:0:0:0:
512,76,161356,1,2,1:2:0:0:
507,103,161471,1,2,0:0:0:0:
503,131,161587,2,0,L|424:117,1,72,2|0,1:2|0:0,0:0:0:0:
344,24,161818,2,0,P|368:-2|394:17,1,72,0|0,0:0|1:2,0:0:0:0:
343,130,162048,6,0,L|270:146,1,72,10|0,0:2|0:0,0:0:0:0:
151,48,162279,2,0,L|199:101,1,72,2|0,1:2|0:0,0:0:0:0:
360,148,162510,2,0,L|287:164,1,72,2|0,1:2|0:0,0:0:0:0:
185,284,162741,1,2,0:0:0:0:
198,251,162856,1,2,1:2:0:0:
210,221,162971,1,10,0:2:0:0:
383,322,163202,1,0,1:2:0:0:
157,351,163433,6,0,L|16:309,1,144,2|2,1:2|0:0,0:0:0:0:
21,332,163779,1,0,1:2:0:0:
22,361,163895,1,10,0:2:0:0:
70,192,164125,1,0,1:2:0:0:
33,17,164356,6,0,L|108:-2,1,72,6|0,1:2|0:0,0:0:0:0:
55,171,164587,2,0,L|4:119,1,72,2|0,0:0|1:2,0:0:0:0:
172,74,164817,2,0,L|152:143,1,72,10|0,0:2|0:0,0:0:0:0:
0,295,165048,1,2,1:2:0:0:
9,269,165163,1,2,0:0:0:0:
17,244,165279,2,0,L|95:261,1,72,2|0,1:2|0:0,0:0:0:0:
172,342,165510,2,0,P|154:366|119:354,1,72,0|0,0:0|1:2,0:0:0:0:
170,244,165741,6,0,L|259:220,1,72,10|0,0:2|0:0,0:0:0:0:
407,170,165971,2,0,L|337:188,1,72,2|0,1:2|0:0,0:0:0:0:
487,221,166202,2,0,P|503:154|448:88,1,144,2|0,1:2|0:0,0:0:0:0:
337,187,166548,1,2,1:2:0:0:
365,180,166664,1,10,0:2:0:0:
388,175,166779,1,2,0:0:0:0:
416,169,166895,1,2,1:2:0:0:
486,350,167125,5,2,1:2:0:0:
486,350,167241,2,0,L|334:316,1,144,2|0,0:0|1:2,0:0:0:0:
327,335,167587,1,10,0:2:0:0:
174,234,167818,1,0,1:2:0:0:
242,11,168048,6,0,L|251:93,1,72,6|0,1:2|0:0,0:0:0:0:
333,0,168279,2,0,L|340:71,1,72,2|0,0:0|1:2,0:0:0:0:
150,13,168510,2,0,L|159:95,1,72,10|0,0:2|0:0,0:0:0:0:
72,244,168741,1,2,1:2:0:0:
64,205,168856,1,2,0:0:0:0:
58,169,168971,2,0,L|47:91,1,72,2|0,1:2|0:0,0:0:0:0:
197,221,169202,2,0,P|181:246|145:224,1,72,0|0,0:0|1:2,0:0:0:0:
248,83,169433,6,0,L|261:175,1,72,10|0,0:2|0:0,0:0:0:0:
283,323,169664,2,0,L|272:251,1,72,2|0,1:2|0:0,0:0:0:0:
161,162,169895,2,0,L|171:233,1,72,2|0,1:2|0:0,0:0:0:0:
283,323,170125,1,2,0:0:0:0:
310,320,170241,1,2,1:2:0:0:
337,317,170356,2,0,L|420:306,1,72,10|0,0:2|0:0,0:0:0:0:
206,339,170587,2,0,L|134:348,1,72,0|0,1:2|0:0,0:0:0:0:
24,307,170818,6,0,L|-6:130,1,144,2|0,1:2|0:0,0:0:0:0:
15,149,171164,1,0,0:0:0:0:
23,135,171279,2,0,L|3:13,2,96,10|0|0,0:2|1:2|1:2,0:0:0:0:
171,69,171741,6,0,L|88:77,1,72,6|0,1:2|0:0,0:0:0:0:
336,51,171971,2,0,L|407:44,1,72,2|0,0:0|1:2,0:0:0:0:
263,220,172202,2,0,L|255:137,1,72,10|0,0:2|0:0,0:0:0:0:
360,213,172433,1,2,1:2:0:0:
354,184,172548,1,2,0:0:0:0:
349,149,172664,1,2,1:2:0:0:
279,378,173010,1,0,1:2:0:0:
279,378,173125,2,0,L|359:366,1,72,10|0,0:2|0:0,0:0:0:0:
225,305,173356,2,0,L|145:293,1,72,2|0,1:2|0:0,0:0:0:0:
263,220,173587,6,0,B|315:210|315:210|353:232|353:232|427:219,1,144,2|0,1:2|0:0,0:0:0:0:
472,148,173933,1,2,1:2:0:0:
493,174,174048,1,10,0:2:0:0:
505,205,174164,1,2,0:0:0:0:
496,238,174279,1,2,1:2:0:0:
299,87,174510,6,0,P|355:25|441:26,1,144,0|0,1:2|0:0,0:0:0:0:
390,104,174856,1,0,1:2:0:0:
299,87,174971,2,0,L|203:63,2,96,8|0|0,0:2|1:2|1:2,0:0:0:0:
