osu file format v14

[General]
AudioFilename: audio.mp3
AudioLeadIn: 0
PreviewTime: 100087
Countdown: 0
SampleSet: Soft
StackLeniency: 0.5
Mode: 0
LetterboxInBreaks: 0
WidescreenStoryboard: 1

[Editor]
Bookmarks: 12971,27741,42510,72048,86818,101587,116356,131125,138510,145895,160664,175433
DistanceSpacing: 1.2
BeatDivisor: 4
GridSize: 32
TimelineZoom: 1.399999

[Metadata]
Title:How You Like That
TitleUnicode:How You Like That
Artist:BLACKPINK
ArtistUnicode:BLACKPINK
Creator:Stixy
Version:Suou's Light Insane
Source:
Tags:korean k pop k-pop kpop hylt 블핑 블랙핑크 yg entertainment 지수 jisoo 제니 jennie 로제 rosÉ rose 리사 lisa nofc suyuko rosiie lyawi Irreversible armin a_r_m_i_n enerugi elinor eli [_eli_] derandom_otaku derandom otaku ren blackener shirahane suou english BLΛƆKPIИK _DUSK_
BeatmapID:2736841
BeatmapSetID:1201711

[Difficulty]
HPDrainRate:5
CircleSize:4
OverallDifficulty:7.6
ApproachRate:8.5
SliderMultiplier:1.7
SliderTickRate:1

[Events]
//Background and Video events
0,0,"bg.jpg",0,0
Video,-730,"video.avi"
//Break Periods
2,131325,137835
//Storyboard Layer 0 (Background)
//Storyboard Layer 1 (Fail)
//Storyboard Layer 2 (Pass)
//Storyboard Layer 3 (Foreground)
//Storyboard Layer 4 (Overlay)
//Storyboard Sound Samples

[TimingPoints]
1895,461.538461538462,4,2,1,50,1,0
1895,-133.333333333333,4,2,1,50,0,0
12971,-133.333333333333,4,2,1,60,0,0
12979,-133.333333333333,4,2,1,60,0,0
42048,-200,4,2,1,60,0,0
42510,-71.4285714285714,4,2,1,80,0,1
42518,-71.4285714285714,4,2,1,80,0,1
59125,-133.333333333333,4,2,1,80,0,1
59587,-71.4285714285714,4,2,1,80,0,1
60971,-133.333333333333,4,2,1,80,0,1
61433,-71.4285714285714,4,2,1,80,0,1
71125,-133.333333333333,4,2,1,80,0,0
72048,-100,4,2,1,70,0,0
72056,-100,4,2,1,70,0,0
86818,-133.333333333333,4,2,1,60,0,0
86826,-133.333333333333,4,2,1,60,0,0
101125,-200,4,2,1,60,0,0
101587,-71.4285714285714,4,2,1,80,0,1
101595,-71.4285714285714,4,2,1,80,0,1
123741,-100,4,2,1,80,0,0
126048,-71.4285714285714,4,2,1,80,0,1
129279,-100,4,2,1,80,0,0
130202,-133.333333333333,4,2,1,80,0,0
131125,-133.333333333333,4,2,1,50,0,0
131133,-133.333333333333,4,2,1,50,0,0
138510,-133.333333333333,4,2,1,60,0,0
138518,-133.333333333333,4,2,1,60,0,0
145895,-71.4285714285714,4,2,1,80,0,0
145903,-71.4285714285714,4,2,1,80,0,0
160664,-71.4285714285714,4,2,1,80,0,1
175433,-71.4285714285714,4,2,1,80,0,0

[Colours]
Combo1 : 255,149,149
Combo2 : 128,128,192
Combo3 : 0,128,128
Combo4 : 255,128,255

[HitObjects]
431,237,1895,6,0,P|387:225|314:285,2,127.500004863739,2|2|2,0:0|0:0|0:0,0:0:0:0:
275,159,3279,1,2,0:0:0:0:
403,14,3741,2,0,P|387:75|374:138,1,127.500004863739,2|2,0:0|0:0,0:0:0:0:
193,238,4664,2,0,P|179:175|164:113,1,127.500004863739,2|2,0:0|0:0,0:0:0:0:
57,333,5587,6,0,P|96:324|168:386,2,127.500004863739,2|2|2,0:0|0:0|0:0,0:0:0:0:
102,125,6971,2,0,P|133:117|164:113,1,63.7500024318696,2|0,0:0|0:0,0:0:0:0:
262,65,7433,2,0,P|248:127|240:190,1,127.500004863739,2|2,0:0|0:0,0:0:0:0:
315,264,8125,1,2,0:0:0:0:
315,264,8356,2,0,P|346:256|378:252,1,63.7500024318696,2|0,0:0|0:0,0:0:0:0:
431,171,8818,2,0,P|399:167|368:159,1,63.7500024318696,2|0,0:0|0:0,0:0:0:0:
262,65,9279,5,2,0:0:0:0:
256,192,9510,12,0,10895,0:0:0:0:
195,82,12279,6,0,P|188:114|185:145,2,63.7500024318696,2|2|2,0:0|0:0|0:0,0:0:0:0:
389,107,12971,6,0,P|329:92|281:131,1,127.500004863739,6|0,1:2|0:0,0:0:0:0:
435,226,14125,1,2,0:0:0:0:
343,243,14356,2,0,P|345:211|349:179,1,63.7500024318696,2|2,0:0|0:0,0:0:0:0:
439,327,14818,2,0,P|377:319|333:362,1,127.500004863739,2|0,1:2|0:0,0:0:0:0:
155,291,15971,1,2,0:0:0:0:
242,332,16202,2,0,P|244:300|249:268,1,63.7500024318696,2|2,0:0|0:0,0:0:0:0:
111,184,16664,6,0,P|171:195|218:155,1,127.500004863739,2|2,1:2|0:0,0:0:0:0:
342,90,17356,1,2,0:0:0:0:
249,57,17587,1,2,1:2:0:0:
249,57,17818,1,2,0:0:0:0:
310,186,18048,2,0,P|341:192|372:200,1,63.7500024318696,2|0,0:0|0:0,0:0:0:0:
468,72,18510,2,0,B|444:140|444:140|467:162|468:192,1,127.500004863739,2|2,1:2|0:0,0:0:0:0:
339,320,19664,1,2,0:0:0:0:
432,343,19895,2,0,P|428:311|423:279,1,63.7500024318696,2|2,0:0|0:0,0:0:0:0:
309,189,20356,6,0,P|275:175|192:214,1,127.500004863739,6|0,1:2|0:0,0:0:0:0:
36,113,21510,1,2,0:0:0:0:
132,95,21741,2,0,P|125:126|120:157,1,63.7500024318696,2|2,0:0|0:0,0:0:0:0:
10,236,22202,2,0,P|50:235|107:297,1,127.500004863739,2|0,1:2|0:2,0:0:0:0:
278,194,23356,1,2,0:0:0:0:
307,282,23587,2,0,P|276:291|246:283,1,63.7500024318696,2|2,0:0|0:0,0:0:0:0:
200,132,24048,6,0,P|248:93|309:103,1,127.500004863739,2|2,1:2|0:0,0:0:0:0:
428,176,24741,1,2,0:0:0:0:
402,61,24971,1,2,1:2:0:0:
402,61,25202,1,2,0:0:0:0:
328,197,25433,2,0,P|336:228|339:260,1,63.7500024318696,2|0,0:0|0:0,0:0:0:0:
446,384,25895,2,0,B|440:356|411:329|411:329|433:301|432:272,2,127.500004863739,2|0|0,1:2|0:0|1:2,0:0:0:0:
339,259,27048,1,0,0:0:0:0:
270,378,27279,2,0,P|301:377|333:382,1,63.7500024318696,10|2,0:0|0:0,0:0:0:0:
218,282,27741,6,0,P|189:311|126:310,2,95.6250036478044,6|2|2,1:2|0:0|0:0,0:0:0:0:
159,131,28664,2,0,P|153:178|149:226,2,95.6250036478044,2|2|2,1:2|0:0|0:0,0:0:0:0:
54,36,29587,2,0,P|50:68|44:99,1,63.7500024318696,2|0,1:2|0:0,0:0:0:0:
13,121,29933,2,0,P|25:168|34:215,1,95.6250036478044,2|2,0:0|0:0,0:0:0:0:
0,337,30510,2,0,B|72:311|54:360|127:330,1,127.500004863739,2|0,1:2|0:0,0:0:0:0:
189,271,31202,1,2,0:0:0:0:
310,362,31433,6,0,P|256:349|208:377,2,95.6250036478044,2|2|2,1:2|0:0|0:0,0:0:0:0:
414,283,32356,2,0,P|458:298|503:285,2,95.6250036478044,2|2|2,1:2|0:0|0:0,0:0:0:0:
327,200,33279,2,0,P|333:136|343:73,1,127.500004863739,2|0,1:2|0:0,0:0:0:0:
413,178,33971,1,0,0:0:0:0:
252,113,34202,2,0,P|193:94|137:130,1,127.500004863739,2|0,1:2|0:0,0:0:0:0:
189,282,35125,6,0,P|195:234|204:187,2,95.6250036478044,2|2|2,1:2|0:0|0:0,0:0:0:0:
67,272,36048,2,0,P|75:319|82:366,2,95.6250036478044,2|2|2,1:2|0:0|0:0,0:0:0:0:
2,169,36971,2,0,P|37:176|67:167,1,63.7500024318696,2|0,1:2|0:0,0:0:0:0:
89,160,37318,2,0,P|85:112|79:64,1,95.6250036478044,2|2,0:0|0:0,0:0:0:0:
201,11,37895,2,0,P|190:42|187:73,1,63.7500024318696,2|0,1:2|0:0,0:0:0:0:
283,154,38356,1,2,0:0:0:0:
283,154,38471,2,0,L|358:146,1,63.7500024318696,2|0,0:0|0:0,0:0:0:0:
383,142,38818,6,0,P|376:173|371:204,1,63.7500024318696,2|0,1:2|0:0,0:0:0:0:
288,331,39279,1,2,0:0:0:0:
288,331,39395,2,0,P|283:299|276:268,1,63.7500024318696,2|0,0:0|0:0,0:0:0:0:
248,242,39741,2,0,P|208:226|134:277,1,127.500004863739,2|2,1:2|0:0,0:0:0:0:
41,106,40664,6,0,L|111:115,1,63.7500024318696,2|2,0:3|0:3,0:0:0:0:
192,141,41125,2,0,L|183:71,1,63.7500024318696,2|2,0:3|0:3,0:0:0:0:
88,30,41587,1,2,0:3:0:0:
88,30,41818,1,0,0:0:0:0:
54,194,42048,6,0,L|66:274,1,63.75,2|0,0:0|0:0,0:0:0:0:
64,296,42510,6,0,P|153:278|180:315,1,118.999996368408,6|0,1:2|0:0,0:0:0:0:
302,157,42971,2,0,L|243:168,1,59.4999981842042,2|0,0:0|0:0,0:0:0:0:
312,263,43202,2,0,L|375:252,1,59.4999981842042,2|0,0:0|0:0,0:0:0:0:
422,58,43433,2,0,P|391:107|406:163,1,118.999996368408,10|0,0:0|0:0,0:0:0:0:
469,347,43895,6,0,P|519:344|471:265,1,178.499994552612,2|0,1:2|0:0,0:0:0:0:
452,358,44356,6,0,L|375:347,1,59.4999981842042,2|0,1:2|0:0,0:0:0:0:
312,263,44587,2,0,L|375:252,1,59.4999981842042,2|0,0:0|0:0,0:0:0:0:
293,363,44818,2,0,B|239:336|239:336|183:353,1,118.999996368408,2|0,1:2|0:0,0:0:0:0:
53,173,45279,1,10,0:0:0:0:
1,251,45395,2,0,B|57:268|57:268|110:241,1,118.999996368408,2|0,0:0|0:0,0:0:0:0:
178,164,45741,2,0,L|149:161,4,29.7499990921021,2|2|2|2|2,2:3|2:3|2:3|2:3|2:3,0:0:0:0:
355,0,46202,6,0,B|328:53|328:53|345:109,1,118.999996368408,2|0,1:2|0:0,0:0:0:0:
488,72,46664,2,0,L|429:63,1,59.4999981842042,2|0,0:0|0:0,0:0:0:0:
454,181,46895,2,0,L|512:189,1,59.4999981842042,2|0,0:0|0:0,0:0:0:0:
431,286,47125,2,0,B|373:276|373:276|324:311,1,118.999996368408,10|0,0:0|0:0,0:0:0:0:
83,130,47587,6,0,B|135:111|135:111|110:253,1,178.499994552612,2|0,1:2|0:0,0:0:0:0:
51,369,48048,6,0,L|59:310,1,59.4999981842042,2|0,1:2|0:0,0:0:0:0:
144,321,48279,2,0,L|135:379,1,59.4999981842042,2|0,0:0|0:0,0:0:0:0:
3,241,48510,2,0,B|58:216|58:216|117:234,1,118.999996368408,2|0,1:2|0:0,0:0:0:0:
187,22,48971,2,0,L|128:30,1,59.4999981842042,10|0,0:2|0:0,0:0:0:0:
38,47,49202,5,2,1:2:0:0:
76,140,49433,1,2,1:2:0:0:
114,233,49664,1,0,1:0:0:0:
284,170,49895,6,0,B|233:139|233:139|175:153,1,118.999996368408,2|0,1:2|0:0,0:0:0:0:
0,326,50356,1,0,0:0:0:0:
235,303,50587,1,2,0:0:0:0:
233,276,50702,1,2,0:0:0:0:
216,254,50818,1,10,0:0:0:0:
25,132,51048,1,2,0:0:0:0:
49,143,51163,1,2,0:0:0:0:
76,140,51279,1,2,1:2:0:0:
284,170,51510,1,2,2:3:0:0:
156,35,51741,6,0,L|165:93,1,59.4999981842042,2|0,1:2|0:0,0:0:0:0:
275,229,51971,2,0,L|284:170,1,59.4999981842042
164,201,52202,1,0,1:0:0:0:
350,339,52664,2,0,B|410:351|410:351|459:322,1,118.999996368408,10|2,0:0|0:0,0:0:0:0:
382,78,53125,2,0,B|367:144|367:144|396:180|396:180|384:243,1,178.499994552612,2|2,2:3|2:3,0:0:0:0:
299,269,53587,6,0,B|243:252|243:252|190:279,1,118.999996368408,2|0,1:2|0:0,0:0:0:0:
25,121,54049,2,0,L|84:130,1,59.4999981842042,2|0,0:0|0:0,0:0:0:0:
157,9,54280,2,0,L|99:17,1,59.4999981842042,2|0,0:0|0:0,0:0:0:0:
143,198,54510,2,0,P|178:151|169:94,1,118.999996368408,10|0,0:0|0:0,0:0:0:0:
0,272,54972,2,0,B|71:260|71:260|89:283|109:285,1,118.999996368408,2|0,1:2|0:0,0:0:0:0:
359,377,55433,6,0,L|300:385,1,59.4999981842042,2|0,1:2|0:0,0:0:0:0:
397,296,55664,2,0,L|456:304,1,59.4999981842042,2|0,0:0|0:0,0:0:0:0:
321,181,55895,2,0,B|291:233|291:233|303:290,1,118.999996368408,2|0,0:0|0:0,0:0:0:0:
493,160,56356,2,0,L|485:101,1,59.4999981842042,10|0,0:0|0:0,0:0:0:0:
354,3,56587,5,0,1:0:0:0:
391,90,56818,1,2,1:2:0:0:
447,14,57048,1,0,1:0:0:0:
297,79,57279,6,0,B|237:90|237:90|186:62,1,118.999996368408,6|2,2:3|2:3,0:0:0:0:
50,248,57741,1,2,0:0:0:0:
44,218,57856,1,2,0:0:0:0:
39,189,57971,2,0,B|99:178|99:178|150:206,1,118.999996368408,2|8,0:0|0:0,0:0:0:0:
336,264,58433,1,2,0:0:0:0:
198,384,58664,1,2,1:2:0:0:
204,354,58779,1,2,0:0:0:0:
209,325,58894,1,2,0:0:0:0:
360,168,59125,6,0,P|320:162|267:196,1,95.6250036478044,2|0,0:0|0:0,0:0:0:0:
336,264,59587,5,2,1:2:0:0:
366,270,59702,1,2,0:0:0:0:
395,275,59818,2,0,B|455:288|455:288|509:253,1,118.999996368408,2|8,0:0|0:2,0:0:0:0:
500,34,60279,1,2,1:2:0:0:
334,136,60510,1,2,0:0:0:0:
364,142,60625,1,2,0:0:0:0:
393,147,60740,1,2,0:0:0:0:
284,28,60971,6,0,P|250:21|194:63,1,95.6250036478044,2|0,0:0|0:0,0:0:0:0:
134,112,61433,5,2,1:2:0:0:
140,142,61548,1,2,0:0:0:0:
145,171,61664,2,0,B|95:204|95:204|37:192,1,118.999996368408,2|8,0:0|0:2,0:0:0:0:
233,276,62125,1,2,0:0:0:0:
79,384,62356,1,2,1:2:0:0:
85,354,62471,1,2,0:0:0:0:
90,325,62586,1,2,0:0:0:0:
278,174,62818,6,0,L|351:186,1,59.4999981842042,2|2,2:3|2:3,0:0:0:0:
404,288,63048,2,0,L|345:297,1,59.4999981842042,2|0,2:3|0:0,0:0:0:0:
208,381,63279,2,0,B|245:335|245:335|230:257,1,118.999996368408,2|0,1:2|0:0,0:0:0:0:
122,82,63741,2,0,L|108:161,1,59.4999981842042,10|0,0:2|0:0,0:0:0:0:
83,228,63971,5,0,1:2:0:0:
172,208,64202,1,2,1:2:0:0:
261,188,64433,1,0,1:2:0:0:
117,325,64664,6,0,L|0:307,1,118.999996368408,2|2,1:3|2:3,0:0:0:0:
54,132,65124,1,2,0:0:0:0:
83,137,65241,1,2,0:0:0:0:
112,141,65356,2,0,P|135:88|114:34,1,118.999996368408,2|8,0:0|0:0,0:0:0:0:
186,248,65818,1,2,0:0:0:0:
294,96,66048,1,2,1:2:0:0:
265,101,66163,1,2,0:2:0:0:
235,107,66278,1,2,0:2:0:0:
290,297,66510,6,0,L|296:237,1,59.4999981842042,2|2,1:2|0:3,0:0:0:0:
193,189,66741,2,0,L|186:248,1,59.4999981842042,2|0,0:3|0:0,0:0:0:0:
47,297,66971,2,0,L|106:303,1,59.4999981842042,2|2,1:2|0:0,0:0:0:0:
176,358,67202,2,0,B|203:307|203:307|186:248,1,118.999996368408,2|8,0:0|0:2,0:0:0:0:
143,34,67664,1,2,0:0:0:0:
4,157,67895,1,2,0:0:0:0:
31,167,68010,1,2,0:0:0:0:
60,164,68125,1,2,0:0:0:0:
279,118,68356,6,0,B|219:107|219:107|170:140,1,118.999996368408,0|2,1:2|0:3,0:0:0:0:
301,330,68818,1,2,0:0:0:0:
330,329,68933,1,2,0:0:0:0:
360,329,69048,2,0,B|392:280|392:280|382:220,1,118.999996368408,2|8,0:0|0:2,0:0:0:0:
203,326,69510,1,2,0:0:0:0:
279,118,69741,1,2,1:2:0:0:
306,108,69856,1,2,0:0:0:0:
335,111,69971,1,2,0:0:0:0:
191,216,70202,6,0,L|132:208,1,59.4999981842042,2|2,1:2|2:3,0:0:0:0:
41,124,70433,2,0,L|99:116,1,59.4999981842042,2|0,2:3|0:0,0:0:0:0:
209,0,70664,2,0,B|172:61|172:61|190:85|189:103,1,118.999996368408,2|0,0:0|0:0,0:0:0:0:
75,310,71125,6,0,B|167:275|150:350|266:293,1,191.250007295609,10|0,0:2|0:0,0:0:0:0:
325,235,71933,1,0,0:0:0:0:
325,235,72048,6,0,L|324:134,1,85,6|2,1:2|0:0,0:0:0:0:
283,74,72395,1,2,0:0:0:0:
283,74,72510,2,0,P|323:61|363:73,1,85,2|2,0:0|0:0,0:0:0:0:
512,79,72971,1,10,0:0:0:0:
413,150,73202,1,2,0:0:0:0:
501,259,73433,1,2,1:2:0:0:
501,259,73548,2,0,L|501:174,1,85,2|0,0:0|0:0,0:0:0:0:
413,150,73895,6,0,L|361:160,1,42.5,2|2,0:2|0:2,0:0:0:0:
312,224,74125,2,0,L|260:214,1,42.5,2|2,0:2|0:2,0:0:0:0:
211,144,74356,1,2,1:2:0:0:
139,317,74587,1,2,0:0:0:0:
24,209,74818,2,0,B|65:191|65:191|115:206,1,85,10|2,0:2|0:2,0:0:0:0:
229,296,75279,2,0,L|229:348,1,42.5,2|2,0:2|0:0,0:0:0:0:
139,359,75510,2,0,L|139:316,1,42.5,2|2,0:0|0:0,0:0:0:0:
213,213,75741,6,0,P|235:209|269:220,1,42.5,2|2,1:2|0:0,0:0:0:0:
328,269,75971,1,2,0:2:0:0:
426,144,76202,2,0,B|386:158|386:158|345:143,1,85,2|2,1:2|0:2,0:0:0:0:
256,1,76664,1,10,0:2:0:0:
388,62,76895,1,2,0:0:0:0:
256,193,77125,2,0,L|256:105,1,85,2|2,1:2|0:0,0:0:0:0:
137,0,77587,6,0,L|137:85,1,85,2|2,0:0|0:0,0:0:0:0:
17,188,78048,1,2,1:2:0:0:
45,42,78279,1,2,0:2:0:0:
196,175,78510,2,0,P|154:178|112:185,1,85,2|0,0:2|0:0,0:0:0:0:
58,294,78971,2,0,P|100:298|142:305,1,85
322,343,79433,6,0,L|322:289,1,42.5,2|0,1:2|0:0,0:0:0:0:
238,273,79664,2,0,L|237:382,1,85,2|0,0:2|0:0,0:0:0:0:
314,208,80125,1,0,0:0:0:0:
164,158,80356,1,8,0:0:0:0:
235,11,80587,2,0,L|224:81,1,42.5,2|2,0:2|0:2,0:0:0:0:
273,125,80818,2,0,B|313:112|313:112|369:131,1,85,2|2,1:2|0:2,0:0:0:0:
452,9,81279,6,0,B|412:22|412:22|371:8,1,85,2|2,0:0|0:0,0:0:0:0:
445,183,81741,2,0,L|462:97,1,85,0|0,1:0|0:0,0:0:0:0:
338,221,82202,2,0,L|354:304,1,85,8|2,0:0|0:0,0:0:0:0:
437,341,82664,2,0,L|448:277,2,56.6666666666667,2|0|0,0:0|0:0|0:0,0:0:0:0:
354,304,83125,6,0,B|315:289|315:289|252:310,1,85,2|2,1:2|0:0,0:0:0:0:
97,307,83587,2,0,B|135:321|135:321|198:300,1,85,2|2,1:2|0:2,0:0:0:0:
291,190,84048,1,2,1:2:0:0:
140,216,84279,1,2,0:2:0:0:
213,83,84510,2,0,L|206:125,1,42.5,2|2,1:2|0:2,0:0:0:0:
119,113,84741,2,0,L|125:70,1,42.5,2|2,0:2|0:2,0:0:0:0:
177,0,84971,5,2,0:2:0:0:
177,0,85202,1,2,0:0:0:0:
418,138,85664,5,2,0:0:0:0:
418,138,85895,1,2,0:0:0:0:
181,332,86587,1,0,0:0:0:0:
181,332,86818,6,0,P|145:301|98:299,2,95.6250036478044,6|2|2,1:2|0:0|0:0,0:0:0:0:
278,264,87741,2,0,P|285:311|288:358,2,95.6250036478044,2|2|2,1:2|0:0|0:0,0:0:0:0:
262,146,88664,2,0,P|293:142|321:154,1,63.7500024318696,2|0,1:2|0:0,0:0:0:0:
352,169,89010,2,0,P|357:121|365:74,1,95.6250036478044,2|2,0:0|0:0,0:0:0:0:
254,8,89587,2,0,P|233:39|144:45,1,127.500004863739,2|0,1:2|0:0,0:0:0:0:
41,119,90279,1,2,0:0:0:0:
119,257,90510,6,0,P|125:209|133:162,2,95.6250036478044,2|2|2,1:2|0:0|0:0,0:0:0:0:
179,361,91433,2,0,P|136:357|82:386,2,95.6250036478044,2|2|2,1:2|0:0|0:0,0:0:0:0:
311,265,92356,2,0,P|251:281|202:244,1,127.500004863739,2|0,1:2|0:0,0:0:0:0:
101,164,93048,1,2,0:0:0:0:
166,30,93279,2,0,B|200:44|210:81|210:81|194:105|189:134,1,127.500004863739,2|0,1:2|0:0,0:0:0:0:
12,227,94202,6,0,P|5:170|-3:114,2,95.6250036478044,6|2|2,1:2|0:0|0:0,0:0:0:0:
107,289,95125,2,0,P|99:336|94:383,2,95.6250036478044,2|2|2,1:2|0:0|0:0,0:0:0:0:
185,204,96048,2,0,P|224:200|250:220,1,63.7500024318696,2|0,1:2|0:0,0:0:0:0:
263,241,96395,2,0,P|302:262|368:232,1,95.6250036478044,2|2,0:0|0:0,0:0:0:0:
408,149,96971,2,0,P|376:143|344:139,1,63.7500024318696,2|0,1:2|0:0,0:0:0:0:
250,76,97433,1,2,0:0:0:0:
250,76,97548,2,0,P|218:79|186:85,1,63.7500024318696,2|0,0:0|0:0,0:0:0:0:
141,80,97895,6,0,P|123:122|128:150,1,63.7500024318696,2|0,1:2|0:0,0:0:0:0:
217,240,98356,1,2,0:0:0:0:
217,240,98471,2,0,L|288:247,1,63.7500024318696
317,266,98818,2,0,B|348:227|348:227|317:134,1,127.500004863739,2|2,0:0|0:0,0:0:0:0:
90,194,99741,6,0,L|106:269,1,63.7500024318696,2|2,0:3|0:3,0:0:0:0:
224,373,100202,2,0,L|237:310,1,63.7500024318696,2|2,0:3|0:3,0:0:0:0:
192,229,100664,1,2,0:3:0:0:
192,229,100895,1,0,0:0:0:0:
111,348,101125,6,0,L|47:338,1,63.75,2|0,0:0|0:0,0:0:0:0:
0,261,101587,6,0,B|32:208|32:208|9:128,1,118.999996368408,6|0,1:2|0:0,0:0:0:0:
166,36,102048,2,0,B|137:27|137:27|90:41,1,59.4999981842042,2|0,0:0|0:0,0:0:0:0:
108,156,102279,2,0,B|137:165|137:165|164:156,1,59.4999981842042,2|0,0:0|0:0,0:0:0:0:
263,45,102510,2,0,B|256:77|236:98|236:98|255:121|255:152,1,118.999996368408,10|0,0:0|0:0,0:0:0:0:
201,352,102971,6,0,P|168:294|258:282,1,178.499994552612,2|0,1:2|0:0,0:0:0:0:
212,373,103433,6,0,L|128:359,1,59.4999981842042,2|0,1:2|0:0,0:0:0:0:
58,293,103664,2,0,L|-26:307,1,59.4999981842042,2|0,0:0|0:0,0:0:0:0:
40,155,103895,2,0,B|87:195|87:195|151:185,1,118.999996368408,2|0,1:2|0:0,0:0:0:0:
359,82,104356,1,10,0:0:0:0:
258,39,104471,2,0,L|291:176,1,118.999996368408,2|0,0:0|0:0,0:0:0:0:
367,204,104818,2,0,L|374:161,4,29.7499990921021,2|2|2|2|2,2:3|2:3|2:3|2:3|2:3,0:0:0:0:
165,303,105279,6,0,P|224:299|271:350,1,118.999996368408,2|0,1:2|0:0,0:0:0:0:
475,228,105741,2,0,L|463:286,1,59.4999981842042,2|0,0:0|0:0,0:0:0:0:
355,262,105971,2,0,L|366:203,1,59.4999981842042,2|0,0:0|0:0,0:0:0:0:
496,128,106202,2,0,B|438:137|438:137|390:99,1,118.999996368408,10|0,0:0|0:0,0:0:0:0:
164,44,106664,6,0,P|241:34|232:111,1,178.499994552612,2|0,1:2|0:0,0:0:0:0:
149,134,107125,6,0,L|90:121,1,59.4999981842042,2|0,1:2|0:0,0:0:0:0:
0,241,107356,2,0,L|58:228,1,59.4999981842042,2|0,0:0|0:0,0:0:0:0:
29,43,107587,2,0,B|-9:91|-9:91|0:149,1,118.999996368408,2|0,1:2|0:0,0:0:0:0:
182,280,108048,2,0,L|166:213,1,59.4999981842042,10|0,0:2|0:0,0:0:0:0:
149,134,108279,5,2,1:2:0:0:
240,156,108510,1,2,1:2:0:0:
331,178,108741,1,0,1:0:0:0:
221,369,108971,6,0,P|163:378|112:349,1,118.999996368408,2|0,1:2|0:0,0:0:0:0:
16,142,109433,1,0,0:0:0:0:
240,156,109664,1,2,0:0:0:0:
211,165,109779,1,2,0:0:0:0:
183,174,109894,1,10,0:0:0:0:
0,246,110125,1,2,0:0:0:0:
29,255,110240,1,2,0:0:0:0:
57,264,110355,1,2,1:2:0:0:
124,85,110587,1,2,2:3:0:0:
227,281,110818,6,0,L|294:260,1,59.4999981842042,2|0,1:2|0:0,0:0:0:0:
240,156,111048,2,0,L|183:173,1,59.4999981842042
133,306,111279,1,0,1:0:0:0:
334,169,111741,2,0,B|348:111|348:111|306:68,1,118.999996368408,10|2,0:0|0:0,0:0:0:0:
227,281,112202,2,0,P|311:270|366:335,1,178.499994552612,2|2,2:3|2:3,0:0:0:0:
494,384,112664,6,0,B|459:336|459:336|471:277,1,118.999996368408,2|0,1:2|0:0,0:0:0:0:
348,57,113125,2,0,B|378:45|378:45|416:55,1,59.4999981842042,2|0,0:0|0:0,0:0:0:0:
420,188,113356,2,0,B|394:168|394:168|384:130,1,59.4999981842042,2|0,0:0|0:0,0:0:0:0:
479,13,113587,2,0,B|501:56|501:56|453:153,1,118.999996368408,10|0,0:0|0:0,0:0:0:0:
263,210,114048,2,0,L|240:72,1,118.999996368408,2|0,1:2|0:0,0:0:0:0:
404,267,114510,6,0,L|330:286,1,59.4999981842042,2|0,1:2|0:0,0:0:0:0:
220,348,114741,2,0,L|294:367,1,59.4999981842042,2|0,0:0|0:0,0:0:0:0:
263,210,114971,2,0,B|208:232|208:232|137:214,1,118.999996368408,2|0,0:0|0:0,0:0:0:0:
346,50,115433,2,0,L|478:72,1,118.999996368408,10|0,0:0|1:0,0:0:0:0:
421,233,115779,1,0,0:0:0:0:
421,233,115895,2,0,L|400:146,2,79.3333309122722,2|0|0,1:2|0:0|0:0,0:0:0:0:
293,318,116356,6,0,B|350:297|350:297|369:324|398:325,1,118.999996368408,6|2,1:2|2:3,0:0:0:0:
209,206,116818,1,2,1:3:0:0:
179,211,116933,1,2,0:3:0:0:
150,217,117048,2,0,B|120:269|120:269|153:348,1,118.999996368408,2|2,0:3|1:3,0:0:0:0:
309,177,117510,1,2,0:0:0:0:
135,56,117741,1,2,1:2:0:0:
140,86,117856,1,2,0:0:0:0:
146,115,117971,1,2,0:0:0:0:
361,52,118202,6,0,P|296:66|247:10,1,118.999996368408,2|0,0:0|0:0,0:0:0:0:
76,206,118664,1,6,1:2:0:0:
105,212,118779,1,2,0:0:0:0:
135,217,118895,2,0,B|165:269|165:269|132:348,1,118.999996368408,2|8,0:0|0:2,0:0:0:0:
224,158,119356,1,2,1:2:0:0:
313,348,119587,1,2,0:0:0:0:
283,353,119702,1,2,0:0:0:0:
254,359,119817,1,2,0:0:0:0:
327,174,120048,6,0,B|383:191|383:191|432:157,1,118.999996368408,6|2,0:0|2:3,0:0:0:0:
235,99,120510,1,2,1:2:0:0:
230,129,120625,1,2,0:0:0:0:
224,158,120741,2,0,L|245:326,1,118.999996368408,2|8,0:0|0:2,0:0:0:0:
327,174,121202,1,2,0:0:0:0:
134,229,121433,1,2,1:2:0:0:
104,224,121548,1,2,0:0:0:0:
75,218,121663,1,2,0:0:0:0:
223,41,121895,6,0,L|240:118,1,59.4999981842042,2|2,2:3|2:3,0:0:0:0:
147,118,122125,2,0,L|134:59,1,59.4999981842042,2|0,2:3|0:0,0:0:0:0:
304,0,122356,2,0,L|335:140,1,118.999996368408,2|0,1:2|0:0,0:0:0:0:
286,336,122818,2,0,L|298:277,1,59.4999981842042,10|0,0:2|0:0,0:0:0:0:
268,188,123048,5,0,1:2:0:0:
362,206,123279,1,2,1:2:0:0:
455,222,123510,1,0,1:2:0:0:
304,0,123741,5,4,1:2:0:0:
304,0,124202,2,0,L|290:67,1,42.5,2|2,0:0|0:0,0:0:0:0:
211,103,124433,2,0,L|186:-14,1,85,2|8,0:0|0:0,0:0:0:0:
294,134,124895,1,2,0:0:0:0:
175,245,125125,2,0,L|116:237,1,42.5,2|2,1:2|0:2,0:0:0:0:
60,203,125356,1,2,0:2:0:0:
17,384,125587,2,0,L|127:362,1,85,2|2,1:2|0:3,0:0:0:0:
368,317,126048,5,2,1:2:0:0:
339,324,126163,1,2,0:0:0:0:
310,332,126279,2,0,B|265:292|265:292|279:218,1,118.999996368408,2|8,0:0|0:2,0:0:0:0:
461,185,126741,1,2,0:0:0:0:
383,14,126971,1,2,0:0:0:0:
378,43,127086,1,2,0:0:0:0:
374,72,127201,1,2,0:0:0:0:
152,220,127433,6,0,L|133:102,1,118.999996368408,0|2,1:2|0:3,0:0:0:0:
285,279,127895,1,2,0:0:0:0:
255,274,128010,1,2,0:0:0:0:
229,286,128125,2,0,P|179:320|104:308,1,118.999996368408,2|8,0:0|0:2,0:0:0:0:
246,155,128587,1,2,0:0:0:0:
381,313,128818,1,2,1:2:0:0:
376,342,128933,1,2,0:0:0:0:
372,371,129048,1,2,0:0:0:0:
152,220,129279,6,0,L|133:102,1,85,2|2,2:2|2:2,0:0:0:0:
116,40,129741,1,2,0:0:0:0:
245,139,130202,2,0,B|365:89|332:192|465:130,1,223.125008511544,2|0,0:2|0:0,0:0:0:0:
505,70,131125,5,4,1:2:0:0:
44,196,138510,6,0,L|82:325,1,127.500004863739,2|2,1:2|0:0,0:0:0:0:
211,124,139433,2,0,L|173:253,1,127.500004863739,2|2,1:2|0:0,0:0:0:0:
300,350,140356,2,0,P|336:314|421:327,1,127.500004863739,2|2,1:2|0:0,0:0:0:0:
465,142,141279,1,2,1:2:0:0:
511,239,141510,2,0,L|357:220,1,127.500004863739,2|2,0:0|0:0,0:0:0:0:
295,157,142202,6,0,L|220:176,1,63.7500024318696,2|2,1:2|0:2,0:0:0:0:
172,253,142664,2,0,L|97:234,1,63.7500024318696,2|2,1:2|0:2,0:0:0:0:
257,322,143125,2,0,L|269:243,1,63.7500024318696,2|0,1:2|0:0,0:0:0:0:
142,149,143587,2,0,L|130:70,1,63.7500024318696,2|2,1:2|0:2,0:0:0:0:
42,157,144048,5,2,0:3:0:0:
256,192,144279,12,8,145433,0:0:0:0:
142,70,145895,6,0,B|200:47|200:47|252:70,1,118.999996368408,6|0,1:2|0:0,0:0:0:0:
195,214,146241,1,0,1:2:0:0:
195,214,146356,2,0,L|195:154,1,59.4999981842042,8|0,0:2|0:0,0:0:0:0:
286,156,146587,2,0,L|286:216,1,59.4999981842042,0|0,1:2|0:0,0:0:0:0:
247,298,146818,6,0,P|191:316|138:293,1,118.999996368408,2|0,1:2|0:0,0:0:0:0:
82,229,147164,1,0,1:2:0:0:
82,229,147279,1,8,0:2:0:0:
79,384,147510,1,0,1:2:0:0:
195,214,147741,6,0,L|195:60,1,118.999996368408,2|0,1:2|0:0,0:0:0:0:
103,77,148087,1,0,1:2:0:0:
103,77,148202,2,0,L|103:137,1,59.4999981842042,8|0,0:2|0:0,0:0:0:0:
82,229,148433,2,0,L|22:229,1,59.4999981842042,0|0,1:2|0:0,0:0:0:0:
138,293,148664,5,2,1:2:0:0:
289,150,148895,1,0,0:0:0:0:
289,150,149010,1,0,1:2:0:0:
289,150,149125,2,0,L|290:223,1,59.4999981842042,8|0,0:2|0:0,0:0:0:0:
195,214,149356,2,0,L|194:154,1,59.4999981842042,0|0,1:2|0:0,0:0:0:0:
226,67,149587,6,0,B|281:44|281:44|340:69,1,118.999996368408,6|0,1:2|0:0,0:0:0:0:
410,116,149933,1,0,1:2:0:0:
410,116,150048,2,0,L|478:116,1,59.4999981842042,8|0,0:2|0:0,0:0:0:0:
469,26,150279,2,0,L|409:26,1,59.4999981842042,0|0,1:2|0:0,0:0:0:0:
377,207,150510,6,0,L|496:207,1,118.999996368408,2|0,1:2|0:0,0:0:0:0:
457,297,150856,1,0,1:2:0:0:
457,297,150971,1,8,0:2:0:0:
410,116,151202,1,0,1:2:0:0:
266,238,151433,6,0,B|211:259|211:259|155:236,1,118.999996368408,2|0,1:2|0:0,0:0:0:0:
213,102,151779,1,0,1:2:0:0:
213,102,151895,2,0,L|213:161,1,59.4999981842042,8|0,0:2|0:0,0:0:0:0:
121,154,152125,2,0,L|121:94,1,59.4999981842042,0|0,1:2|0:0,0:0:0:0:
173,14,152356,5,2,1:2:0:0:
173,14,152471,2,0,B|118:-7|118:-7|62:15,1,118.999996368408,2|2,0:0|1:2,0:0:0:0:
6,87,152818,2,0,B|20:123|20:123|3:171,2,79.3333309122722,10|0|0,0:2|1:2|1:2,0:0:0:0:
121,154,153279,6,0,L|121:281,1,118.999996368408,6|0,1:2|0:0,0:0:0:0:
150,358,153625,1,0,1:2:0:0:
150,358,153741,2,0,B|120:366|120:366|92:358,1,59.4999981842042,8|0,0:2|0:0,0:0:0:0:
209,290,153971,2,0,B|238:281|238:281|266:289,1,59.4999981842042,0|0,1:2|0:0,0:0:0:0:
373,384,154202,6,0,B|348:331|348:331|372:275,1,118.999996368408,2|0,1:2|0:0,0:0:0:0:
445,333,154548,1,0,1:2:0:0:
445,333,154664,1,8,0:2:0:0:
272,384,154895,1,0,1:2:0:0:
312,196,155125,6,0,B|364:171|364:171|420:195,1,118.999996368408,2|0,1:2|0:0,0:0:0:0:
494,148,155471,1,0,1:2:0:0:
494,148,155587,2,0,L|494:86,1,59.4999981842042,8|0,0:2|0:0,0:0:0:0:
410,36,155818,2,0,L|410:95,1,59.4999981842042,0|0,1:2|0:0,0:0:0:0:
421,195,156048,5,2,1:2:0:0:
260,73,156279,1,2,0:0:0:0:
260,73,156395,1,0,1:2:0:0:
260,73,156510,2,0,L|319:73,1,59.4999981842042,8|0,0:2|0:0,0:0:0:0:
315,165,156741,2,0,L|255:165,1,59.4999981842042,0|0,1:2|0:0,0:0:0:0:
153,63,156971,6,0,B|176:119|176:119|152:171,1,118.999996368408,6|0,1:2|0:0,0:0:0:0:
22,120,157318,1,0,1:2:0:0:
22,120,157433,2,0,L|81:120,1,59.4999981842042,8|0,0:2|0:0,0:0:0:0:
75,38,157663,2,0,L|15:38,1,59.4999981842042,0|0,1:2|0:0,0:0:0:0:
46,207,157895,6,0,L|46:335,1,118.999996368408,2|0,1:2|0:0,0:0:0:0:
147,357,158241,1,0,1:2:0:0:
147,357,158356,1,8,0:2:0:0:
152,172,158587,1,0,1:2:0:0:
352,266,158818,6,0,B|296:289|296:289|244:265,1,118.999996368408,2|0,1:2|0:0,0:0:0:0:
301,132,159164,1,0,1:2:0:0:
301,132,159279,2,0,L|301:201,1,59.4999981842042,8|0,0:2|0:0,0:0:0:0:
302,374,159510,5,0,1:2:0:0:
302,374,159971,1,2,0:0:0:0:
437,269,160202,2,0,B|414:263|387:261|387:261|351:292|351:292|313:274|272:286,1,178.499994552612,2|0,0:0|0:0,0:0:0:0:
169,384,160664,6,0,B|200:332|200:332|179:306|183:277,1,118.999996368408,6|2,1:2|0:0,0:0:0:0:
243,114,161010,1,0,1:2:0:0:
272,191,161125,2,0,B|246:202|246:202|215:195,1,59.4999981842042,10|0,0:2|0:0,0:0:0:0:
153,92,161356,1,2,1:2:0:0:
163,63,161471,1,2,0:0:0:0:
174,35,161587,6,0,B|225:14|225:14|287:27,1,118.999996368408,2|0,1:2|0:0,0:0:0:0:
432,108,161933,1,0,1:2:0:0:
349,143,162048,2,0,L|349:73,1,59.4999981842042,10|0,0:2|0:0,0:0:0:0:
432,48,162279,2,0,L|432:109,1,59.4999981842042,2|0,1:2|0:0,0:0:0:0:
467,227,162510,6,0,B|437:227|414:210|414:210|392:226|358:235,1,118.999996368408,2|2,1:2|0:0,0:0:0:0:
264,123,162856,1,2,1:2:0:0:
349,83,162971,2,0,L|349:143,1,59.4999981842042,10|0,0:2|0:0,0:0:0:0:
278,213,163202,2,0,L|218:213,1,59.4999981842042,0|0,1:2|0:0,0:0:0:0:
114,210,163433,5,2,1:2:0:0:
176,76,163664,2,0,L|176:140,1,59.4999981842042,2|0,0:0|1:2,0:0:0:0:
164,296,163895,1,10,0:2:0:0:
25,120,164125,1,0,1:2:0:0:
258,13,164356,6,0,B|284:66|284:66|266:122,1,118.999996368408,6|2,1:2|0:0,0:0:0:0:
220,217,164702,1,0,1:2:0:0:
119,137,164818,2,0,B|146:127|146:127|175:134,1,59.4999981842042,10|0,0:2|0:0,0:0:0:0:
308,245,165049,1,2,1:2:0:0:
291,269,165164,1,2,0:0:0:0:
275,294,165279,6,0,B|220:317|220:317|162:295,1,118.999996368408,2|0,1:2|0:0,0:0:0:0:
220,217,165625,1,0,1:2:0:0:
308,245,165741,2,0,L|393:245,1,59.4999981842042,10|0,0:2|0:0,0:0:0:0:
369,151,165971,2,0,L|309:151,1,59.4999981842042,2|0,1:2|0:0,0:0:0:0:
453,200,166202,6,0,P|472:144|453:89,1,118.999996368408,2|0,1:2|0:0,0:0:0:0:
431,0,166548,1,2,1:2:0:0:
308,65,166664,2,0,L|367:65,1,59.4999981842042,10|2,0:2|0:0,0:0:0:0:
369,151,166895,2,0,L|309:151,1,59.4999981842042,2|0,1:2|0:0,0:0:0:0:
132,114,167125,5,2,1:2:0:0:
198,52,167241,2,0,B|224:105|224:105|206:161,1,118.999996368408,2|0,0:0|1:2,0:0:0:0:
133,211,167587,1,10,0:2:0:0:
29,36,167818,1,0,1:2:0:0:
78,292,168048,6,0,B|134:314|134:314|188:291,1,118.999996368408,6|2,1:2|0:0,0:0:0:0:
270,240,168395,1,0,1:2:0:0:
327,331,168510,2,0,L|257:331,1,59.4999981842042,10|0,0:2|0:0,0:0:0:0:
174,196,168740,1,2,1:2:0:0:
195,174,168855,1,2,0:0:0:0:
216,154,168971,6,0,B|272:132|272:132|326:154,1,118.999996368408,2|0,1:2|0:0,0:0:0:0:
402,101,169318,1,0,1:2:0:0:
483,160,169433,2,0,L|483:233,1,59.4999981842042,10|0,0:2|0:0,0:0:0:0:
400,253,169664,2,0,L|400:191,1,59.4999981842042,2|0,1:2|0:0,0:0:0:0:
451,332,169895,6,0,B|397:354|397:354|341:332,1,118.999996368408,2|2,1:2|0:0,0:0:0:0:
277,254,170241,1,2,1:2:0:0:
194,340,170356,2,0,L|253:340,1,59.4999981842042,10|0,0:2|0:0,0:0:0:0:
188,253,170587,2,0,L|128:253,1,59.4999981842042,0|0,1:2|0:0,0:0:0:0:
102,339,170818,5,2,1:2:0:0:
234,161,171048,2,0,L|174:161,1,59.4999981842042
79,89,171279,2,0,B|92:126|92:126|81:165,2,79.3333309122722,10|0|0,0:2|1:2|1:2,0:0:0:0:
174,65,171741,6,0,L|296:65,1,118.999996368408,6|2,1:2|0:0,0:0:0:0:
405,173,172087,1,0,1:2:0:0:
440,91,172202,2,0,L|378:91,1,59.4999981842042,10|0,0:2|0:0,0:0:0:0:
234,161,172433,1,2,1:2:0:0:
263,161,172548,1,2,0:0:0:0:
293,161,172664,6,0,B|315:221|315:221|287:286,1,118.999996368408,2|0,1:2|0:0,0:0:0:0:
197,384,173010,1,0,1:2:0:0:
150,300,173125,2,0,L|223:300,1,59.4999981842042,10|0,0:2|0:0,0:0:0:0:
285,360,173356,2,0,L|344:360,1,59.4999981842042,2|0,1:2|0:0,0:0:0:0:
459,290,173587,6,0,L|459:163,1,118.999996368408,2|0,1:2|0:0,0:0:0:0:
399,94,173933,1,2,1:2:0:0:
318,135,174048,2,0,B|289:143|289:143|248:132,1,59.4999981842042,10|2,0:2|0:0,0:0:0:0:
261,47,174279,2,0,B|289:38|289:38|330:49,1,59.4999981842042,2|0,1:2|0:0,0:0:0:0:
399,94,174510,5,0,1:2:0:0:
230,261,174741,2,0,L|138:249,1,59.4999981842042,0|0,0:0|1:2,0:0:0:0:
80,167,174971,2,0,L|158:156,2,79.3333309122722,8|0|0,0:2|1:2|1:2,0:0:0:0:
