osu file format v14

[General]
AudioFilename: audio.mp3
AudioLeadIn: 0
PreviewTime: 100087
Countdown: 0
SampleSet: Soft
StackLeniency: 0.5
Mode: 0
LetterboxInBreaks: 0
WidescreenStoryboard: 1

[Editor]
Bookmarks: 1903,12979,27749,42518,57287,72056,86826,101595,116364,131133,145903,160672,175287
DistanceSpacing: 1.2
BeatDivisor: 4
GridSize: 32
TimelineZoom: 1.7

[Metadata]
Title:How You Like That
TitleUnicode:How You Like That
Artist:BLACKPINK
ArtistUnicode:BLACKPINK
Creator:Stixy
Version:Eli's Hard
Source:
Tags:korean k pop k-pop kpop hylt 블핑 블랙핑크 yg entertainment 지수 jisoo 제니 jennie 로제 rosÉ rose 리사 lisa nofc suyuko rosiie lyawi Irreversible armin a_r_m_i_n enerugi elinor eli [_eli_] derandom_otaku derandom otaku ren blackener shirahane suou english BLΛƆKPIИK _DUSK_
BeatmapID:2514532
BeatmapSetID:1201711

[Difficulty]
HPDrainRate:4.8
CircleSize:3.6
OverallDifficulty:7.6
ApproachRate:8
SliderMultiplier:1.6
SliderTickRate:1

[Events]
//Background and Video events
0,0,"bg.jpg",0,0
Video,-730,"video.avi"
//Break Periods
2,123941,125298
2,131325,137760
//Storyboard Layer 0 (Background)
//Storyboard Layer 1 (Fail)
//Storyboard Layer 2 (Pass)
//Storyboard Layer 3 (Foreground)
//Storyboard Layer 4 (Overlay)
//Storyboard Sound Samples

[TimingPoints]
1895,461.538461538462,4,2,1,50,1,0
1895,-125,4,2,1,50,0,0
10895,-125,4,2,1,20,0,0
12279,-125,4,2,1,40,0,0
12971,-111.111111111111,4,2,1,60,0,0
26010,-111.111111111111,4,2,1,5,0,0
27279,-111.111111111111,4,2,1,60,0,0
27741,-111.111111111111,4,2,1,60,0,0
42395,-111.111111111111,4,2,1,5,0,0
42510,-71.4285714285714,4,2,1,80,0,1
71125,-125,4,2,1,80,0,1
72048,-100,4,2,1,70,0,0
86818,-111.111111111111,4,2,1,60,0,0
101471,-100,4,2,1,60,0,0
101587,-71.4285714285714,4,2,1,80,0,1
123741,-71.4285714285714,4,2,1,80,0,0
126048,-71.4285714285714,4,2,1,80,0,1
130202,-125,4,2,1,80,0,1
131010,-125,4,2,1,5,0,1
131125,-125,4,2,1,50,0,0
138510,-125,4,2,1,60,0,0
142202,-100,4,2,1,60,0,0
145318,-100,4,2,1,5,0,0
145433,-100,4,2,1,60,0,0
145779,-100,4,2,1,5,0,0
145895,-71.4285714285714,4,2,1,80,0,0
160548,-71.4285714285714,4,2,1,5,0,0
160664,-71.4285714285714,4,2,1,80,0,1
175279,-71.4285714285714,4,2,1,80,0,0

[Colours]
Combo1 : 255,149,149
Combo2 : 128,128,192
Combo3 : 0,128,128
Combo4 : 255,128,255

[HitObjects]
304,40,1895,6,0,B|376:32|368:84|440:72,2,128,2|2|2,0:0|0:0|0:0,0:0:0:0:
164,148,3279,1,2,0:0:0:0:
164,148,3741,6,0,L|188:288,1,128,2|2,0:0|0:0,0:0:0:0:
348,352,4664,2,0,L|364:224,1,128,2|2,0:0|0:0,0:0:0:0:
312,52,5587,2,0,P|232:52|204:88,1,128,2|2,0:0|0:0,0:0:0:0:
188,264,6510,1,2,0:0:0:0:
188,264,6971,6,0,L|124:252,1,64,2|0,0:0|0:0,0:0:0:0:
80,176,7433,2,0,L|148:160,1,64,2|0,0:0|0:0,0:0:0:0:
232,168,7895,1,2,0:0:0:0:
296,232,8125,1,2,0:0:0:0:
264,316,8356,2,0,L|200:332,1,64,2|0,0:0|0:0,0:0:0:0:
112,316,8818,2,0,P|88:264|108:192,1,128,2|2,0:0|0:0,0:0:0:0:
256,192,9395,12,0,10895,0:0:0:0:
404,96,12279,5,2,0:0:0:0:
404,96,12510,2,0,L|392:160,1,64,2|2,0:0|0:0,0:0:0:0:
372,244,12971,6,0,B|308:228|320:312|244:288,1,143.999995605469,6|0,1:2|0:0,0:0:0:0:
40,128,14125,1,2,0:0:0:0:
40,128,14356,2,0,L|108:104,1,71.9999978027344,2|2,0:0|0:0,0:0:0:0:
192,76,14818,6,0,P|252:108|252:180,1,143.999995605469,2|0,1:2|0:0,0:0:0:0:
60,352,15971,1,2,0:0:0:0:
60,352,16202,2,0,L|68:280,1,71.9999978027344,2|2,0:0|0:0,0:0:0:0:
132,224,16664,6,0,B|179:232|179:232|206:268|206:268|258:278,1,143.999995605469,2|2,1:2|0:0,0:0:0:0:
344,272,17356,1,2,0:0:0:0:
344,272,17587,2,0,L|356:200,1,71.9999978027344,2|2,1:2|0:0,0:0:0:0:
332,116,18048,2,0,L|260:100,1,71.9999978027344,2|0,0:0|0:0,0:0:0:0:
176,96,18510,6,0,B|132:116|132:116|160:208,1,143.999995605469,2|2,1:2|0:0,0:0:0:0:
384,340,19664,1,2,0:0:0:0:
384,340,19895,2,0,L|456:324,1,71.9999978027344,2|2,0:0|0:0,0:0:0:0:
500,252,20356,6,0,P|500:172|456:131,1,143.999995605469,6|0,1:2|0:0,0:0:0:0:
196,112,21510,1,2,0:0:0:0:
196,112,21741,2,0,L|188:184,1,71.9999978027344,2|2,0:0|0:0,0:0:0:0:
180,268,22202,6,0,P|148:328|76:328,1,143.999995605469,2|0,1:2|0:2,0:0:0:0:
28,76,23356,1,2,0:0:0:0:
28,76,23587,2,0,L|100:56,1,71.9999978027344,2|2,0:0|0:0,0:0:0:0:
176,24,24048,6,0,B|240:12|228:84|304:68,1,143.999995605469,2|2,1:2|0:0,0:0:0:0:
384,36,24741,1,2,0:0:0:0:
384,36,24971,2,0,P|388:60|396:108,1,71.9999978027344,2|2,1:2|0:0,0:0:0:0:
472,148,25433,2,0,P|468:172|460:220,1,71.9999978027344,2|0,0:0|0:0,0:0:0:0:
440,304,25895,1,2,1:2:0:0:
256,192,26010,12,10,27279,0:0:0:0:
60,80,27741,6,0,L|80:192,2,107.999996704102,6|2|2,1:2|0:0|0:0,0:0:0:0:
132,32,28664,2,0,L|240:48,2,107.999996704102,2|2|2,1:2|0:0|0:0,0:0:0:0:
60,80,29587,6,0,P|40:124|56:180,1,107.999996704102,2|2,1:2|0:0,0:0:0:0:
124,288,30279,1,2,0:0:0:0:
184,348,30510,2,0,L|328:324,1,143.999995605469,2|0,1:2|0:0,0:0:0:0:
400,276,31202,1,2,0:0:0:0:
428,192,31433,6,0,L|444:80,2,107.999996704102,2|2|2,1:2|0:0|0:0,0:0:0:0:
360,244,32356,2,0,L|384:360,2,107.999996704102,2|2|2,1:2|0:0|0:0,0:0:0:0:
316,168,33279,6,0,B|256:160|256:216|180:208,1,143.999995605469,2|0,1:2|0:0,0:0:0:0:
120,148,33971,1,0,0:0:0:0:
48,196,34202,2,0,P|59:252|72:340,1,143.999995605469,2|0,1:2|0:0,0:0:0:0:
240,340,35125,6,0,L|348:324,2,107.999996704102,2|2|2,1:2|0:0|0:0,0:0:0:0:
200,264,36048,2,0,L|92:248,2,107.999996704102,2|2|2,1:2|0:0|0:0,0:0:0:0:
260,200,36971,6,0,L|368:184,2,107.999996704102,2|2|2,1:2|0:0|0:0,0:0:0:0:
188,152,37895,2,0,P|180:112|188:80,1,71.9999978027344,2|0,1:2|0:0,0:0:0:0:
260,36,38356,2,0,L|296:32,1,35.9999989013672,2|2,0:0|0:0,0:0:0:0:
412,68,38818,6,0,L|424:144,1,71.9999978027344,2|0,1:2|0:0,0:0:0:0:
420,232,39279,2,0,L|384:240,1,35.9999989013672,2|2,0:0|0:0,0:0:0:0:
256,264,39741,2,0,L|244:340,1,71.9999978027344,2|0,1:2|0:0,0:0:0:0:
160,356,40202,2,0,L|148:280,1,71.9999978027344,2|0,0:0|0:0,0:0:0:0:
124,204,40664,6,0,P|152:184|188:184,1,71.9999978027344,2|2,0:3|0:3,0:0:0:0:
188,184,41125,1,2,0:3:0:0:
360,152,41587,2,0,P|372:116|360:84,1,71.9999978027344,2|2,0:3|0:3,0:0:0:0:
360,85,42048,1,2,0:0:0:0:
92,64,42510,6,0,L|80:176,1,111.999996582031,6|0,1:2|0:0,0:0:0:0:
132,272,42971,1,2,0:0:0:0:
224,336,43202,1,2,0:0:0:0:
320,284,43433,2,0,B|380:276|376:312|428:304,1,111.999996582031,10|0,0:0|0:0,0:0:0:0:
480,188,43895,2,0,L|464:76,1,111.999996582031,2|0,1:2|0:0,0:0:0:0:
368,20,44356,6,0,L|312:28,1,55.9999982910157,2|0,1:2|0:0,0:0:0:0:
284,76,44587,2,0,L|228:60,1,55.9999982910157,2|0,0:0|0:0,0:0:0:0:
188,24,44818,2,0,B|136:32|156:72|92:80,1,111.999996582031,2|0,1:2|0:0,0:0:0:0:
40,180,45279,1,10,0:0:0:0:
40,180,45395,2,0,L|63:294,1,111.999996582031,2|0,0:0|0:0,0:0:0:0:
72,332,45741,2,0,L|44:344,3,27.9999991455078,2|2|2|2,2:3|2:3|2:3|2:3,0:0:0:0:
192,288,46202,6,0,B|252:288|244:328|304:328,1,111.999996582031,2|0,1:2|0:0,0:0:0:0:
404,352,46664,1,2,0:0:0:0:
464,256,46895,1,2,0:0:0:0:
412,156,47125,2,0,L|300:176,1,111.999996582031,10|0,0:0|0:0,0:0:0:0:
212,244,47587,2,0,L|96:216,1,111.999996582031,2|0,1:2|0:0,0:0:0:0:
20,144,48048,6,0,L|24:88,1,55.9999982910157,2|0,1:2|0:0,0:0:0:0:
52,40,48279,2,0,L|108:44,1,55.9999982910157,2|0,0:0|0:0,0:0:0:0:
164,44,48510,2,0,B|220:36|224:80|272:72,1,111.999996582031,2|0,1:2|0:0,0:0:0:0:
372,28,48971,1,10,0:2:0:0:
452,108,49202,1,2,1:2:0:0:
404,208,49433,2,0,L|396:264,1,55.9999982910157,2|0,1:2|0:0,0:0:0:0:
372,316,49664,2,0,L|316:304,1,55.9999982910157,0|0,1:0|0:0,0:0:0:0:
264,288,49895,6,0,B|212:272|208:320|152:304,1,111.999996582031,2|0,1:2|0:0,0:0:0:0:
96,212,50356,1,0,0:0:0:0:
64,104,50587,2,0,L|56:48,2,55.9999982910157,2|2|10,0:0|0:0|0:0,0:0:0:0:
96,212,51048,2,0,L|88:272,2,55.9999982910157,2|2|2,0:0|0:0|1:2,0:0:0:0:
200,172,51510,1,2,2:3:0:0:
228,64,51741,6,0,L|172:48,1,55.9999982910157,2|0,1:2|0:0,0:0:0:0:
124,36,51971,2,0,L|68:48,1,55.9999982910157
40,92,52202,2,0,L|52:208,1,111.999996582031,0|0,1:0|0:0,0:0:0:0:
108,300,52664,2,0,P|156:328|212:328,1,111.999996582031,10|0,0:0|0:0,0:0:0:0:
244,220,53125,2,0,P|284:196|352:196,1,111.999996582031,2|2,2:3|2:3,0:0:0:0:
456,260,53587,6,0,L|468:148,1,111.999996582031,2|0,1:2|0:0,0:0:0:0:
484,36,54048,1,2,0:0:0:0:
372,16,54279,1,2,0:0:0:0:
304,104,54510,2,0,B|252:92|244:132|196:120,1,111.999996582031,10|0,0:0|0:0,0:0:0:0:
124,208,54971,2,0,B|177:205|178:245|227:242,1,111.999996582031,2|0,1:2|0:0,0:0:0:0:
336,212,55433,6,0,L|392:220,1,55.9999982910157,2|0,1:2|0:0,0:0:0:0:
424,256,55664,2,0,L|416:312,1,55.9999982910157,2|0,0:0|0:0,0:0:0:0:
384,356,55895,2,0,L|272:340,1,111.999996582031,2|0,0:0|0:0,0:0:0:0:
160,332,56356,1,10,0:0:0:0:
96,236,56587,1,0,1:0:0:0:
172,156,56818,2,0,L|228:144,1,55.9999982910157,2|0,1:2|0:0,0:0:0:0:
272,176,57048,2,0,L|328:164,1,55.9999982910157,0|0,1:0|0:0,0:0:0:0:
364,120,57279,6,0,P|364:64|324:28,1,111.999996582031,6|2,2:3|2:3,0:0:0:0:
212,32,57741,1,2,0:0:0:0:
212,32,57856,1,2,0:0:0:0:
212,32,57971,1,2,0:0:0:0:
112,84,58202,1,8,0:0:0:0:
132,196,58433,1,2,0:0:0:0:
240,220,58664,2,0,L|296:212,2,55.9999982910157,2|2|2,1:2|0:0|0:0,0:0:0:0:
112,244,59125,6,0,P|120:284|132:356,1,111.999996582031,2|0,0:0|0:0,0:0:0:0:
244,364,59587,1,2,1:2:0:0:
244,364,59702,1,2,0:0:0:0:
244,364,59818,1,2,0:0:0:0:
336,300,60048,1,8,0:2:0:0:
292,196,60279,1,2,1:2:0:0:
180,200,60510,2,0,L|124:212,2,55.9999982910157,2|2|2,0:0|0:0|0:0,0:0:0:0:
268,112,60971,6,0,B|320:108|320:148|372:144,1,111.999996582031,2|0,0:0|0:0,0:0:0:0:
484,132,61433,1,2,1:2:0:0:
484,132,61548,1,2,0:0:0:0:
484,132,61664,1,2,0:0:0:0:
508,240,61895,1,8,0:2:0:0:
428,320,62125,1,2,0:0:0:0:
336,256,62356,2,0,L|344:200,2,55.9999982910157,2|2|2,1:2|0:0|0:0,0:0:0:0:
260,340,62818,6,0,P|204:328|148:316,1,111.999996582031,2|2,2:3|2:3,0:0:0:0:
96,220,63279,2,0,P|149:208|205:196,1,111.999996582031,2|0,1:2|0:0,0:0:0:0:
316,180,63741,1,10,0:2:0:0:
360,76,63971,1,0,1:2:0:0:
260,28,64202,2,0,L|200:24,1,55.9999982910157,2|0,1:2|0:0,0:0:0:0:
148,32,64433,2,0,L|92:44,1,55.9999982910157,0|0,1:2|0:0,0:0:0:0:
56,84,64664,6,0,P|44:140|56:192,1,111.999996582031,2|2,1:3|2:3,0:0:0:0:
128,280,65125,2,0,L|116:340,2,55.9999982910157,2|2|2,0:0|0:0|0:0,0:0:0:0:
172,176,65587,1,8,0:0:0:0:
284,176,65818,1,2,0:0:0:0:
316,284,66048,1,2,1:2:0:0:
316,284,66164,1,2,0:2:0:0:
316,284,66279,1,2,0:2:0:0:
204,352,66510,6,0,B|148:356|156:324|96:328,1,111.999996582031,2|2,1:2|0:3,0:0:0:0:
56,224,66971,2,0,L|-4:240,2,55.9999982910157,2|2|2,1:2|0:0|0:0,0:0:0:0:
168,200,67433,1,8,0:2:0:0:
88,120,67664,1,2,0:0:0:0:
144,24,67895,1,2,0:0:0:0:
144,24,68010,1,2,0:0:0:0:
144,24,68125,1,2,0:0:0:0:
272,44,68356,6,0,L|384:60,1,111.999996582031,0|2,1:2|0:3,0:0:0:0:
452,148,68818,2,0,L|508:140,2,55.9999982910157,2|2|2,0:0|0:0|0:0,0:0:0:0:
340,156,69279,1,8,0:2:0:0:
304,264,69510,1,2,0:0:0:0:
396,332,69741,1,2,1:2:0:0:
396,332,69856,1,2,0:0:0:0:
396,332,69971,1,2,0:0:0:0:
484,236,70202,6,0,L|492:124,1,111.999996582031,2|2,1:2|2:3,0:0:0:0:
444,24,70664,2,0,P|388:24|344:60,1,111.999996582031,2|0,0:0|0:0,0:0:0:0:
284,168,71125,2,0,B|176:148|208:244|72:216,1,224,10|0,0:2|0:0,0:0:0:0:
44,180,72048,6,0,P|36:132|44:96,1,80,6|2,1:2|0:0,0:0:0:0:
68,60,72395,1,2,0:0:0:0:
68,60,72510,2,0,L|148:48,1,80,2|2,0:0|0:0,0:0:0:0:
240,28,72971,2,0,L|320:40,1,80,10|2,0:0|0:0,0:0:0:0:
416,48,73433,1,2,1:2:0:0:
416,48,73548,1,2,0:0:0:0:
468,184,73895,6,0,L|512:176,2,40,2|2|2,0:2|0:2|0:2,0:0:0:0:
372,180,74356,2,0,L|292:164,1,80,2|2,1:2|0:0,0:0:0:0:
200,180,74818,2,0,L|212:264,1,80,10|2,0:2|0:2,0:0:0:0:
212,348,75279,2,0,L|172:336,3,40,2|2|2|2,0:2|0:0|0:0|0:0,0:0:0:0:
128,328,75741,6,0,L|48:344,1,80,2|2,1:2|0:2,0:0:0:0:
16,252,76202,1,2,1:2:0:0:
16,252,76433,1,2,0:2:0:0:
56,164,76664,2,0,P|92:144|132:144,1,80,10|2,0:2|0:0,0:0:0:0:
196,212,77125,2,0,P|232:232|272:232,1,80,2|2,1:2|0:0,0:0:0:0:
360,196,77587,5,2,0:0:0:0:
360,196,77818,1,2,0:0:0:0:
404,112,78048,2,0,L|392:32,1,80,2|2,1:2|0:2,0:0:0:0:
296,20,78510,2,0,L|284:100,1,80,2|2,0:0|0:0,0:0:0:0:
264,192,78971,1,2,0:0:0:0:
264,192,79202,1,2,0:0:0:0:
164,112,79433,5,2,1:2:0:0:
164,112,79664,2,0,B|88:112|108:172|20:172,1,160,2|0,0:2|0:0,0:0:0:0:
24,268,80356,1,8,0:0:0:0:
24,268,80587,2,0,L|32:312,2,40,2|2|2,0:2|0:2|1:2,0:0:0:0:
28,172,81048,1,2,0:2:0:0:
28,172,81279,6,0,L|107:157,1,80,2|2,0:0|0:0,0:0:0:0:
204,152,81741,2,0,L|284:168,1,80,0|0,1:0|0:0,0:0:0:0:
368,128,82202,1,8,0:0:0:0:
368,128,82433,1,2,0:0:0:0:
312,48,82664,2,0,L|256:64,2,53.3333333333333,2|0|0,0:0|0:0|0:0,0:0:0:0:
408,40,83125,6,0,P|424:80|432:120,1,80,2|2,1:2|0:0,0:0:0:0:
480,200,83587,2,0,P|464:236|456:276,1,80,2|2,1:2|0:2,0:0:0:0:
376,328,84048,2,0,P|336:308|300:300,1,80,2|2,1:2|0:2,0:0:0:0:
208,316,84510,2,0,L|216:356,3,40,2|2|2|2,1:2|0:2|0:2|0:2,0:0:0:0:
196,272,84971,5,2,0:2:0:0:
196,272,85202,1,2,0:0:0:0:
24,356,85664,1,2,0:0:0:0:
24,356,85895,1,2,0:0:0:0:
40,68,86587,1,2,0:0:0:0:
40,68,86818,6,0,P|100:32|140:32,2,107.999996704102,6|2|2,1:2|0:0|0:0,0:0:0:0:
32,156,87741,2,0,L|56:272,2,107.999996704102,2|2|2,1:2|0:0|0:0,0:0:0:0:
40,68,88664,6,0,B|112:52|108:116|180:100,1,143.999995605469,2|0,1:2|0:0,0:0:0:0:
256,76,89356,1,2,0:0:0:0:
316,136,89587,2,0,L|300:284,1,143.999995605469,2|0,1:2|0:0,0:0:0:0:
340,348,90279,1,2,0:0:0:0:
340,348,90510,6,0,P|396:348|440:324,2,107.999996704102,2|2|2,1:2|0:0|0:0,0:0:0:0:
260,312,91433,2,0,L|244:204,2,107.999996704102,2|2|2,1:2|0:0|0:0,0:0:0:0:
340,348,92356,6,0,B|412:332|416:380|488:360,1,143.999995605469,2|0,1:2|0:0,0:0:0:0:
508,280,93048,1,2,0:0:0:0:
460,208,93279,2,0,P|392:184|320:168,1,143.999995605469,2|0,1:2|0:0,0:0:0:0:
168,224,94202,6,0,L|188:340,2,107.999996704102,6|2|2,1:2|0:0|0:0,0:0:0:0:
108,160,95125,2,0,L|120:40,2,107.999996704102,2|2|2,1:2|0:0|0:0,0:0:0:0:
36,208,96048,6,0,L|60:320,2,107.999996704102,2|2|2,1:2|0:0|0:0,0:0:0:0:
20,124,96971,2,0,L|88:100,1,71.9999978027344,2|0,1:2|0:0,0:0:0:0:
172,88,97433,2,0,L|180:124,1,35.9999989013672,2|2,0:0|0:0,0:0:0:0:
276,200,97895,6,0,L|288:120,1,71.9999978027344,2|0,1:2|0:0,0:0:0:0:
332,56,98356,2,0,L|376:48,1,35.9999989013672,2|2,0:0|0:0,0:0:0:0:
472,112,98818,2,0,P|480:144|488:188,1,71.9999978027344,2|0,0:0|0:0,0:0:0:0:
456,260,99279,2,0,P|416:268|384:280,1,71.9999978027344,2|0,0:0|0:0,0:0:0:0:
300,264,99741,6,0,L|308:192,1,71.9999978027344,2|2,0:3|0:3,0:0:0:0:
307,192,100202,1,2,0:3:0:0:
455,119,100664,6,0,L|439:47,1,71.9999978027344,2|2,0:3|0:3,0:0:0:0:
440,49,101125,1,2,0:0:0:0:
172,32,101587,6,0,B|184:144,1,111.999996582031,6|0,1:2|0:0,0:0:0:0:
176,260,102048,1,2,0:0:0:0:
77,314,102279,1,2,0:0:0:0:
4,232,102510,2,0,P|4:168|40:140,1,111.999996582031,10|0,0:0|0:0,0:0:0:0:
148,80,102971,2,0,L|260:68,1,111.999996582031,2|0,1:2|0:0,0:0:0:0:
372,88,103433,6,0,L|364:144,1,55.9999982910157,2|0,1:2|0:0,0:0:0:0:
376,188,103664,2,0,L|384:244,1,55.9999982910157,2|0,0:0|0:0,0:0:0:0:
368,296,103895,2,0,L|256:312,1,111.999996582031,2|0,1:2|0:0,0:0:0:0:
144,304,104356,1,10,0:0:0:0:
144,304,104471,2,0,P|128:256|128:192,1,111.999996582031,2|0,0:0|0:0,0:0:0:0:
108,148,104818,2,0,L|80:152,3,27.9999991455078,2|2|2|2,2:3|2:3|2:3|2:3,0:0:0:0:
200,64,105279,6,0,B|256:56|256:96|308:88,1,111.999996582031,2|0,1:2|0:0,0:0:0:0:
408,44,105741,1,2,0:0:0:0:
488,120,105971,1,2,0:0:0:0:
472,232,106202,2,0,L|452:344,1,111.999996582031,10|0,0:0|0:0,0:0:0:0:
340,356,106664,2,0,L|320:245,1,111.999996582031,2|0,1:2|0:0,0:0:0:0:
224,188,107125,6,0,L|168:200,1,55.9999982910157,2|0,1:2|0:0,0:0:0:0:
132,240,107356,2,0,L|76:228,1,55.9999982910157,2|0,0:0|0:0,0:0:0:0:
48,180,107587,2,0,P|36:124|48:72,1,111.999996582031,2|0,1:2|0:0,0:0:0:0:
148,20,108048,1,10,0:2:0:0:
232,92,108279,1,2,1:2:0:0:
316,20,108510,2,0,L|372:12,1,55.9999982910157,2|0,1:2|0:0,0:0:0:0:
424,36,108741,2,0,L|432:96,1,55.9999982910157,0|0,1:0|0:0,0:0:0:0:
412,144,108971,6,0,B|364:148|372:188|312:192,1,111.999996582031,2|0,1:2|0:0,0:0:0:0:
200,196,109433,1,0,0:0:0:0:
192,308,109664,2,0,L|136:328,2,55.9999982910157,2|2|10,0:0|0:0|0:0,0:0:0:0:
292,252,110125,2,0,L|348:272,2,55.9999982910157,2|2|2,0:0|0:0|1:2,0:0:0:0:
200,196,110587,1,2,2:3:0:0:
100,248,110818,5,2,1:2:0:0:
36,156,111048,1,0,0:0:0:0:
76,52,111279,2,0,P|116:28|180:28,1,111.999996582031,0|0,1:0|0:0,0:0:0:0:
260,108,111741,2,0,L|276:220,1,111.999996582031,10|0,0:0|0:0,0:0:0:0:
368,284,112202,2,0,L|383:173,1,111.999996582031,2|2,2:3|2:3,0:0:0:0:
392,48,112664,6,0,B|336:36|324:72|280:60,1,111.999996582031,2|0,1:2|0:0,0:0:0:0:
176,28,113125,1,2,0:0:0:0:
128,128,113356,1,2,0:0:0:0:
216,200,113587,2,0,L|328:216,1,111.999996582031,10|0,0:0|0:0,0:0:0:0:
372,320,114048,2,0,L|261:337,1,111.999996582031,2|0,1:2|0:0,0:0:0:0:
148,352,114510,6,0,L|92:344,1,55.9999982910157,2|0,1:2|0:0,0:0:0:0:
60,296,114741,2,0,L|64:240,1,55.9999982910157,2|0,0:0|0:0,0:0:0:0:
80,188,114971,2,0,P|128:160|188:160,1,111.999996582031,2|0,1:2|0:0,0:0:0:0:
312,156,115433,1,10,0:0:0:0:
428,280,115779,1,0,0:0:0:0:
428,280,115895,2,0,L|412:352,2,74.6666643880209,2|0|0,1:2|0:0|0:0,0:0:0:0:
456,176,116356,6,0,P|428:136|368:136,1,111.999996582031,6|2,1:2|2:3,0:0:0:0:
268,212,116818,2,0,L|276:268,2,55.9999982910157,2|2|2,1:3|0:3|0:3,0:0:0:0:
192,128,117279,1,2,1:3:0:0:
124,216,117510,1,0,0:0:0:0:
196,304,117741,1,2,1:2:0:0:
196,304,117856,1,0,0:0:0:0:
196,304,117971,1,0,0:0:0:0:
312,248,118202,6,0,B|368:240|368:276|424:268,1,111.999996582031,2|0,0:0|0:0,0:0:0:0:
456,164,118664,2,0,L|516:180,2,55.9999982910157,6|2|2,1:2|0:0|0:0,0:0:0:0:
406,63,119125,1,8,0:2:0:0:
320,132,119356,1,2,1:2:0:0:
268,32,119587,1,2,0:0:0:0:
268,32,119702,1,2,0:0:0:0:
268,32,119818,1,2,0:0:0:0:
208,148,120048,6,0,P|160:172|104:152,1,111.999996582031,6|2,1:2|2:3,0:0:0:0:
28,76,120510,2,0,L|20:20,2,55.9999982910157,2|2|2,1:2|0:0|0:0,0:0:0:0:
8,188,120971,1,8,0:2:0:0:
76,280,121202,1,2,0:0:0:0:
180,244,121433,1,2,1:2:0:0:
180,244,121548,1,2,0:0:0:0:
180,244,121664,1,2,0:0:0:0:
156,136,121895,6,0,P|200:108|264:108,1,111.999996582031,2|2,2:3|2:3,0:0:0:0:
312,204,122356,2,0,P|360:232|416:232,1,111.999996582031,2|0,1:2|0:0,0:0:0:0:
488,148,122818,1,10,0:2:0:0:
440,48,123048,1,0,1:2:0:0:
328,32,123279,2,0,L|272:44,1,55.9999982910157,2|0,1:2|0:0,0:0:0:0:
236,84,123510,2,0,L|180:76,1,55.9999982910157,0|0,1:2|0:0,0:0:0:0:
124,64,123741,5,4,1:2:0:0:
124,64,126048,6,0,B|68:76|84:112|28:128,1,111.999996582031,2|2,1:2|0:0,0:0:0:0:
28,240,126510,1,8,0:2:0:0:
112,312,126741,1,2,0:0:0:0:
168,216,126971,2,0,L|156:156,2,55.9999982910157,2|2|2,0:0|0:0|0:0,0:0:0:0:
256,304,127433,6,0,B|312:292|312:332|364:316,1,111.999996582031,0|2,1:2|0:3,0:0:0:0:
448,240,127895,1,2,0:0:0:0:
448,240,128010,1,2,0:0:0:0:
448,240,128125,1,2,0:0:0:0:
440,128,128356,1,8,0:2:0:0:
336,92,128587,1,2,0:0:0:0:
280,192,128818,2,0,L|288:248,2,55.9999982910157,2|2|2,1:2|0:0|0:0,0:0:0:0:
172,160,129279,6,0,P|84:144|56:140,1,111.999996582031,2|2,0:0|0:0,0:0:0:0:
12,40,129741,2,0,P|67:31|122:20,1,111.999996582031,2|0,0:0|0:0,0:0:0:0:
232,16,130202,2,0,B|356:16|300:100|432:100,1,224,2|0,0:2|0:0,0:0:0:0:
460,100,131125,1,4,1:2:0:0:
460,100,138510,6,0,P|452:139|440:228,1,128,2|0,1:2|0:0,0:0:0:0:
340,344,139433,2,0,P|331:280|320:217,1,128,2|0,1:2|0:0,0:0:0:0:
268,72,140356,2,0,P|208:72|164:120,1,128,2|0,1:2|0:0,0:0:0:0:
156,272,141279,2,0,P|120:316|52:316,1,128,2|0,1:2|0:0,0:0:0:0:
20,172,142202,6,0,L|32:88,1,80,2|2,1:2|0:2,0:0:0:0:
108,32,142664,2,0,L|128:112,1,80,2|2,1:2|0:2,0:0:0:0:
172,196,143125,2,0,B|244:188|240:252|320:240,1,160,2|2,1:2|1:2,0:0:0:0:
396,184,143818,1,2,0:2:0:0:
372,92,144048,6,0,L|288:72,1,80,2|2,0:3|0:3,0:0:0:0:
208,32,144510,2,0,L|132:60,1,80,2|2,0:3|0:3,0:0:0:0:
68,132,144971,2,0,P|75:160|96:256,1,120,2|0,0:0|0:0,0:0:0:0:
132,280,145433,2,0,P|144:221|158:163,1,120,8|0,0:0|0:0,0:0:0:0:
224,100,145895,6,0,B|284:92|284:128|336:120,1,111.999996582031,6|0,1:2|0:0,0:0:0:0:
388,116,146241,1,0,1:2:0:0:
388,116,146356,2,0,P|412:160|400:220,1,111.999996582031,8|0,0:2|1:2,0:0:0:0:
352,320,146818,2,0,L|240:344,1,111.999996582031,2|0,1:2|0:0,0:0:0:0:
188,352,147164,1,0,1:2:0:0:
188,352,147279,2,0,L|79:324,1,111.999996582031,8|0,0:2|1:2,0:0:0:0:
44,216,147741,6,0,P|32:144|24:104,1,111.999996582031,2|0,1:2|0:0,0:0:0:0:
68,68,148087,1,0,1:2:0:0:
68,68,148202,2,0,P|120:84|176:96,1,111.999996582031,8|0,0:2|1:2,0:0:0:0:
288,80,148664,1,2,1:2:0:0:
392,36,148895,1,0,0:0:0:0:
420,144,149125,1,8,0:2:0:0:
420,144,149241,1,0,0:0:0:0:
420,144,149356,1,0,1:2:0:0:
312,216,149587,6,0,L|196:244,1,111.999996582031,6|0,1:2|0:0,0:0:0:0:
188,296,149933,1,0,1:2:0:0:
188,296,150048,2,0,L|296:322,1,111.999996582031,8|0,0:2|1:2,0:0:0:0:
408,324,150510,2,0,P|436:276|436:220,1,111.999996582031,2|0,1:2|0:0,0:0:0:0:
424,168,150856,1,0,1:2:0:0:
424,168,150971,2,0,P|376:136|324:136,1,111.999996582031,8|0,0:2|1:2,0:0:0:0:
232,204,151433,6,0,B|180:192|172:240|124:224,1,111.999996582031,2|0,1:2|0:0,0:0:0:0:
84,188,151779,1,0,1:2:0:0:
84,188,151895,2,0,P|64:140|80:84,1,111.999996582031,8|0,0:2|1:2,0:0:0:0:
180,32,152356,1,2,1:2:0:0:
180,32,152471,1,2,0:0:0:0:
292,40,152702,1,2,1:2:0:0:
292,40,152818,2,0,L|368:52,2,74.6666643880209,10|0|0,0:2|1:2|1:2,0:0:0:0:
180,32,153279,6,0,B|120:36|132:76|80:80,1,111.999996582031,6|0,1:2|0:0,0:0:0:0:
40,116,153625,1,0,1:2:0:0:
40,116,153741,2,0,L|56:228,1,111.999996582031,8|0,0:2|1:2,0:0:0:0:
104,328,154202,2,0,P|156:296|208:296,1,111.999996582031,2|0,1:2|0:0,0:0:0:0:
252,328,154548,1,0,1:2:0:0:
252,328,154664,2,0,P|304:360|356:360,1,111.999996582031,8|0,0:2|1:2,0:0:0:0:
420,272,155125,6,0,L|432:160,1,111.999996582031,2|0,1:2|0:0,0:0:0:0:
412,120,155471,1,0,1:2:0:0:
412,120,155587,2,0,L|296:132,1,111.999996582031,8|0,0:2|1:2,0:0:0:0:
188,144,156048,1,2,1:2:0:0:
132,240,156279,1,2,0:0:0:0:
32,188,156510,1,8,0:2:0:0:
32,188,156625,1,0,0:0:0:0:
32,188,156741,1,0,1:2:0:0:
36,56,156971,6,0,P|68:32|140:32,1,111.999996582031,6|0,1:2|0:0,0:0:0:0:
184,64,157318,1,0,1:2:0:0:
184,64,157433,2,0,P|216:88|288:88,1,111.999996582031,8|0,0:2|1:2,0:0:0:0:
392,48,157895,2,0,L|408:160,1,111.999996582031,2|0,1:2|0:0,0:0:0:0:
428,212,158241,1,0,1:2:0:0:
428,212,158356,2,0,L|408:324,1,111.999996582031,8|0,0:2|1:2,0:0:0:0:
300,352,158818,6,0,B|244:348|248:316|196:312,1,111.999996582031,2|0,1:2|0:0,0:0:0:0:
140,312,159164,1,0,1:2:0:0:
140,312,159279,1,8,0:2:0:0:
32,348,159510,1,0,1:2:0:0:
24,123,159971,6,0,L|32:59,1,55.9999982910157
76,31,160202,2,0,B|160:15|148:83|236:67,1,167.999994873047
304,44,160664,5,6,1:2:0:0:
392,112,160895,1,2,0:0:0:0:
348,216,161125,1,10,0:2:0:0:
236,196,161356,1,2,1:2:0:0:
236,196,161471,1,2,0:0:0:0:
236,196,161587,2,0,L|108:172,1,111.999996582031,2|0,1:2|0:0,0:0:0:0:
16,204,162048,1,10,0:2:0:0:
12,316,162279,1,2,1:2:0:0:
116,364,162510,5,2,1:2:0:0:
188,280,162741,1,2,0:0:0:0:
188,280,162856,1,2,1:2:0:0:
188,280,162971,2,0,L|297:302,1,111.999996582031,10|0,0:2|1:2,0:0:0:0:
400,252,163433,2,0,P|412:212|412:140,1,111.999996582031,2|2,1:2|0:0,0:0:0:0:
400,100,163779,1,0,1:2:0:0:
400,100,163895,2,0,P|344:76|292:76,1,111.999996582031,10|0,0:2|1:2,0:0:0:0:
176,120,164356,5,6,1:2:0:0:
120,216,164587,1,2,0:0:0:0:
12,184,164818,1,10,0:2:0:0:
12,72,165048,1,2,1:2:0:0:
12,72,165164,1,2,0:0:0:0:
12,72,165279,2,0,P|72:36|112:36,1,111.999996582031,2|0,1:2|0:0,0:0:0:0:
224,40,165741,1,10,0:2:0:0:
292,128,165971,1,2,1:2:0:0:
212,208,166202,6,0,L|232:320,1,111.999996582031,2|0,1:2|0:0,0:0:0:0:
204,368,166548,1,2,1:2:0:0:
204,368,166664,2,0,L|148:356,2,55.9999982910157,10|2|2,0:2|0:0|1:2,0:0:0:0:
312,332,167125,1,2,1:2:0:0:
312,332,167241,2,0,B|368:332|368:364|420:364,1,111.999996582031,2|0,0:0|1:2,0:0:0:0:
460,324,167587,2,0,P|468:264|476:212,1,111.999996582031,10|0,0:2|1:2,0:0:0:0:
492,104,168048,5,6,1:2:0:0:
424,16,168279,1,2,0:0:0:0:
348,100,168510,1,10,0:2:0:0:
260,32,168741,1,2,1:2:0:0:
260,32,168856,1,2,0:0:0:0:
260,32,168971,2,0,B|208:28|212:68|156:64,1,111.999996582031,2|0,1:2|0:0,0:0:0:0:
48,36,169433,1,10,0:2:0:0:
4,140,169664,1,2,1:2:0:0:
76,228,169895,5,2,1:2:0:0:
172,172,170125,1,2,0:0:0:0:
172,172,170241,1,2,1:2:0:0:
172,172,170356,2,0,L|284:192,1,111.999996582031,10|0,0:2|1:2,0:0:0:0:
396,204,170818,1,2,1:2:0:0:
396,204,170933,2,0,L|383:92,1,111.999996582031
348,48,171279,2,0,P|312:56|276:64,2,74.6666643880209,10|0|0,0:2|1:2|1:2,0:0:0:0:
455,30,171741,5,6,1:2:0:0:
508,128,171971,1,2,0:0:0:0:
449,223,172202,1,10,0:2:0:0:
344,192,172433,1,2,1:2:0:0:
344,192,172548,1,2,0:0:0:0:
344,192,172664,2,0,B|288:184|288:228|232:216,1,111.999996582031,2|0,1:2|0:0,0:0:0:0:
136,172,173125,1,10,0:2:0:0:
80,268,173356,1,2,1:2:0:0:
156,348,173587,6,0,L|268:324,1,111.999996582031,2|0,1:2|0:0,0:0:0:0:
320,316,173933,1,2,1:2:0:0:
320,316,174048,2,0,P|328:344|336:372,2,55.9999982910157,10|2|2,0:2|0:0|1:2,0:0:0:0:
276,212,174510,2,0,B|228:196|216:236|168:216,1,111.999996582031,0|0,1:2|0:0,0:0:0:0:
144,164,174856,1,0,1:2:0:0:
144,164,174971,2,0,L|128:88,2,74.6666643880209,8|0|0,0:2|1:2|1:2,0:0:0:0:
