osu file format v14

[General]
AudioFilename: audio.mp3
AudioLeadIn: 0
PreviewTime:137060
Countdown: 0
SampleSet: Soft
StackLeniency: 0.8
Mode: 0
LetterboxInBreaks: 0
WidescreenStoryboard: 1

[Editor]
Bookmarks:83774,156917
DistanceSpacing: 0.5
BeatDivisor: 4
GridSize: 8
TimelineZoom: 1.4

[Metadata]
Title:Hard to Love
TitleUnicode:Hard to Love
Artist:BLACKPINK
ArtistUnicode:블랙핑크
Creator:Syph
Version:Collab Insane // Syph x Nabori
Source:
Tags:로제 ROSÉ BORN PINK English Pop kpop k-pop rose female vocals vocalist hardtolove disco solo 2nd FULL ALBUM Shut Down Pink Venom yeong seok yeong_seok visionary -mikan bazz b bazz_b nabori
BeatmapID:3876845
BeatmapSetID:1867075

[Difficulty]
HPDrainRate:5.4
CircleSize:4
OverallDifficulty:8
ApproachRate:9
SliderMultiplier:2.4
SliderTickRate:1

[Events]
//Background and Video events
0,0,"rosie.jpg",0,0
//Break Periods
2,120917,131774
//Storyboard Layer 0 (Background)
//Storyboard Layer 1 (Fail)
//Storyboard Layer 2 (Pass)
//Storyboard Layer 3 (Foreground)
//Storyboard Layer 4 (Overlay)
//Storyboard Sound Samples

[TimingPoints]
1530,573.778330305059,4,2,1,65,1,0
6120,564.0688163956,4,2,1,65,1,0
10632,571.428571428571,4,2,1,65,1,0
10632,-125,4,2,1,65,0,0
12346,-125,4,2,2,65,0,0
12917,-125,4,2,3,65,0,0
13488,-125,4,2,1,65,0,0
14631,-125,4,2,4,65,0,0
15203,-125,4,2,5,65,0,0
15774,-125,4,2,1,65,0,0
16917,-125,4,2,6,65,0,0
17489,-125,4,2,7,65,0,0
18059,-125,4,2,1,65,0,0
19203,-125,4,2,8,65,0,0
19774,-125,4,2,1,65,0,0
21489,-125,4,2,2,65,0,0
22060,-125,4,2,3,65,0,0
22631,-125,4,2,1,65,0,0
22916,-125,4,2,3,65,0,0
23774,-125,4,2,4,65,0,0
24346,-100,4,2,5,67,0,0
24917,-100,4,2,1,70,0,0
25203,-100,4,2,5,70,0,0
26060,-100,4,2,6,70,0,0
26631,-100,4,2,9,65,0,0
27774,-111.111111111111,4,2,9,65,0,0
28346,-111.111111111111,4,2,10,72,0,0
28489,-111.111111111111,4,2,11,72,0,0
28631,-111.111111111111,4,2,12,72,0,0
28774,-111.111111111111,4,2,13,72,0,0
28917,-76.9230769230769,4,2,14,80,0,1
29059,-76.9230769230769,4,2,1,80,0,1
29203,-76.9230769230769,4,2,15,80,0,1
29489,-76.9230769230769,4,2,16,80,0,1
29774,-76.9230769230769,4,2,17,80,0,1
30060,-76.9230769230769,4,2,18,80,0,1
30203,-76.9230769230769,4,2,19,80,0,1
30489,-76.9230769230769,4,2,21,80,0,1
30631,-76.9230769230769,4,2,20,80,0,1
30917,-76.9230769230769,4,2,22,80,0,1
31203,-76.9230769230769,4,2,23,80,0,1
31417,-76.9230769230769,4,2,1,80,0,1
31489,-76.9230769230769,4,2,24,80,0,1
31774,-76.9230769230769,4,2,25,80,0,1
31917,-76.9230769230769,4,2,26,80,0,1
32059,-76.9230769230769,4,2,27,80,0,1
32203,-76.9230769230769,4,2,28,80,0,1
32346,-76.9230769230769,4,2,29,80,0,1
32560,-76.9230769230769,4,2,1,80,0,1
32631,-76.9230769230769,4,2,30,80,0,1
32917,-76.9230769230769,4,2,31,80,0,1
33489,-76.9230769230769,4,2,33,80,0,1
33631,-76.9230769230769,4,2,1,80,0,1
33774,-76.9230769230769,4,2,34,80,0,1
34060,-76.9230769230769,4,2,35,80,0,1
34346,-76.9230769230769,4,2,36,80,0,1
34631,-76.9230769230769,4,2,37,80,0,1
34774,-76.9230769230769,4,2,38,80,0,1
35060,-76.9230769230769,4,2,40,80,0,1
35203,-76.9230769230769,4,2,39,80,0,1
35489,-76.9230769230769,4,2,41,80,0,1
35774,-76.9230769230769,4,2,42,80,0,1
36059,-76.9230769230769,4,2,43,80,0,1
36346,-76.9230769230769,4,2,44,80,0,1
36489,-76.9230769230769,4,2,45,80,0,1
36631,-76.9230769230769,4,2,46,80,0,1
36774,-76.9230769230769,4,2,47,80,0,1
36917,-76.9230769230769,4,2,29,80,0,1
37131,-76.9230769230769,4,2,1,80,0,1
37203,-76.9230769230769,4,2,48,80,0,1
37489,-76.9230769230769,4,2,49,80,0,1
38060,-76.9230769230769,4,2,50,80,0,1
38202,-76.9230769230769,4,2,1,80,0,1
38346,-76.9230769230769,4,2,15,80,0,1
38631,-76.9230769230769,4,2,16,80,0,1
38917,-76.9230769230769,4,2,17,80,0,1
39203,-76.9230769230769,4,2,51,80,0,1
39346,-76.9230769230769,4,2,19,80,0,1
39631,-76.9230769230769,4,2,21,80,0,1
39774,-76.9230769230769,4,2,20,80,0,1
40060,-76.9230769230769,4,2,22,80,0,1
40346,-76.9230769230769,4,2,23,80,0,1
40560,-76.9230769230769,4,2,1,80,0,1
40631,-76.9230769230769,4,2,24,80,0,1
40917,-76.9230769230769,4,2,25,80,0,1
41060,-76.9230769230769,4,2,26,80,0,1
41202,-76.9230769230769,4,2,27,80,0,1
41346,-76.9230769230769,4,2,28,80,0,1
41489,-76.9230769230769,4,2,29,80,0,1
41703,-76.9230769230769,4,2,1,80,0,1
41774,-76.9230769230769,4,2,30,80,0,1
42060,-76.9230769230769,4,2,31,80,0,1
42631,-76.9230769230769,4,2,33,80,0,1
42773,-76.9230769230769,4,2,1,80,0,1
42917,-76.9230769230769,4,2,34,80,0,1
43203,-76.9230769230769,4,2,35,80,0,1
43489,-76.9230769230769,4,2,36,80,0,1
43774,-76.9230769230769,4,2,37,80,0,1
43917,-76.9230769230769,4,2,38,80,0,1
44203,-76.9230769230769,4,2,40,80,0,1
44346,-76.9230769230769,4,2,39,80,0,1
44631,-76.9230769230769,4,2,41,80,0,1
44917,-76.9230769230769,4,2,42,80,0,1
45131,-76.9230769230769,4,2,1,80,0,1
45203,-76.9230769230769,4,2,43,80,0,1
45489,-76.9230769230769,4,2,52,80,0,1
45773,-76.9230769230769,4,2,53,80,0,1
45917,-76.9230769230769,4,2,47,80,0,1
46060,-76.9230769230769,4,2,29,80,0,1
46274,-76.9230769230769,4,2,1,80,0,1
46346,-76.9230769230769,4,2,48,80,0,1
46631,-76.9230769230769,4,2,49,80,0,1
46917,-76.9230769230769,4,2,48,80,0,1
47203,-76.9230769230769,4,2,54,70,0,0
47489,-100,4,2,55,70,0,0
47774,-100,4,2,56,70,0,0
48059,-100,4,2,55,70,0,0
48346,-100,4,2,57,70,0,0
48488,-100,4,2,1,70,0,0
48631,-100,4,2,55,70,0,0
48917,-100,4,2,58,70,0,0
49059,-100,4,2,1,70,0,0
49203,-100,4,2,55,70,0,0
49345,-100,4,2,59,70,0,0
49489,-100,4,2,60,70,0,0
49774,-100,4,2,56,70,0,0
50060,-100,4,2,61,70,0,0
50203,-100,4,2,1,70,0,0
50631,-100,4,2,62,70,0,0
50773,-100,4,2,1,70,0,0
50917,-100,4,2,56,70,0,0
51203,-100,4,2,63,70,0,0
51631,-100,4,2,59,70,0,0
51774,-100,4,2,64,70,0,0
52059,-100,4,2,65,70,0,0
52346,-100,4,2,66,70,0,0
52488,-100,4,2,1,70,0,0
52631,-100,4,2,65,70,0,0
52917,-100,4,2,56,70,0,0
53203,-100,4,2,65,70,0,0
53489,-100,4,2,57,70,0,0
53774,-100,4,2,65,70,0,0
53917,-100,4,2,59,70,0,0
54060,-100,4,2,67,70,0,0
54346,-100,4,2,68,70,0,0
54631,-100,4,2,55,70,0,0
54916,-100,4,2,68,70,0,0
55203,-100,4,2,69,70,0,0
55345,-100,4,2,1,70,0,0
55489,-100,4,2,68,70,0,0
55774,-100,4,2,66,70,0,0
55917,-100,4,2,1,70,0,0
56202,-100,4,2,59,70,0,0
56346,-100,4,2,54,70,0,0
56631,-100,4,2,55,70,0,0
56917,-100,4,2,56,70,0,0
57202,-100,4,2,55,70,0,0
57489,-100,4,2,57,70,0,0
57631,-100,4,2,1,70,0,0
57774,-100,4,2,55,70,0,0
58060,-100,4,2,58,70,0,0
58346,-100,4,2,55,70,0,0
58488,-100,4,2,59,70,0,0
58631,-100,4,2,60,70,0,0
58917,-100,4,2,56,70,0,0
59203,-100,4,2,61,70,0,0
59346,-100,4,2,1,70,0,0
59774,-100,4,2,62,70,0,0
59916,-100,4,2,1,70,0,0
60060,-100,4,2,56,70,0,0
60346,-100,4,2,63,70,0,0
60774,-100,4,2,59,70,0,0
60917,-100,4,2,64,70,0,0
61131,-100,4,2,1,70,0,0
61203,-100,4,2,65,70,0,0
61489,-100,4,2,66,70,0,0
61631,-100,4,2,1,70,0,0
62060,-100,4,2,56,70,0,0
62346,-100,4,2,65,70,0,0
62631,-100,4,2,57,70,0,0
62916,-100,4,2,65,70,0,0
63060,-100,4,2,59,70,0,0
63203,-100,4,2,70,70,0,0
63488,-100,4,2,68,70,0,0
63774,-100,4,2,55,70,0,0
64059,-100,4,2,68,70,0,0
64346,-100,4,2,69,70,0,0
64488,-100,4,2,1,70,0,0
64631,-100,4,2,68,70,0,0
64917,-100,4,2,66,70,0,0
65345,-100,4,2,59,70,0,0
65489,-90.9090909090909,4,2,71,70,0,0
65631,-90.9090909090909,4,2,1,70,0,0
65774,-90.9090909090909,4,2,59,70,0,0
66060,-90.9090909090909,4,2,72,70,0,0
66274,-90.9090909090909,4,2,1,70,0,0
66346,-90.9090909090909,4,2,73,70,0,0
66631,-90.9090909090909,4,2,74,70,0,0
66774,-90.9090909090909,4,2,1,70,0,0
67060,-90.9090909090909,4,2,75,70,0,0
67203,-90.9090909090909,4,2,76,70,0,0
67345,-90.9090909090909,4,2,1,70,0,0
67489,-90.9090909090909,4,2,55,70,0,0
67631,-90.9090909090909,4,2,59,70,0,0
67774,-90.9090909090909,4,2,77,70,0,0
68060,-90.9090909090909,4,2,59,70,0,0
68346,-90.9090909090909,4,2,78,70,0,0
68489,-90.9090909090909,4,2,1,70,0,0
68774,-90.9090909090909,4,2,80,70,0,0
68917,-90.9090909090909,4,2,59,70,0,0
69203,-90.9090909090909,4,2,81,70,0,0
69489,-90.9090909090909,4,2,82,70,0,0
69917,-90.9090909090909,4,2,59,70,0,0
70060,-90.9090909090909,4,2,84,70,0,0
70346,-90.9090909090909,4,2,59,70,0,0
70631,-90.9090909090909,4,2,85,70,0,0
70845,-90.9090909090909,4,2,1,70,0,0
70917,-90.9090909090909,4,2,86,70,0,0
71203,-90.9090909090909,4,2,74,70,0,0
71488,-90.9090909090909,4,2,65,70,0,0
71631,-90.9090909090909,4,2,75,70,0,0
71774,-90.9090909090909,4,2,87,70,0,0
71916,-90.9090909090909,4,2,1,70,0,0
72060,-90.9090909090909,4,2,65,70,0,0
72202,-90.9090909090909,4,2,59,70,0,0
72346,-90.9090909090909,4,2,88,70,0,0
72631,-90.9090909090909,4,2,59,70,0,0
72917,-90.9090909090909,4,2,89,70,0,0
73060,-90.9090909090909,4,2,1,70,0,0
73202,-90.9090909090909,4,2,90,70,0,0
73346,-90.9090909090909,4,2,91,70,0,0
73489,-90.9090909090909,4,2,59,70,0,0
73774,-90.9090909090909,4,2,55,70,0,0
74060,-90.9090909090909,4,2,92,70,0,0
74203,-90.9090909090909,4,2,1,70,0,0
74488,-90.9090909090909,4,2,59,70,0,0
74631,-90.9090909090909,4,2,71,70,0,0
74917,-90.9090909090909,4,2,59,70,0,0
75203,-90.9090909090909,4,2,72,70,0,0
75345,-90.9090909090909,4,2,1,70,0,0
75489,-90.9090909090909,4,2,73,70,0,0
75774,-90.9090909090909,4,2,74,70,0,0
75917,-90.9090909090909,4,2,1,70,0,0
76202,-90.9090909090909,4,2,75,70,0,0
76346,-90.9090909090909,4,2,76,70,0,0
76631,-90.9090909090909,4,2,55,70,0,0
76774,-90.9090909090909,4,2,59,70,0,0
76917,-90.9090909090909,4,2,77,70,0,0
77203,-90.9090909090909,4,2,59,70,0,0
77489,-90.9090909090909,4,2,78,70,0,0
77631,-90.9090909090909,4,2,1,70,0,0
77917,-90.9090909090909,4,2,80,70,0,0
78060,-90.9090909090909,4,2,59,70,0,0
78346,-90.9090909090909,4,2,81,70,0,0
78631,-90.9090909090909,4,2,82,70,0,0
79059,-90.9090909090909,4,2,59,70,0,0
79203,-90.9090909090909,4,2,94,70,0,0
79346,-90.9090909090909,4,2,1,70,0,0
79631,-90.9090909090909,4,2,95,70,0,0
79774,-90.9090909090909,4,2,96,70,0,0
80202,-90.9090909090909,4,2,1,70,0,0
80346,-90.9090909090909,4,2,98,70,0,0
80489,-90.9090909090909,4,2,1,70,0,0
80917,-90.9090909090909,4,2,87,70,0,0
81059,-90.9090909090909,4,2,1,70,0,0
81203,-90.9090909090909,4,2,100,70,0,0
81345,-90.9090909090909,4,2,59,70,0,0
81489,-90.9090909090909,4,2,101,70,0,0
82060,-90.9090909090909,4,2,102,70,0,0
82345,-90.9090909090909,4,2,103,70,0,0
82631,-90.9090909090909,4,2,59,70,0,0
82917,-90.9090909090909,4,2,104,70,0,0
83203,-90.9090909090909,4,2,55,70,0,0
83631,-90.9090909090909,4,2,59,70,0,0
83774,-125,4,2,106,65,0,0
84346,-125,4,2,1,65,0,0
85489,-125,4,2,107,65,0,0
86060,-125,4,2,3,65,0,0
86631,-125,4,2,1,65,0,0
87774,-125,4,2,4,65,0,0
88346,-125,4,2,108,65,0,0
88917,-125,4,2,1,65,0,0
90060,-125,4,2,109,65,0,0
90631,-125,4,2,110,65,0,0
91202,-125,4,2,1,65,0,0
92346,-125,4,2,8,65,0,0
92917,-125,4,2,106,65,0,0
93489,-125,4,2,1,65,0,0
94346,-125,4,2,106,65,0,0
94631,-125,4,2,107,65,0,0
95203,-125,4,2,3,65,0,0
95774,-125,4,2,1,65,0,0
96059,-125,4,2,3,65,0,0
96917,-125,4,2,4,65,0,0
97489,-100,4,2,108,70,0,0
98060,-100,4,2,1,70,0,0
98346,-100,4,2,108,70,0,0
99203,-100,4,2,109,70,0,0
99774,-100,4,2,111,67,0,0
100917,-111.111111111111,4,2,111,67,0,0
101489,-111.111111111111,4,2,10,70,0,0
101631,-111.111111111111,4,2,11,70,0,0
101774,-111.111111111111,4,2,12,70,0,0
101917,-111.111111111111,4,2,13,70,0,0
102060,-76.9230769230769,4,2,14,80,0,1
102202,-76.9230769230769,4,2,1,80,0,1
102346,-76.9230769230769,4,2,15,80,0,1
102631,-76.9230769230769,4,2,16,80,0,1
102917,-76.9230769230769,4,2,112,80,0,1
103203,-76.9230769230769,4,2,18,80,0,1
103346,-76.9230769230769,4,2,19,80,0,1
103631,-76.9230769230769,4,2,21,80,0,1
103774,-76.9230769230769,4,2,113,80,0,1
104060,-76.9230769230769,4,2,22,80,0,1
104346,-76.9230769230769,4,2,23,80,0,1
104560,-76.9230769230769,4,2,1,80,0,1
104631,-76.9230769230769,4,2,24,80,0,1
104917,-76.9230769230769,4,2,25,80,0,1
105060,-76.9230769230769,4,2,26,80,0,1
105202,-76.9230769230769,4,2,114,80,0,1
105346,-76.9230769230769,4,2,28,80,0,1
105489,-76.9230769230769,4,2,29,80,0,1
105774,-76.9230769230769,4,2,30,80,0,1
106060,-76.9230769230769,4,2,115,80,0,1
106345,-76.9230769230769,4,2,32,80,0,1
106631,-76.9230769230769,4,2,33,80,0,1
106773,-76.9230769230769,4,2,1,80,0,1
106917,-76.9230769230769,4,2,34,80,0,1
107203,-76.9230769230769,4,2,35,80,0,1
107489,-76.9230769230769,4,2,116,80,0,1
107774,-76.9230769230769,4,2,37,80,0,1
107917,-76.9230769230769,4,2,38,80,0,1
108202,-76.9230769230769,4,2,40,80,0,1
108346,-76.9230769230769,4,2,117,80,0,1
108631,-76.9230769230769,4,2,41,80,0,1
108917,-76.9230769230769,4,2,42,80,0,1
109202,-76.9230769230769,4,2,43,80,0,1
109489,-76.9230769230769,4,2,44,80,0,1
109631,-76.9230769230769,4,2,45,80,0,1
109773,-76.9230769230769,4,2,118,80,0,1
109917,-76.9230769230769,4,2,47,80,0,1
110060,-76.9230769230769,4,2,29,80,0,1
110345,-76.9230769230769,4,2,48,80,0,1
110631,-76.9230769230769,4,2,119,80,0,1
111203,-76.9230769230769,4,2,50,80,0,1
111345,-76.9230769230769,4,2,1,80,0,1
111489,-76.9230769230769,4,2,15,80,0,1
111774,-76.9230769230769,4,2,16,80,0,1
112060,-76.9230769230769,4,2,112,80,0,1
112346,-76.9230769230769,4,2,51,80,0,1
112489,-76.9230769230769,4,2,19,80,0,1
112774,-76.9230769230769,4,2,21,80,0,1
112917,-76.9230769230769,4,2,113,80,0,1
113203,-76.9230769230769,4,2,22,80,0,1
113489,-76.9230769230769,4,2,23,80,0,1
113703,-76.9230769230769,4,2,1,80,0,1
113774,-76.9230769230769,4,2,24,80,0,1
114060,-76.9230769230769,4,2,25,80,0,1
114203,-76.9230769230769,4,2,26,80,0,1
114345,-76.9230769230769,4,2,114,80,0,1
114489,-76.9230769230769,4,2,28,80,0,1
114631,-76.9230769230769,4,2,29,80,0,1
114916,-76.9230769230769,4,2,30,80,0,1
115203,-76.9230769230769,4,2,115,80,0,1
115774,-76.9230769230769,4,2,33,80,0,1
115916,-76.9230769230769,4,2,1,80,0,1
116060,-76.9230769230769,4,2,34,80,0,1
116346,-76.9230769230769,4,2,35,80,0,1
116631,-76.9230769230769,4,2,116,80,0,1
116917,-76.9230769230769,4,2,37,80,0,1
117060,-76.9230769230769,4,2,38,80,0,1
117345,-76.9230769230769,4,2,40,80,0,1
117489,-76.9230769230769,4,2,117,80,0,1
117774,-76.9230769230769,4,2,41,80,0,1
118060,-76.9230769230769,4,2,42,80,0,1
118274,-76.9230769230769,4,2,1,80,0,1
118346,-76.9230769230769,4,2,43,80,0,1
118631,-76.9230769230769,4,2,52,80,0,1
118916,-76.9230769230769,4,2,120,80,0,1
119060,-76.9230769230769,4,2,47,80,0,1
119203,-76.9230769230769,4,2,29,80,0,1
119488,-76.9230769230769,4,2,48,80,0,1
119774,-76.9230769230769,4,2,119,80,0,1
120060,-76.9230769230769,4,2,48,80,0,1
120346,-76.9230769230769,4,2,121,62,0,0
136203,-76.9230769230769,4,2,121,5,0,0
136346,-76.9230769230769,4,2,125,75,0,0
138060,-76.9230769230769,4,2,10,75,0,0
138203,-76.9230769230769,4,2,11,75,0,0
138346,-76.9230769230769,4,2,12,75,0,0
138489,-76.9230769230769,4,2,13,75,0,0
138631,-76.9230769230769,4,2,14,80,0,1
138773,-76.9230769230769,4,2,1,80,0,1
138917,-76.9230769230769,4,2,15,80,0,1
139203,-76.9230769230769,4,2,16,80,0,1
139489,-76.9230769230769,4,2,112,80,0,1
139774,-76.9230769230769,4,2,18,80,0,1
139917,-76.9230769230769,4,2,19,80,0,1
140202,-76.9230769230769,4,2,21,80,0,1
140346,-76.9230769230769,4,2,113,80,0,1
140631,-76.9230769230769,4,2,22,80,0,1
140917,-76.9230769230769,4,2,23,80,0,1
141131,-76.9230769230769,4,2,1,80,0,1
141203,-76.9230769230769,4,2,24,80,0,1
141489,-76.9230769230769,4,2,25,80,0,1
141631,-76.9230769230769,4,2,26,80,0,1
141773,-76.9230769230769,4,2,114,80,0,1
141917,-76.9230769230769,4,2,28,80,0,1
142060,-76.9230769230769,4,2,29,80,0,1
142345,-76.9230769230769,4,2,30,80,0,1
142631,-76.9230769230769,4,2,115,80,0,1
142916,-76.9230769230769,4,2,32,80,0,1
143203,-76.9230769230769,4,2,33,80,0,1
143345,-76.9230769230769,4,2,1,80,0,1
143489,-76.9230769230769,4,2,34,80,0,1
143774,-76.9230769230769,4,2,35,80,0,1
144060,-76.9230769230769,4,2,116,80,0,1
144346,-76.9230769230769,4,2,37,80,0,1
144489,-76.9230769230769,4,2,38,80,0,1
144774,-76.9230769230769,4,2,40,80,0,1
144917,-76.9230769230769,4,2,117,80,0,1
145203,-76.9230769230769,4,2,41,80,0,1
145489,-76.9230769230769,4,2,42,80,0,1
145774,-76.9230769230769,4,2,43,80,0,1
146060,-76.9230769230769,4,2,44,80,0,1
146203,-76.9230769230769,4,2,45,80,0,1
146345,-76.9230769230769,4,2,118,80,0,1
146489,-76.9230769230769,4,2,47,80,0,1
146631,-76.9230769230769,4,2,29,80,0,1
146916,-76.9230769230769,4,2,48,80,0,1
147203,-76.9230769230769,4,2,119,80,0,1
147774,-76.9230769230769,4,2,50,80,0,1
147916,-76.9230769230769,4,2,1,80,0,1
148060,-76.9230769230769,4,2,15,80,0,1
148346,-76.9230769230769,4,2,16,80,0,1
148631,-76.9230769230769,4,2,112,80,0,1
148917,-76.9230769230769,4,2,51,80,0,1
149060,-76.9230769230769,4,2,19,80,0,1
149345,-76.9230769230769,4,2,21,80,0,1
149489,-76.9230769230769,4,2,113,80,0,1
149774,-76.9230769230769,4,2,22,80,0,1
150060,-76.9230769230769,4,2,23,80,0,1
150274,-76.9230769230769,4,2,1,80,0,1
150346,-76.9230769230769,4,2,24,80,0,1
150631,-76.9230769230769,4,2,25,80,0,1
150774,-76.9230769230769,4,2,26,80,0,1
150916,-76.9230769230769,4,2,114,80,0,1
151060,-76.9230769230769,4,2,28,80,0,1
151203,-76.9230769230769,4,2,29,80,0,1
151488,-76.9230769230769,4,2,30,80,0,1
151774,-76.9230769230769,4,2,115,80,0,1
152059,-76.9230769230769,4,2,127,80,0,1
152346,-76.9230769230769,4,2,33,80,0,1
152488,-76.9230769230769,4,2,1,80,0,1
152631,-76.9230769230769,4,2,34,80,0,1
152917,-76.9230769230769,4,2,35,80,0,1
153203,-76.9230769230769,4,2,116,80,0,1
153489,-76.9230769230769,4,2,37,80,0,1
153631,-76.9230769230769,4,2,38,80,0,1
153916,-76.9230769230769,4,2,40,80,0,1
154060,-76.9230769230769,4,2,117,80,0,1
154346,-76.9230769230769,4,2,41,80,0,1
154631,-76.9230769230769,4,2,42,80,0,1
154845,-76.9230769230769,4,2,1,80,0,1
154917,-76.9230769230769,4,2,43,80,0,1
155203,-76.9230769230769,4,2,52,80,0,1
155488,-76.9230769230769,4,2,120,80,0,1
155631,-76.9230769230769,4,2,47,80,0,1
155774,-76.9230769230769,4,2,29,80,0,1
156059,-76.9230769230769,4,2,48,80,0,1
156346,-76.9230769230769,4,2,119,80,0,1
156631,-76.9230769230769,4,2,128,80,0,1
156917,-76.9230769230769,4,2,1,65,0,0

[Colours]
Combo1 : 221,201,245
Combo2 : 253,227,168
Combo3 : 253,170,176

[HitObjects]
424,50,10632,6,1,P|377:52|336:131,1,144,10|0,2:2|0:0,0:0:0:0:
414,164,11203,2,1,L|258:195,1,144,8|0,2:2|0:0,0:0:0:0:
272,192,11774,1,0,0:0:0:0:
210,264,11917,2,1,L|151:275,1,48,0|0,0:0|0:0,0:0:0:0:
20,95,12346,2,1,P|66:97|107:176,1,144,10|0,2:2|0:0,0:0:0:0:
52,253,12917,5,2,2:2:0:0:
52,253,13203,2,1,L|73:360,1,96,0|8,0:0|2:2,0:0:0:0:
156,384,13631,2,1,P|190:382|220:323,1,96,0|0,0:0|0:0,0:0:0:0:
222,334,14060,1,0,0:0:0:0:
284,262,14203,2,1,L|343:251,1,48,0|0,0:0|0:0,0:0:0:0:
457,365,14631,2,1,L|478:258,1,96,10|0,2:2|0:0,0:0:0:0:
475,270,15060,1,0,0:0:0:0:
447,42,15203,6,1,P|400:44|359:123,1,144,2|0,2:2|0:0,0:0:0:0:
437,156,15774,2,1,L|281:187,1,144,8|0,2:2|0:0,0:0:0:0:
295,184,16346,1,0,0:0:0:0:
262,282,16489,2,1,L|309:273,1,48,0|0,0:0|0:0,0:0:0:0:
142,180,16917,2,1,L|35:159,1,96,10|0,2:2|0:0,0:0:0:0:
47,161,17346,1,0,0:0:0:0:
0,245,17489,5,2,2:2:0:0:
167,300,17774,2,1,L|274:279,1,96,0|8,0:0|2:2,0:0:0:0:
298,196,18203,2,1,P|296:162|237:132,1,96,0|0,0:0|0:0,0:0:0:0:
248,130,18631,1,0,0:0:0:0:
167,20,18774,2,1,L|176:68,1,48,0|0,0:0|0:0,0:0:0:0:
298,196,19203,2,1,L|405:175,1,96,10|0,2:2|0:0,0:0:0:0:
393,178,19631,1,0,0:0:0:0:
485,26,19774,6,1,P|451:28|421:87,1,96,2|0,1:2|0:0,0:0:0:0:
419,76,20203,1,0,0:0:0:0:
512,206,20346,2,1,L|491:99,1,96,8|2,2:2|2:2,0:0:0:0:
416,165,20774,1,0,0:0:0:0:
457,293,20917,1,0,0:0:0:0:
457,293,21060,1,0,0:0:0:0:
365,378,21203,1,0,1:1:0:0:
365,378,21489,2,1,L|247:354,1,96,10|0,2:2|0:0,0:0:0:0:
70,232,22060,6,1,P|104:234|134:293,1,96,2|0,1:2|0:0,0:0:0:0:
135,282,22489,1,0,0:0:0:0:
120,375,22631,2,1,P|86:373|56:314,1,96,8|2,2:2|2:2,0:0:0:0:
54,324,23060,1,0,0:0:0:0:
205,233,23203,1,0,0:0:0:0:
205,233,23346,1,0,0:0:0:0:
49,158,23489,1,0,1:1:0:0:
298,56,23774,2,1,L|204:75,1,96,10|0,2:2|0:0,0:0:0:0:
203,75,24203,1,0,0:0:0:0:
413,0,24346,6,1,P|438:1|461:46,1,60,2|0,1:2|0:0,0:0:0:0:
438,118,24631,2,1,P|412:116|389:71,1,60,0|0,0:0|0:0,0:0:0:0:
156,49,24917,2,1,P|181:50|204:95,1,60,8|0,1:2|0:0,0:0:0:0:
54,117,25203,2,1,P|28:115|5:70,1,60,2|0,2:2|0:0,0:0:0:0:
169,174,25489,5,0,1:1:0:0:
54,117,25631,1,0,0:0:0:0:
156,49,25774,1,0,0:0:0:0:
216,270,26060,6,1,L|274:258,1,60,10|0,1:2|0:0,0:0:0:0:
428,206,26346,2,1,L|369:194,1,60,0|0,0:0|0:0,0:0:0:0:
156,162,26631,1,2,2:2:0:0:
156,162,27774,6,1,L|117:356,1,189,0|0,0:0|0:0,0:0:0:0:
119,347,28346,5,2,2:2:0:0:
210,300,28489,1,2,2:2:0:0:
292,362,28631,1,2,2:2:0:0:
383,315,28774,1,2,2:2:0:0:
495,384,28917,6,1,L|474:277,1,78,2|0,1:2|0:0,0:0:0:0:
421,229,29203,2,1,L|400:122,1,78,2|0,2:2|0:0,0:0:0:0:
383,327,29489,2,1,L|276:306,1,78,10|0,2:2|0:0,0:0:0:0:
228,253,29774,2,1,L|121:232,1,78,2|0,2:2|0:0,0:0:0:0:
58,338,30060,5,2,1:2:0:0:
35,70,30203,2,1,P|72:72|106:138,1,117,2|0,2:2|0:0,0:0:0:0:
98,158,30489,1,2,2:2:0:0:
4,236,30631,2,1,L|25:129,1,78,10|0,2:2|0:0,0:0:0:0:
149,327,30917,1,2,2:2:0:0:
149,327,31060,1,0,0:0:0:0:
319,232,31203,6,1,P|302:179|248:166,1,117,2|0,1:2|0:0,0:0:0:0:
235,187,31489,2,1,P|253:240|308:254,1,117,2|0,2:2|0:0,0:0:0:0:
332,152,31774,1,10,2:2:0:0:
397,308,31917,2,1,L|473:292,1,78,2|2,2:2|2:2,0:0:0:0:
286,355,32203,1,2,2:2:0:0:
415,205,32346,2,1,L|438:83,1,117,2|0,1:2|0:0,0:0:0:0:
455,82,32631,2,1,L|466:21,1,39,2|0,2:2|0:0,0:0:0:0:
374,2,32774,1,0,0:0:0:0:
242,106,32917,1,10,2:2:0:0:
242,106,32989,1,0,0:0:0:0:
242,106,33060,2,1,L|86:77,1,156,0|0,0:0|0:0,0:0:0:0:
40,260,33489,6,1,P|6:242|0:205,1,78,2|0,1:2|0:0,0:0:0:0:
88,77,33774,2,1,L|104:153,1,78,2|0,2:2|0:0,0:0:0:0:
225,311,34060,2,1,P|207:277|170:270,1,78,10|0,2:2|0:0,0:0:0:0:
42,359,34346,2,1,L|118:375,1,78,2|0,2:2|0:0,0:0:0:0:
239,301,34631,5,2,1:2:0:0:
272,114,34774,2,1,P|235:116|201:182,1,117,2|0,2:2|0:0,0:0:0:0:
211,199,35060,1,2,2:2:0:0:
374,226,35203,2,1,L|450:210,1,78,10|0,2:2|0:0,0:0:0:0:
287,99,35489,1,2,2:2:0:0:
287,99,35631,1,0,0:0:0:0:
129,308,35774,6,1,B|158:267|121:235|118:243|89:201|126:160,1,156,2|2,1:2|2:2,0:0:0:0:
123,164,36203,1,0,0:0:0:0:
222,358,36346,1,10,2:2:0:0:
309,315,36489,2,1,L|385:331,1,78,2|2,2:2|2:2,0:0:0:0:
205,365,36774,1,2,2:2:0:0:
358,238,36917,2,1,L|501:268,1,117,2|0,1:2|0:0,0:0:0:0:
474,280,37203,2,1,L|545:295,1,39,2|0,2:2|0:0,0:0:0:0:
278,277,37346,1,0,0:0:0:0:
294,61,37489,2,1,B|339:125|281:175|276:162|231:228|289:291,1,234,10|0,2:2|0:0,0:0:0:0:
199,29,38060,6,1,P|165:47|159:84,1,78,2|0,1:2|0:0,0:0:0:0:
31,205,38346,2,1,L|107:189,1,78,2|0,2:2|0:0,0:0:0:0:
238,331,38631,2,1,P|272:313|278:276,1,78,10|0,2:2|0:0,0:0:0:0:
411,161,38917,2,1,L|335:177,1,78,2|0,2:2|0:0,0:0:0:0:
233,102,39203,5,2,1:2:0:0:
499,229,39346,2,1,L|373:255,1,117,2|0,2:2|0:0,0:0:0:0:
361,259,39631,1,2,2:2:0:0:
468,63,39774,2,1,P|502:81|508:118,1,78,10|0,2:2|0:0,0:0:0:0:
304,40,40060,1,2,2:2:0:0:
304,40,40203,1,0,0:0:0:0:
156,152,40346,6,1,P|173:205|227:218,1,117,2|0,1:2|0:0,0:0:0:0:
240,197,40631,2,1,P|222:144|167:130,1,117,2|0,2:2|0:0,0:0:0:0:
143,232,40917,1,10,2:2:0:0:
42,74,41060,2,1,L|58:150,1,78,2|2,2:2|2:2,0:0:0:0:
106,313,41346,1,2,2:2:0:0:
269,367,41489,2,1,B|301:344|325:373|319:375|352:398|384:369,1,117,2|0,1:2|0:0,0:0:0:0:
386,355,41774,2,1,L|431:345,1,39,2|0,2:2|0:0,0:0:0:0:
512,384,41917,1,0,0:0:0:0:
449,228,42060,2,1,B|404:164|462:114|467:127|512:61|454:-2,1,234,10|0,2:2|0:0,0:0:0:0:
150,152,42631,6,1,L|257:131,1,78,2|0,1:2|0:0,0:0:0:0:
382,63,42917,2,1,L|305:78,1,78,2|0,2:2|0:0,0:0:0:0:
161,238,43203,2,1,L|268:217,1,78,10|0,2:2|0:0,0:0:0:0:
393,149,43489,2,1,L|316:164,1,78,2|0,2:2|0:0,0:0:0:0:
282,300,43774,5,2,1:2:0:0:
144,152,43917,2,1,P|107:154|73:220,1,117,2|0,2:2|0:0,0:0:0:0:
81,240,44203,1,2,2:2:0:0:
180,313,44346,2,1,L|159:206,1,78,10|0,2:2|0:0,0:0:0:0:
125,66,44631,1,2,2:2:0:0:
125,66,44774,1,0,0:0:0:0:
316,164,44917,6,1,P|369:147|382:93,1,117,2|0,1:2|0:0,0:0:0:0:
361,80,45203,2,1,P|308:98|294:153,1,117,2|0,2:2|0:0,0:0:0:0:
396,177,45489,1,10,2:2:0:0:
467,30,45631,2,1,L|482:106,1,78,0|2,0:0|2:2,0:0:0:0:
511,243,45917,1,2,2:2:0:0:
388,352,46060,2,1,L|262:326,1,117,2|0,1:2|0:0,0:0:0:0:
263,342,46346,2,1,L|199:328,1,39,2|0,2:2|0:0,0:0:0:0:
139,376,46489,1,0,0:0:0:0:
80,257,46631,5,10,2:2:0:0:
80,257,46774,1,0,0:0:0:0:
9,326,46917,1,6,2:2:0:0:
9,326,47060,1,0,0:0:0:0:
146,172,47203,5,2,1:2:0:0:
146,172,47489,2,1,L|218:186,1,60,2|0,2:2|0:0,0:0:0:0:
316,116,47774,2,1,P|300:60|244:46,1,120,2|2,1:2|2:2,0:0:0:0:
290,243,48346,2,1,L|362:257,1,60,2|0,1:2|0:0,0:0:0:0:
434,314,48631,2,1,L|506:328,1,60,2|0,2:2|0:0,0:0:0:0:
343,384,48917,2,1,P|309:366|302:328,1,60,2|0,1:2|0:0,0:0:0:0:
348,254,49203,2,1,L|358:202,2,30,2|0|2,2:2|0:0|2:2,0:0:0:0:
188,362,49489,5,2,1:2:0:0:
188,362,49774,2,1,L|129:350,1,60,2|0,2:2|0:0,0:0:0:0:
86,225,50060,1,2,1:2:0:0:
86,225,50203,2,1,P|34:252|32:311,1,120,0|0,0:0|0:0,0:0:0:0:
186,260,50631,2,1,L|197:201,1,60,2|0,1:2|0:0,0:0:0:0:
41,80,50917,1,10,2:2:0:0:
41,80,51203,2,1,L|234:42,1,180,10|2,1:2|2:2,0:0:0:0:
350,149,51774,6,1,P|401:121|404:63,1,120,2|2,1:2|2:2,0:0:0:0:
235,157,52346,2,1,L|223:215,1,60,2|0,1:2|0:0,0:0:0:0:
302,71,52631,2,1,L|313:12,1,60,2|0,2:2|0:0,0:0:0:0:
357,169,52917,2,1,L|415:157,1,60,2|0,1:2|0:0,0:0:0:0:
512,89,53203,2,1,L|453:77,1,60,2|0,2:2|0:0,0:0:0:0:
414,236,53489,2,1,L|280:210,1,120,2|2,1:2|2:2,0:0:0:0:
287,211,53846,1,0,0:0:0:0:
278,209,53917,1,2,2:2:0:0:
219,331,54060,5,2,1:2:0:0:
219,331,54346,2,1,L|160:319,1,60,2|0,2:2|0:0,0:0:0:0:
148,157,54631,2,1,P|98:184|94:242,1,120,2|2,1:2|2:2,0:0:0:0:
160,319,55060,1,0,0:0:0:0:
251,221,55203,2,1,L|192:232,1,60,2|0,1:2|0:0,0:0:0:0:
14,270,55489,1,10,2:2:0:0:
9,65,55774,1,10,1:2:0:0:
9,65,55917,2,1,L|36:206,1,120,0|2,0:0|2:2,0:0:0:0:
124,9,56346,5,2,1:2:0:0:
279,47,56631,2,1,L|337:35,1,60,2|0,2:2|0:0,0:0:0:0:
501,88,56917,2,1,L|375:112,1,120,2|2,1:2|2:2,0:0:0:0:
288,280,57489,2,1,P|262:266|251:238,1,60,2|0,1:2|0:0,0:0:0:0:
295,172,57774,2,1,P|320:185|331:213,1,60,2|0,2:2|0:0,0:0:0:0:
282,363,58060,1,2,1:2:0:0:
151,154,58346,2,1,L|140:205,2,30,2|0|2,2:2|0:0|2:2,0:0:0:0:
311,46,58631,5,2,1:2:0:0:
311,46,58917,2,1,L|369:57,1,60,2|0,2:2|0:0,0:0:0:0:
413,183,59203,1,2,1:2:0:0:
413,183,59346,2,1,P|464:155|467:97,1,120,0|0,0:0|0:0,0:0:0:0:
313,148,59774,2,1,L|301:206,1,60,2|0,1:2|0:0,0:0:0:0:
458,328,60060,1,10,2:2:0:0:
458,328,60346,2,1,L|264:365,1,180,10|2,1:2|2:2,0:0:0:0:
119,315,60917,6,1,L|208:298,1,90,2|0,1:2|0:0,0:0:0:0:
220,281,61203,2,1,P|209:253|183:239,1,60,2|0,2:2|0:0,0:0:0:0:
53,381,61489,1,2,1:2:0:0:
26,289,61631,2,1,L|0:155,1,120,0|0,0:0|0:0,0:0:0:0:
85,1,62060,1,2,1:2:0:0:
85,1,62346,2,1,P|112:11|126:37,1,60,2|0,2:2|0:0,0:0:0:0:
99,140,62631,2,1,L|232:114,1,120,2|2,1:2|2:2,0:0:0:0:
330,0,63060,5,2,2:2:0:0:
330,0,63131,1,0,0:0:0:0:
330,0,63203,2,1,P|381:28|384:86,1,120,2|2,1:2|2:2,0:0:0:0:
304,202,63774,2,1,L|437:176,1,120,2|2,1:2|2:2,0:0:0:0:
421,179,64203,1,0,0:0:0:0:
468,274,64346,2,1,P|495:263|509:237,1,60,2|0,1:2|0:0,0:0:0:0:
398,368,64631,1,10,2:2:0:0:
398,368,64917,2,1,L|204:331,1,180,10|2,1:2|2:2,0:0:0:0:
133,213,65489,6,1,L|115:304,1,66,2|0,1:2|0:0,0:0:0:0:
239,169,65774,2,1,L|221:260,1,66,2|0,2:2|0:0,0:0:0:0:
123,384,66060,2,1,L|3:361,1,99,2|0,1:2|0:0,0:0:0:0:
13,343,66346,2,1,L|25:278,1,66,2|0,2:2|0:0,0:0:0:0:
0,144,66631,1,2,1:2:0:0:
0,144,66774,2,1,L|120:121,1,99,0|0,0:0|0:0,0:0:0:0:
116,138,67060,1,2,2:2:0:0:
184,0,67203,2,1,P|149:14|134:49,1,66,2|0,1:2|0:0,0:0:0:0:
282,93,67489,2,1,L|194:76,1,66,2|2,2:2|2:2,0:0:0:0:
210,85,67703,5,0,0:0:0:0:
205,92,67774,1,2,1:2:0:0:
376,190,68060,1,2,2:2:0:0:
505,50,68346,1,2,1:2:0:0:
445,111,68489,2,1,L|463:210,1,99,0|0,0:0|0:0,0:0:0:0:
475,227,68774,1,2,2:2:0:0:
345,319,68917,2,1,P|310:304|295:270,1,66,2|0,1:2|0:0,0:0:0:0:
487,347,69203,1,10,2:2:0:0:
487,347,69489,2,1,L|267:388,1,198,10|2,1:2|2:2,0:0:0:0:
108,304,70060,5,2,1:2:0:0:
108,304,70346,2,1,L|203:285,1,66,2|0,2:2|0:0,0:0:0:0:
256,91,70631,2,1,L|237:190,1,99,2|0,1:2|0:0,0:0:0:0:
226,207,70917,2,1,P|191:192|176:158,1,66,2|0,2:2|0:0,0:0:0:0:
109,5,71203,2,1,L|79:157,1,132,2|2,1:2|2:2,0:0:0:0:
62,227,71631,1,2,2:2:0:0:
152,374,71774,2,1,L|247:355,1,66,2|0,1:2|0:0,0:0:0:0:
324,233,72060,2,1,L|313:182,2,33,2|0|2,2:2|0:0|2:2,0:0:0:0:
484,341,72346,5,2,1:2:0:0:
484,341,72631,2,1,L|502:243,1,99,2|0,2:2|0:0,0:0:0:0:
496,224,72917,1,2,1:2:0:0:
391,356,73060,2,1,P|356:341|341:307,1,66,0|2,0:0|2:2,0:0:0:0:
397,234,73346,1,2,2:2:0:0:
257,333,73489,2,1,L|162:314,1,66,2|0,1:2|0:0,0:0:0:0:
45,379,73774,1,10,2:2:0:0:
0,162,74060,1,10,1:2:0:0:
0,162,74203,2,1,L|27:21,1,132,0|2,0:0|2:2,0:0:0:0:
97,254,74631,5,2,1:2:0:0:
97,254,74917,2,1,P|132:239|147:205,1,66,2|0,2:2|0:0,0:0:0:0:
113,29,75203,2,1,L|100:93,1,66,2|0,1:2|0:0,0:0:0:0:
3,186,75489,2,1,L|15:121,1,66,2|0,2:2|0:0,0:0:0:0:
212,9,75774,1,2,1:2:0:0:
212,9,75917,2,1,L|353:36,1,132,0|2,0:0|2:2,0:0:0:0:
512,156,76346,2,1,L|382:131,1,132,2|2,1:2|2:2,0:0:0:0:
374,132,76703,1,0,0:0:0:0:
366,136,76774,1,2,2:2:0:0:
473,335,76917,5,2,1:2:0:0:
473,335,77203,2,1,P|438:320|423:286,1,66,2|0,2:2|0:0,0:0:0:0:
512,146,77489,1,2,1:2:0:0:
478,226,77631,2,1,L|370:205,1,99,0|0,0:0|0:0,0:0:0:0:
365,220,77917,1,2,2:2:0:0:
281,323,78060,2,1,P|246:308|231:274,1,66,2|0,1:2|0:0,0:0:0:0:
247,145,78346,1,10,2:2:0:0:
247,145,78631,2,1,L|39:184,1,198,10|2,1:2|2:2,0:0:0:0:
0,104,79203,5,2,1:2:0:0:
0,11,79346,2,1,P|45:13|87:94,1,132,0|2,0:0|2:2,0:0:0:0:
51,181,79774,2,1,B|97:231|62:283|58:273|12:312|48:363,1,198,2|0,1:2|0:0,0:0:0:0:
293,297,80346,1,2,1:2:0:0:
293,297,80489,2,1,L|106:332,1,165,0|0,0:0|0:0,0:0:0:0:
125,341,80917,2,1,L|189:328,1,66,2|0,1:2|0:0,0:0:0:0:
254,212,81203,2,1,L|243:161,2,33,2|0|2,2:2|0:0|2:2,0:0:0:0:
399,349,81489,5,2,1:2:0:0:
399,349,82060,2,1,P|444:347|486:266,1,132,2|2,1:2|2:2,0:0:0:0:
390,193,82489,1,0,0:0:0:0:
390,193,82631,2,1,L|403:257,1,66,2|0,1:2|0:0,0:0:0:0:
495,39,82917,1,10,2:2:0:0:
495,39,83203,2,1,L|287:78,1,198,10|2,1:2|2:2,0:0:0:0:
166,56,83774,6,1,B|232:83|204:127|264:156,1,144,2|0,2:2|0:0,0:0:0:0:
357,141,84346,2,1,B|291:168|319:212|259:241,1,144,8|0,2:2|0:0,0:0:0:0:
258,241,84917,1,0,0:0:0:0:
300,326,85060,2,1,L|347:317,1,48,0|0,0:0|0:0,0:0:0:0:
220,164,85489,2,1,L|74:189,1,144,10|0,2:2|0:0,0:0:0:0:
7,157,86060,5,2,2:2:0:0:
7,157,86346,2,1,P|0:209|20:246,1,96,0|8,0:0|2:2,0:0:0:0:
108,266,86774,2,1,P|129:307|121:354,1,96,0|0,0:0|0:0,0:0:0:0:
121,354,87203,1,0,0:0:0:0:
48,323,87346,2,1,L|-1:331,1,48,0|0,0:0|0:0,0:0:0:0:
113,187,87774,2,1,P|155:165|201:172,1,96,10|0,2:2|0:0,0:0:0:0:
202,172,88203,1,0,0:0:0:0:
312,96,88346,6,1,B|300:162|300:162|302:166|302:166|290:237,1,144,2|0,2:2|0:0,0:0:0:0:
202,172,88917,2,1,B|214:242|214:242|212:246|212:246|223:313,1,144,8|0,2:2|0:0,0:0:0:0:
223,313,89489,1,0,0:0:0:0:
298,362,89631,2,1,L|345:353,1,48,0|0,0:0|0:0,0:0:0:0:
471,212,90060,2,1,B|375:195,1,96,10|0,2:2|0:0,0:0:0:0:
376,195,90489,1,0,0:0:0:0:
407,278,90631,5,2,2:2:0:0:
315,127,90917,2,1,B|410:110,1,96,0|8,0:0|2:2,0:0:0:0:
471,212,91346,2,1,B|375:195,1,96,0|0,0:0|0:0,0:0:0:0:
304,280,91774,1,0,0:0:0:0:
304,280,91917,2,1,L|352:271,1,48,0|0,0:0|0:0,0:0:0:0:
410,110,92346,2,1,B|315:127,1,96,10|0,2:2|0:0,0:0:0:0:
315,126,92774,1,0,0:0:0:0:
213,17,92917,6,1,P|237:55|230:104,1,96,2|0,1:2|0:0,0:0:0:0:
230,103,93346,1,0,0:0:0:0:
111,160,93489,2,1,B|183:142|177:206|248:188,1,144,8|0,2:2|0:0,0:0:0:0:
328,141,94060,2,1,L|382:151,1,48,0|0,0:0|0:0,0:0:0:0:
336,222,94346,1,0,1:1:0:0:
344,60,94631,2,1,B|272:42|277:106|206:88,1,144,10|0,2:2|0:0,0:0:0:0:
118,29,95203,6,1,L|99:127,1,96,2|0,1:2|0:0,0:0:0:0:
100,123,95631,1,0,0:0:0:0:
6,94,95774,2,1,L|24:192,1,96,8|2,2:2|2:2,0:0:0:0:
19,273,96203,1,0,0:0:0:0:
19,273,96346,2,1,L|66:264,1,48,0|0,0:0|0:0,0:0:0:0:
139,302,96631,1,0,1:1:0:0:
198,107,96917,2,1,L|104:126,1,96,10|0,2:2|0:0,0:0:0:0:
168,190,97346,1,0,0:0:0:0:
244,41,97489,6,1,P|266:61|275:88,1,60,2|0,1:2|0:0,0:0:0:0:
363,101,97774,2,1,P|356:130|337:152,1,60,0|0,0:0|0:0,0:0:0:0:
263,309,98060,2,1,P|241:289|231:261,1,60,8|0,1:2|0:0,0:0:0:0:
374,234,98346,2,1,P|345:243|316:237,1,60,2|0,2:2|0:0,0:0:0:0:
134,121,98631,5,0,1:1:0:0:
144,247,98774,1,0,0:0:0:0:
247,175,98917,1,0,0:0:0:0:
148,38,99203,6,1,L|90:50,1,60,10|0,1:2|0:0,0:0:0:0:
19,176,99489,2,1,L|78:188,1,60,0|0,0:0|0:0,0:0:0:0:
6,15,99774,1,2,2:2:0:0:
6,15,100917,6,1,L|45:209,1,189,0|0,0:0|0:0,0:0:0:0:
43,200,101489,5,2,2:2:0:0:
125,137,101631,1,2,2:2:0:0:
216,183,101774,1,2,2:2:0:0:
296,119,101917,1,2,2:2:0:0:
426,219,102060,6,1,L|439:142,1,78,2|0,1:2|0:0,0:0:0:0:
295,240,102346,2,1,L|308:317,1,78,2|0,2:2|0:0,0:0:0:0:
436,216,102631,2,1,L|449:139,1,78,10|0,2:2|0:0,0:0:0:0:
287,249,102917,2,1,L|300:326,1,78,2|0,2:2|0:0,0:0:0:0:
376,373,103203,5,2,1:2:0:0:
363,166,103346,2,1,B|290:153|290:153|284:156|284:156|205:142,1,156,2|2,2:2|2:2,0:0:0:0:
252,0,103774,2,1,L|267:76,1,78,10|0,2:2|0:0,0:0:0:0:
157,208,104060,1,2,2:2:0:0:
157,208,104203,1,0,0:0:0:0:
0,15,104346,6,1,B|20:0|20:0|113:16,1,117,2|0,1:2|0:0,0:0:0:0:
156,75,104631,2,1,B|246:90|246:90|267:76,1,117,2|0,2:2|0:0,0:0:0:0:
335,33,104917,1,10,2:2:0:0:
405,205,105060,2,1,L|329:189,1,78,2|2,2:2|2:2,0:0:0:0:
328,188,105346,1,2,2:2:0:0:
451,0,105489,2,1,L|479:153,1,156,2|2,1:2|2:2,0:0:0:0:
382,371,105917,1,0,0:0:0:0:
328,296,106060,2,1,B|400:283|400:283|406:286|406:286|485:272,1,156,10|6,2:2|2:2,0:0:0:0:
256,349,106631,6,1,P|241:315|244:274,1,78,2|0,1:2|0:0,0:0:0:0:
319,117,106917,2,1,P|334:151|331:192,1,78,2|0,2:2|0:0,0:0:0:0:
157,261,107203,2,1,P|170:226|201:199,1,78,10|0,2:2|0:0,0:0:0:0:
337,27,107489,2,1,P|371:40|398:71,1,78,2|0,2:2|0:0,0:0:0:0:
244,275,107774,5,2,1:2:0:0:
210,112,107917,2,1,B|133:93|143:165|65:148,1,156,2|2,2:2|2:2,0:0:0:0:
87,0,108346,2,1,P|95:37|85:74,1,78,10|0,2:2|0:0,0:0:0:0:
0,207,108631,1,2,2:2:0:0:
0,207,108774,1,0,0:0:0:0:
210,112,108917,6,1,P|196:184|182:266,1,156,2|2,1:2|2:2,0:0:0:0:
223,357,109346,1,0,0:0:0:0:
340,154,109489,1,10,2:2:0:0:
361,251,109631,2,1,L|285:237,1,78,2|2,2:2|2:2,0:0:0:0:
182,265,109917,1,2,2:2:0:0:
421,114,110060,2,1,P|363:65|289:79,1,156,2|2,1:2|2:2,0:0:0:0:
340,154,110489,1,0,0:0:0:0:
140,71,110631,2,1,B|216:45|251:109|241:113|273:168|341:154,1,234,10|0,2:2|0:0,0:0:0:0:
512,0,111203,6,1,P|486:26|473:66,1,78,2|0,1:2|0:0,0:0:0:0:
414,259,111489,2,1,P|440:233|453:193,1,78,2|0,2:2|0:0,0:0:0:0:
387,47,111774,2,1,P|387:83|406:121,1,78,10|0,2:2|0:0,0:0:0:0:
348,323,112060,2,1,P|379:344|418:350,1,78,2|0,2:2|0:0,0:0:0:0:
292,194,112346,5,2,1:2:0:0:
236,384,112489,2,1,L|208:227,1,156,2|2,2:2|2:2,0:0:0:0:
154,79,112917,2,1,L|140:154,1,78,10|0,2:2|0:0,0:0:0:0:
81,224,113203,1,2,2:2:0:0:
81,224,113346,1,0,0:0:0:0:
111,8,113489,6,1,P|166:-4|216:23,1,117,2|0,1:2|0:0,0:0:0:0:
282,68,113774,2,1,P|337:80|387:52,1,117,2|0,2:2|0:0,0:0:0:0:
326,0,114060,1,10,2:2:0:0:
462,108,114203,2,1,L|475:32,1,78,2|2,2:2|2:2,0:0:0:0:
475,31,114489,1,2,2:2:0:0:
478,198,114631,2,1,B|433:214|400:176|406:176|382:142|332:161,1,156,2|2,1:2|2:2,0:0:0:0:
206,285,115060,1,0,0:0:0:0:
286,327,115203,2,1,B|315:273|283:211|262:227|222:171|265:107,1,234,10|0,2:2|0:0,0:0:0:0:
90,14,115774,6,1,L|103:90,1,78,2|0,1:2|0:0,0:0:0:0:
130,244,116060,2,1,L|116:167,1,78,2|0,2:2|0:0,0:0:0:0:
168,0,116346,2,1,L|181:76,1,78,10|0,2:2|0:0,0:0:0:0:
51,258,116631,2,1,L|37:181,1,78,2|0,2:2|0:0,0:0:0:0:
104,91,116917,5,2,1:2:0:0:
196,303,117060,2,1,B|269:290|269:290|275:293|275:293|354:279,1,156,2|2,2:2|2:2,0:0:0:0:
453,168,117489,2,1,L|468:244,1,78,10|0,2:2|0:0,0:0:0:0:
447,335,117774,1,2,2:2:0:0:
447,335,117917,1,0,0:0:0:0:
497,95,118060,6,1,B|477:80|477:80|384:96,1,117,2|0,1:2|0:0,0:0:0:0:
341,155,118346,2,1,B|251:170|251:170|230:156,1,117,2|0,2:2|0:0,0:0:0:0:
165,107,118631,1,10,2:2:0:0:
263,0,118774,2,1,L|278:76,1,78,0|2,0:0|2:2,0:0:0:0:
278,76,119060,1,2,2:2:0:0:
81,0,119203,2,1,B|48:33|48:33|87:142,1,156,2|2,1:2|2:2,0:0:0:0:
155,320,119631,5,0,0:0:0:0:
26,267,119774,1,10,2:2:0:0:
26,267,119917,1,0,0:0:0:0:
9,354,120060,2,1,P|50:351|82:332,1,78,6|0,2:2|0:0,0:0:0:0:
256,192,120346,5,2,2:2:0:0:
256,192,132917,12,1,136203,0:0:0:0:
411,318,136346,5,2,2:2:0:0:
411,318,138060,5,2,2:2:0:0:
368,226,138203,1,2,2:2:0:0:
460,183,138346,1,2,2:2:0:0:
502,275,138489,1,2,2:2:0:0:
482,94,138631,6,1,P|442:92|409:108,1,78,2|0,1:2|0:0,0:0:0:0:
294,241,138917,2,1,P|333:242|367:227,1,78,2|0,2:2|0:0,0:0:0:0:
363,33,139203,2,1,P|333:59|321:94,1,78,10|0,2:2|0:0,0:0:0:0:
414,302,139489,2,1,P|443:275|455:240,1,78,2|0,2:2|0:0,0:0:0:0:
408,108,139774,5,2,1:2:0:0:
294,241,139917,2,1,B|217:260|227:188|149:205,1,156,2|2,2:2|2:2,0:0:0:0:
71,165,140346,2,1,P|62:201|71:241,1,78,10|0,2:2|0:0,0:0:0:0:
120,321,140631,1,2,2:2:0:0:
120,321,140774,1,0,0:0:0:0:
8,112,140917,6,1,P|56:84|116:95,1,117,2|0,1:2|0:0,0:0:0:0:
179,142,141203,2,1,P|229:167|284:153,1,117,2|0,2:2|0:0,0:0:0:0:
359,121,141489,1,10,2:2:0:0:
254,8,141631,2,1,L|238:84,1,78,2|2,2:2|2:2,0:0:0:0:
237,84,141917,1,2,2:2:0:0:
446,0,142060,2,1,B|479:33|479:33|440:142,1,156,2|2,1:2|2:2,0:0:0:0:
463,326,142489,1,0,0:0:0:0:
512,237,142631,2,1,B|440:224|440:224|434:227|434:227|355:213,1,156,10|6,2:2|2:2,0:0:0:0:
105,99,143203,6,1,L|92:175,1,78,2|0,1:2|0:0,0:0:0:0:
65,329,143489,2,1,L|79:252,1,78,2|0,2:2|0:0,0:0:0:0:
27,85,143774,2,1,L|14:161,1,78,10|0,2:2|0:0,0:0:0:0:
144,343,144060,2,1,L|158:266,1,78,2|0,2:2|0:0,0:0:0:0:
272,107,144346,1,2,1:2:0:0:
92,176,144489,2,1,B|137:138|199:161|199:161|209:177|231:188,1,156,2|2,2:2|2:2,0:0:0:0:
343,90,144917,2,1,P|305:87|272:107,1,78,10|0,2:2|0:0,0:0:0:0:
330,182,145203,1,2,2:2:0:0:
330,182,145346,1,0,0:0:0:0:
497,38,145489,6,1,P|483:110|469:192,1,156,2|2,1:2|2:2,0:0:0:0:
512,384,145917,1,0,0:0:0:0:
340,259,146060,1,10,2:2:0:0:
313,344,146203,2,1,P|350:349|387:336,1,78,2|2,2:2|2:2,0:0:0:0:
445,267,146489,1,2,2:2:0:0:
222,167,146631,2,1,B|299:180|266:239|340:259,1,156,2|2,1:2|2:2,0:0:0:0:
203,255,147060,1,0,0:0:0:0:
201,78,147203,2,1,B|92:102|157:207|47:237,1,234,10|0,2:2|0:0,0:0:0:0:
18,61,147774,6,1,L|31:138,1,78,2|0,1:2|0:0,0:0:0:0:
61,314,148060,2,1,L|48:237,1,78,2|0,2:2|0:0,0:0:0:0:
28,51,148346,2,1,L|41:128,1,78,10|0,2:2|0:0,0:0:0:0:
74,323,148631,2,1,L|61:246,1,78,2|0,2:2|0:0,0:0:0:0:
193,116,148917,5,2,1:2:0:0:
273,175,149060,2,1,B|257:197|257:197|159:214|159:214|135:198,1,156,2|2,2:2|2:2,0:0:0:0:
178,39,149489,2,1,L|193:115,1,78,10|0,2:2|0:0,0:0:0:0:
224,288,149774,1,2,2:2:0:0:
224,288,149917,1,0,0:0:0:0:
280,95,150060,6,1,B|300:80|300:80|393:96,1,117,2|0,1:2|0:0,0:0:0:0:
384,176,150346,2,1,B|363:190|363:190|273:175,1,117,2|0,2:2|0:0,0:0:0:0:
193,115,150631,1,10,2:2:0:0:
147,304,150774,2,1,L|223:288,1,78,2|2,2:2|2:2,0:0:0:0:
223,287,151060,1,2,2:2:0:0:
39,138,151203,2,1,B|111:125|111:125|117:127|117:127|196:114,1,156,2|2,1:2|2:2,0:0:0:0:
384,176,151631,1,0,0:0:0:0:
341,96,151774,2,1,P|327:169|313:253,1,156,10|6,2:2|2:2,0:0:0:0:
394,38,152346,6,1,P|360:18|317:20,1,78,2|0,1:2|0:0,0:0:0:0:
127,51,152631,2,1,P|166:46|195:22,1,78,2|0,2:2|0:0,0:0:0:0:
392,46,152917,2,1,P|358:26|317:27,1,78,10|0,2:2|0:0,0:0:0:0:
130,59,153203,2,1,P|168:54|199:30,1,78,2|0,2:2|0:0,0:0:0:0:
443,129,153489,5,2,1:2:0:0:
302,132,153631,2,1,B|380:140|346:204|425:215,1,156,2|2,2:2|2:2,0:0:0:0:
512,301,154060,2,1,P|474:297|434:318,1,78,10|0,2:2|0:0,0:0:0:0:
382,384,154346,1,2,2:2:0:0:
382,384,154489,1,0,0:0:0:0:
145,266,154631,6,1,B|165:281|165:281|258:265,1,117,2|0,1:2|0:0,0:0:0:0:
314,216,154917,2,1,B|404:201|404:201|425:215,1,117,2|0,2:2|0:0,0:0:0:0:
490,259,155203,1,10,2:2:0:0:
472,52,155346,2,1,L|457:128,1,78,0|2,0:0|2:2,0:0:0:0:
457,128,155631,1,2,2:2:0:0:
246,69,155774,2,1,B|270:85|270:85|368:68|368:68|384:46,1,156,2|2,1:2|2:2,0:0:0:0:
306,0,156203,5,0,0:0:0:0:
338,159,156346,1,10,2:2:0:0:
338,159,156489,1,0,0:0:0:0:
246,69,156631,6,1,L|232:144,1,78,6|0,2:2|0:0,0:0:0:0:
