osu file format v14

[General]
AudioFilename: audio.mp3
AudioLeadIn: 0
PreviewTime: 75529
Countdown: 0
SampleSet: Soft
StackLeniency: 0.3
Mode: 0
LetterboxInBreaks: 0
WidescreenStoryboard: 1

[Editor]
Bookmarks: 1903,37903,51617,151045,176760,205903
DistanceSpacing: 1
BeatDivisor: 4
GridSize: 4
TimelineZoom: 3.199999

[Metadata]
Title:DDU-DU DDU-DU
TitleUnicode:뚜두뚜두
Artist:BLACKPINK
ArtistUnicode:BLACKPINK
Creator:Irreversible
Version:fanzhen's Density Shift Insane
Source:
Tags:CharmCaster Stjpa Marianna Zetera Basti Sala- fanzhen fanzhen0019 -M4x Nhawak Voli Team Rocket Dissie Dimes Sing Daoski Collab Collaboration Lisa Rap Dance Thai Jisoo Jennie Badass Girl Inka Bird Hit You With That Rose Glitter Tank With Popcorn Scene d4
BeatmapID:1680300
BeatmapSetID:798691

[Difficulty]
HPDrainRate:6
CircleSize:4.3
OverallDifficulty:7
ApproachRate:9
SliderMultiplier:2.08
SliderTickRate:2

[Events]
//Background and Video events
0,0,"16ab049459.jpg",0,0
Video,-1710,"video.mp4"
//Break Periods
2,50122,55750
2,56979,62179
2,108408,114036
2,115265,120465
//Storyboard Layer 0 (Background)
//Storyboard Layer 1 (Fail)
//Storyboard Layer 2 (Pass)
//Storyboard Layer 3 (Foreground)
//Storyboard Sound Samples

[TimingPoints]
208,428.571428571429,4,2,1,10,1,0
208,-1000,4,2,1,10,0,0
2350,-333.333333333333,4,2,1,10,0,0
8136,-57.1428571428571,4,2,1,30,0,0
8243,-57.1428571428571,4,2,1,5,0,0
8350,-57.1428571428571,4,2,1,30,0,0
8458,-57.1428571428571,4,2,1,5,0,0
8779,-133.333333333333,4,2,1,65,0,0
14993,-57.1428571428571,4,2,1,65,0,0
15100,-57.1428571428571,4,2,1,5,0,0
15208,-57.1428571428571,4,2,1,65,0,0
15315,-57.1428571428571,4,2,1,5,0,0
15636,-133.333333333333,4,2,1,65,0,0
22065,-200,4,2,1,65,0,0
22386,-200,4,2,1,5,0,0
22493,-100,4,2,1,65,0,0
22922,-200,4,2,1,65,0,0
23993,-100,4,2,1,65,0,0
35350,-100,4,2,1,65,0,0
36208,-333.333333333333,4,2,1,65,0,0
36958,-333.333333333333,4,2,1,5,0,0
37065,-333.333333333333,4,2,1,65,0,0
40386,-333.333333333333,4,2,1,5,0,0
40493,-333.333333333333,4,2,1,65,0,0
48208,-666.666666666667,4,2,1,65,0,0
49922,-133.333333333333,4,2,1,65,0,0
63636,-100,4,2,1,65,0,0
70493,-133.333333333333,4,2,1,65,0,0
75636,-200,4,2,1,65,0,0
77297,-200,4,2,1,5,0,0
77350,-333.333333333333,4,2,1,65,0,0
84154,-333.333333333333,4,2,1,5,0,0
84208,-333.333333333333,4,2,1,65,0,0
90583,-333.333333333333,4,2,1,5,0,0
90636,-500,4,2,1,20,0,0
91279,-250,4,2,1,25,0,0
92136,-166.666666666667,4,2,1,30,0,0
92993,-125,4,2,1,35,0,0
93850,-57.1428571428571,4,2,1,40,0,0
93958,-57.1428571428571,4,2,1,5,0,0
94065,-57.1428571428571,4,2,1,50,0,0
94172,-57.1428571428571,4,2,1,5,0,0
94493,-133.333333333333,4,2,1,55,0,0
97815,-133.333333333333,4,2,1,5,0,0
97922,-133.333333333333,4,2,1,65,0,0
101243,-133.333333333333,4,2,1,5,0,0
101350,-133.333333333333,4,2,1,65,0,0
104672,-133.333333333333,4,2,1,5,0,0
104779,-133.333333333333,4,2,1,65,0,0
106493,-100,4,2,1,65,0,0
106922,-66.6666666666667,4,2,1,65,0,0
107350,-100,4,2,1,65,0,0
128779,-133.333333333333,4,2,1,65,0,0
132208,-66.6666666666667,4,2,1,65,0,0
133065,-100,4,2,1,65,0,0
133493,-133.333333333333,4,2,1,65,0,0
133922,-200,4,2,1,65,0,0
135583,-200,4,2,1,5,0,0
135636,-333.333333333333,4,2,1,65,0,0
142440,-333.333333333333,4,2,1,5,0,0
142493,-333.333333333333,4,2,1,65,0,0
173779,-133.333333333333,4,2,1,65,0,0
174208,-100,4,2,1,65,0,0
174636,-66.6666666666667,4,2,1,65,0,0
175065,-1000,4,2,1,65,0,0
176136,-57.1428571428571,4,2,1,65,0,0
176243,-57.1428571428571,4,2,1,5,0,0
176350,-57.1428571428571,4,2,1,65,0,0
176458,-57.1428571428571,4,2,1,5,0,0
176779,-1000,4,2,1,65,0,1
177529,-1000,4,2,1,5,0,1
177636,-1000,4,2,1,65,0,1
179243,-1000,4,2,1,5,0,1
179350,-1000,4,2,1,65,0,1
179779,-66.6666666666667,4,2,1,65,0,1
180208,-1000,4,2,1,55,0,1
180958,-1000,4,2,1,5,0,1
181065,-1000,4,2,1,65,0,1
184225,-1000,4,2,1,5,0,1
184279,-1000,4,2,1,65,0,1
184868,-1000,4,2,1,5,0,1
184922,-1000,4,2,1,65,0,1
185940,-1000,4,2,1,5,0,1
185993,-1000,4,2,1,65,0,1
186583,-1000,4,2,1,5,0,1
186636,-1000,4,2,1,65,0,1
187654,-1000,4,2,1,5,0,1
187708,-1000,4,2,1,65,0,1
188297,-1000,4,2,1,5,0,1
188350,-1000,4,2,1,65,0,1
189422,-66.6666666666667,4,2,1,65,0,1
190065,-57.1428571428571,4,2,1,65,0,0
190493,-1000,4,2,1,65,0,1
193440,-1000,4,2,1,5,0,1
193493,-1000,4,2,1,65,0,1
196868,-1000,4,2,1,5,0,1
196922,-1000,4,2,1,65,0,1
197136,-100,4,2,1,65,0,1
197350,-1000,4,2,1,65,0,1
200565,-133.333333333333,4,2,1,65,0,1
200779,-1000,4,2,1,65,0,1
203350,-133.333333333333,4,2,1,65,0,1
204208,-57.1428571428571,4,2,1,65,0,0

[Colours]
Combo1 : 255,117,145
Combo2 : 184,236,241
Combo3 : 143,165,252
Combo4 : 255,140,243

[HitObjects]
256,192,208,12,2,1922,0:0:0:0:
88,316,2350,6,0,L|77:251,6,62.3999980957032,0|2|0|2|2|2|0,0:0|0:0|0:0|0:0|0:0|0:0|0:0,0:0:0:0:
156,136,5350,6,0,L|145:201,6,62.3999980957032,2|0|2|0|2|2|2,0:0|0:0|0:0|0:0|0:0|0:0|0:0,0:0:0:0:
96,72,8136,6,0,B|134:45|134:45|186:53,1,91.0000008678436,4|0,1:2|0:0,0:0:0:0:
328,132,8350,2,0,B|284:138|284:138|246:111,1,91.0000008678436,4|0,0:0|0:0,0:0:0:0:
24,272,8779,6,0,L|116:264,1,78.000002975464,4|0,1:0|0:0,0:0:0:0:
136,252,9100,1,0,3:0:0:0:
172,272,9208,2,0,L|264:264,2,78.000002975464,2|2|8,0:3|0:3|0:0,0:0:0:0:
316,228,10065,5,0,3:0:0:0:
392,220,10279,2,0,L|388:240,2,19.500000743866,0|0|0,3:0|3:0|3:0,3:3:0:0:
468,212,10493,2,0,L|472:172,3,39.000001487732,0|0|0|0,3:0|3:0|3:0|3:0,0:0:0:0:
512,104,10922,2,0,P|488:88|432:96,1,78.000002975464,4|2,3:0|0:3,0:0:0:0:
324,128,11350,5,8,0:0:0:0:
248,136,11565,2,0,L|240:160,2,19.500000743866,2|0|0,3:1|3:0|3:0,3:3:0:0:
168,148,11779,1,4,1:2:0:0:
168,148,12208,6,2,L|88:144,1,78.000002975464,6|0,1:0|0:1,0:0:0:0:
84,184,12529,1,0,3:0:0:0:
80,224,12636,2,0,L|0:220,2,78.000002975464,2|2|8,0:0|0:0|0:0,0:0:0:0:
212,360,13493,1,0,3:0:0:0:
204,284,13708,2,0,L|176:280,2,19.500000743866,0|0|0,3:0|3:0|3:0,3:3:0:0:
200,208,13922,6,0,L|148:196,3,39.000001487732,2|0|4|0,0:0|0:0|3:0|0:0,0:0:0:0:
272,248,14350,2,0,L|356:240,1,78.000002975464,2|2,0:0|0:3,0:0:0:0:
440,228,14779,1,8,0:0:0:0:
424,376,14993,6,0,B|392:340|392:340|404:284,1,91.0000008678436,4|0,1:2|0:0,0:0:0:0:
388,168,15208,2,0,B|420:132|420:132|408:76,1,91.0000008678436,4|0,0:0|0:0,0:0:0:0:
44,36,15636,6,0,P|40:88|60:112,1,78.000002975464,4|0,1:0|0:0,0:0:0:0:
92,108,15958,1,0,3:0:0:0:
128,96,16065,2,0,P|132:44|112:20,2,78.000002975464,2|2|8,0:3|0:3|0:0,0:0:0:0:
8,256,16922,1,0,0:0:0:0:
84,260,17136,2,0,L|80:288,2,19.500000743866,0|0|0,3:0|3:0|3:0,3:3:0:0:
160,264,17350,6,0,L|200:260,1,39.000001487732,0|0,3:0|3:0,0:0:0:0:
268,292,17565,2,0,L|308:288,1,39.000001487732,0|0,3:0|3:0,0:0:0:0:
380,320,17779,2,0,L|464:312,1,78.000002975464,4|2,3:0|0:3,0:0:0:0:
504,200,18208,5,8,0:0:0:0:
428,196,18422,2,0,L|432:168,2,19.500000743866,2|0|0,3:1|3:0|3:0,3:3:0:0:
352,192,18636,1,4,1:2:0:0:
352,192,19065,6,2,P|312:176|264:188,1,78.000002975464,6|0,1:0|0:1,0:0:0:0:
248,156,19386,1,0,3:0:0:0:
228,192,19493,2,0,P|188:208|140:196,2,78.000002975464,2|2|8,0:3|0:3|0:0,0:0:0:0:
508,40,20350,5,0,3:0:0:0:
432,32,20565,2,0,L|436:52,2,19.500000743866,0|0|0,3:0|3:0|3:0,3:3:0:0:
360,24,20779,1,2,0:0:0:0:
308,84,20993,1,4,3:0:0:0:
308,84,21100,1,0,0:0:0:0:
308,84,21208,2,0,L|220:88,1,78.000002975464,2|2,0:0|0:3,0:0:0:0:
128,52,21636,5,8,0:0:0:0:
128,52,22065,6,2,L|132:132,1,78,2|0,0:1|0:0,0:0:0:0:
76,200,22493,6,0,P|56:204|36:204,3,34.6666666666667,4|0|0|0,3:1|0:0|0:0|0:0,0:0:0:0:
472,112,23350,1,8,0:0:0:0:
476,124,23779,5,0,3:0:0:0:
400,148,23993,2,0,L|396:180,2,26,0|0|0,3:0|3:0|3:0,3:3:0:0:
320,172,24208,1,0,3:0:0:0:
252,124,24422,1,0,3:0:0:0:
184,76,24636,1,4,3:0:0:0:
252,124,24850,1,0,3:0:0:0:
320,172,25064,1,8,0:0:0:0:
400,148,25279,2,0,L|396:180,2,26,0|0|0,3:0|3:0|3:0,3:3:0:0:
476,124,25493,2,2,L|464:232,1,104,2|0,0:1|1:0,0:0:0:0:
456,312,25922,6,0,P|452:336|452:352,3,34.6666666666667,4|0|0|0,3:0|0:0|0:0|0:0,0:0:0:0:
24,264,26779,1,8,0:0:0:0:
28,276,27208,5,0,3:0:0:0:
108,292,27422,2,0,L|108:320,2,26,0|0|0,3:0|3:0|3:0,3:3:0:0:
188,308,27636,1,0,3:0:0:0:
244,248,27850,1,4,3:0:0:0:
300,188,28065,1,0,3:0:0:0:
244,248,28279,1,0,3:0:0:0:
188,308,28493,1,8,0:0:0:0:
188,308,28922,5,0,3:0:0:0:
148,312,29029,1,0,0:0:0:0:
108,316,29136,2,0,L|108:348,2,26,0|0|0,3:0|3:0|3:0,3:3:0:0:
36,336,29350,6,0,P|32:320|32:300,3,34.6666666666667,4|0|0|0,3:0|0:0|0:0|0:0,0:0:0:0:
212,36,30208,1,8,0:0:0:0:
208,48,30636,5,0,1:0:0:0:
132,80,30850,2,0,L|96:84,2,26,0|0|0,3:0|3:0|3:0,3:3:0:0:
208,48,31065,1,4,0:1:0:0:
288,76,31279,1,2,0:0:0:0:
368,104,31493,1,4,3:0:0:0:
288,76,31708,1,2,0:0:0:0:
208,48,31922,1,0,1:0:0:0:
132,80,32136,2,0,L|96:84,2,26,0|0|0,3:0|3:0|3:0,3:3:0:0:
196,132,32350,6,0,P|196:152|176:192,1,52,2|0,0:1|0:0,0:0:0:0:
328,336,32779,6,0,P|316:352|300:364,3,34.6666666666667,4|0|0|0,3:1|0:0|0:0|0:0,0:0:0:0:
460,52,33636,1,4,3:2:0:0:
456,64,34065,5,0,1:0:0:0:
376,80,34279,2,0,L|340:76,2,26,0|0|0,3:0|3:0|3:0,3:3:0:0:
456,64,34493,1,0,3:0:0:0:
428,144,34708,1,4,3:0:0:0:
400,224,34922,1,2,0:0:0:0:
428,144,35136,1,0,3:0:0:0:
456,64,35350,5,0,1:0:0:0:
424,136,35493,1,0,3:0:0:0:
376,72,35636,1,0,3:0:0:0:
456,64,35779,1,0,1:0:0:0:
240,44,35993,6,0,L|248:12,2,26,0|0|0,0:0|3:0|3:0,3:3:0:0:
180,112,36208,6,0,B|128:128|128:128|72:112,1,109.199996667481,4|0,0:1|0:0,0:0:0:0:
32,44,37065,1,0,1:0:0:0:
180,112,37493,6,0,B|126:146|126:146|75:113,1,124.799996191406,0|0,0:0|1:0,0:0:0:0:
32,44,38779,1,0,1:0:0:0:
324,248,39636,6,0,B|376:232|376:232|432:248,1,109.199996667481,6|0,0:1|0:0,0:0:0:0:
472,316,40493,1,0,1:0:0:0:
324,248,40922,6,0,L|416:220,1,93.5999971435548,0|4,3:0|3:0,0:0:0:0:
472,316,42207,1,0,1:0:0:0:
92,188,43065,5,4,0:1:0:0:
120,256,43279,1,2,0:3:0:0:
92,268,43386,1,0,3:0:0:0:
64,256,43493,1,0,1:0:0:0:
92,188,43708,1,0,0:0:0:0:
92,348,43922,1,8,0:0:0:0:
148,244,44779,5,2,0:3:0:0:
120,256,44886,1,2,0:3:0:0:
92,268,44993,1,2,0:3:0:0:
64,256,45100,1,2,0:3:0:0:
36,244,45208,1,4,3:0:0:0:
92,188,45422,1,0,0:0:0:0:
92,348,45636,1,8,0:0:0:0:
420,196,46493,5,4,0:1:0:0:
392,128,46707,1,0,3:0:0:0:
420,116,46814,1,0,3:0:0:0:
448,128,46921,1,2,0:0:0:0:
420,196,47136,1,0,0:0:0:0:
420,36,47350,1,8,0:0:0:0:
364,140,48208,6,0,B|420:116|420:116|480:140,1,124.799996191406,0|4,0:0|0:1,0:0:0:0:
72,232,56350,6,0,L|40:224,2,19.500000743866,0|0|0,3:0|3:0|3:0,3:3:0:0:
184,200,56565,2,0,L|206:176,2,19.500000743866,0|0|0,3:0|3:0|3:0,3:3:0:0:
156,312,56779,1,4,0:0:0:0:
372,80,62779,6,0,P|368:56|368:44,2,26.0000009918213,0|0|0,3:0|3:0|3:0,3:3:0:0:
456,112,62993,2,0,P|480:108|492:108,2,26.0000009918213,0|0|0,3:0|3:0|3:0,0:0:0:0:
424,192,63208,2,0,P|428:216|428:228,2,26.0000009918213,0|0|0,3:0|3:0|3:0,3:3:0:0:
340,160,63422,2,0,P|316:164|304:164,2,26.0000009918213,0|0|0,3:0|3:0|3:0,0:0:0:0:
380,92,63636,5,8,0:0:0:0:
296,88,63850,1,0,0:0:0:0:
380,92,64065,5,0,3:0:0:0:
68,76,64493,5,4,3:0:0:0:
152,80,64708,1,0,0:0:0:0:
68,76,64922,1,0,0:0:0:0:
380,92,65350,5,4,3:0:0:0:
296,88,65564,1,0,0:0:0:0:
380,92,65779,1,0,0:0:0:0:
228,32,65993,1,2,0:3:0:0:
68,76,66207,5,4,3:0:0:0:
152,80,66422,1,0,0:0:0:0:
68,76,66636,1,0,3:0:0:0:
224,128,66850,1,0,3:0:0:0:
220,144,67065,5,4,3:0:0:0:
136,152,67279,1,0,0:0:0:0:
52,160,67493,1,8,0:0:0:0:
512,228,67922,5,4,3:0:0:0:
428,236,68136,1,0,0:0:0:0:
344,244,68350,1,0,3:0:0:0:
136,152,68779,5,4,3:0:0:0:
52,160,68993,1,2,0:0:0:0:
136,152,69208,1,0,1:0:0:0:
220,144,69422,1,2,0:0:0:0:
428,236,69636,5,4,3:0:0:0:
512,228,69850,1,0,3:0:0:0:
428,236,70065,1,0,3:0:0:0:
344,244,70279,1,0,3:0:0:0:
340,260,70493,6,0,L|244:252,2,78.000002975464,8|0|0,0:0|0:0|1:0,0:0:0:0:
60,240,71136,1,8,3:0:0:0:
60,240,71350,6,0,L|156:248,2,78.000002975464,4|0|0,3:0|3:0|3:0,0:0:0:0:
40,224,71886,1,0,3:0:0:0:
16,236,71993,1,0,3:0:0:0:
36,252,72100,1,0,3:0:0:0:
60,240,72208,6,0,L|156:248,2,78.000002975464,4|0|0,3:0|0:0|1:0,0:0:0:0:
340,260,72850,1,2,0:3:0:0:
340,260,73065,2,0,L|244:252,2,78.000002975464,4|0|0,0:0|3:0|3:0,3:3:0:0:
348,280,73600,1,0,3:0:0:0:
356,300,73708,1,0,3:0:0:0:
364,320,73815,1,0,3:0:0:0:
372,340,73922,5,0,1:0:0:0:
288,344,74136,1,0,1:0:0:0:
204,348,74350,1,0,1:0:0:0:
120,352,74565,1,0,1:0:0:0:
124,360,74779,6,0,L|120:316,1,39.000001487732,0|0,1:0|1:0,0:0:0:0:
224,368,74993,2,0,L|220:324,1,39.000001487732,0|0,1:0|1:0,0:0:0:0:
324,376,75208,2,0,L|320:352,3,19.500000743866,0|0|0|0,3:0|3:0|3:0|3:0,3:3:0:0:
424,384,75422,2,0,L|420:360,3,19.500000743866,0|0|0|0,3:0|3:0|3:0|0:0,0:0:0:0:
480,312,75636,6,0,B|512:304|540:200|384:208|396:288|456:284|384:308|372:300|372:300|360:284|360:284|348:300|348:300|292:300|292:300|280:316|280:316|268:300|268:300|200:300,1,403,0|0,0:0|0:0,0:0:0:0:
140,272,77350,6,0,B|84:284|84:284|40:232,2,124.799996191406,4|8|0,1:0|0:0|3:0,0:0:0:0:
180,264,79172,1,0,3:0:0:0:
208,292,79279,1,0,3:0:0:0:
248,284,79386,1,0,3:0:0:0:
276,312,79493,2,0,L|272:344,1,31.1999990478516,4|2,3:0|0:3,0:0:0:0:
312,132,79922,5,8,0:0:0:0:
232,144,80136,2,0,L|228:132,2,7.7999997619629,2|0|0,3:1|3:0|3:0,3:3:0:0:
152,160,80350,1,4,1:2:0:0:
152,160,80779,6,2,B|92:144|92:144|36:184,2,124.799996191406,6|8|0,1:0|0:0|1:0,0:0:0:0:
228,184,82708,1,4,3:0:0:0:
168,232,82922,1,0,3:0:0:0:
244,252,83136,1,0,3:0:0:0:
184,304,83350,2,0,B|180:312|180:312|176:304|176:304|140:332|140:332|136:340|136:340|132:332|132:332|99:355,1,116.999996429443,2|0,3:0|0:0,0:0:0:0:
92,360,84208,6,0,L|216:368,2,124.799996191406,4|8|0,1:0|0:0|3:0,0:0:0:0:
64,328,86029,1,0,3:0:0:0:
76,288,86136,1,0,3:0:0:0:
52,256,86243,1,0,3:0:0:0:
64,216,86350,2,0,L|64:184,1,31.1999990478516,4|2,3:0|0:3,0:0:0:0:
272,60,86779,5,8,0:0:0:0:
352,76,86993,2,0,L|344:88,2,7.7999997619629,2|0|0,3:1|3:0|3:0,3:3:0:0:
432,92,87208,1,4,1:2:0:0:
432,92,87636,6,2,L|308:100,1,124.799996191406,6|8,1:0|0:0,0:0:0:0:
307,100,88922,1,0,0:0:0:0:
256,192,89136,5,0,0:0:0:0:
256,192,89244,1,0,0:0:0:0:
256,192,89351,1,2,0:0:0:0:
176,196,89565,1,2,0:3:0:0:
384,264,89779,1,2,0:0:0:0:
304,256,89994,1,0,3:0:0:0:
500,344,90208,2,0,P|464:332|444:328,1,54.5999983337403,0|0,0:0|0:0,0:0:0:0:
416,328,90636,6,0,L|414:326,12,2.6,0|0|0|0|0|0|0|0|0|0|0|0|0,0:0|0:0|0:0|0:0|0:0|0:0|0:0|0:0|0:0|0:0|0:0|0:0|0:0,0:0:0:0:
392,292,91065,5,4,0:1:0:0:
388,308,91279,1,0,0:0:0:0:
372,304,91493,1,0,0:0:0:0:
376,288,91707,1,0,0:0:0:0:
368,272,91922,5,4,0:1:0:0:
380,352,92136,1,0,0:0:0:0:
300,364,92350,1,0,0:0:0:0:
288,284,92564,1,0,0:0:0:0:
288,204,92779,5,4,0:1:0:0:
220,356,92993,1,0,0:0:0:0:
64,292,93208,1,0,0:0:0:0:
132,140,93422,2,0,L|128:92,2,41.6,0|0|0,0:0|0:0|0:0,0:0:0:0:
12,200,93850,6,0,B|64:192|64:192|108:236,1,91.0000008678436,4|0,1:2|0:0,0:0:0:0:
220,264,94065,2,0,B|272:272|272:272|316:228,1,91.0000008678436,4|0,0:0|0:0,0:0:0:0:
488,268,94493,6,0,P|448:264|404:288,1,78.000002975464,4|0,1:0|0:0,0:0:0:0:
414,278,94815,2,0,P|437:245|438:195,1,78.000002975464,0|0,0:0|3:0,0:0:0:0:
488,268,95136,1,0,3:0:0:0:
441,208,95350,6,0,L|445:180,4,19.500000743866,0|0|2|0|4,1:0|0:0|0:0|0:0|1:3,0:0:0:0:
332,320,95779,2,0,L|336:348,4,19.500000743866,4|0|4|0|0,1:3|0:0|0:0|0:0|0:0,0:0:0:0:
216,272,96208,1,0,3:0:0:0:
176,268,96315,1,0,0:0:0:0:
136,280,96422,1,0,1:0:0:0:
96,276,96529,1,0,0:0:0:0:
56,288,96636,2,0,L|8:284,2,39.000001487732,0|0|0,3:0|0:0|1:0,0:0:0:0:
216,272,97065,5,8,3:2:0:0:
216,272,97493,2,0,P|232:232|200:160,1,117.000004463196,0|0,1:0|3:0,0:0:0:0:
128,136,97922,6,0,P|132:96|108:52,1,78.000002975464,4|0,1:0|3:0,0:0:0:0:
118,62,98244,2,0,P|150:85|200:86,1,78.000002975464,0|2,0:0|0:0,0:0:0:0:
128,136,98565,1,0,3:0:0:0:
187,89,98779,6,0,L|195:49,3,39.000001487732,0|0|0|0,1:0|3:0|3:0|3:0,0:0:0:0:
272,148,99208,2,0,L|268:120,4,19.500000743866,4|0|0|0|0,3:0|3:0|3:0|3:0|3:0,3:3:0:0:
448,72,99636,5,0,3:0:0:0:
428,108,99743,1,0,0:0:0:0:
440,144,99850,1,0,1:0:0:0:
420,180,99957,1,0,0:0:0:0:
432,216,100065,2,0,L|436:256,2,39.000001487732,0|0|0,3:0|0:0|1:0,0:0:0:0:
360,308,100493,5,8,0:0:0:0:
360,308,100922,2,0,P|320:296|252:328,1,117.000004463196,0|0,1:0|3:0,0:0:0:0:
184,292,101350,6,0,L|164:368,1,78.000002975464,4|0,1:0|3:0,0:0:0:0:
164,367,101672,2,0,L|108:311,1,78.000002975464,0|0,0:0|3:0,0:0:0:0:
184,292,101993,1,0,3:0:0:0:
108,312,102208,6,0,P|100:292|104:272,1,39.000001487732,0|0,1:0|3:0,0:0:0:0:
16,192,102422,2,0,P|24:212|20:232,1,39.000001487732,4|0,3:0|0:0,0:0:0:0:
104,136,102636,6,0,L|160:140,3,39.000001487732,4|0|0|0,3:0|3:0|3:0|3:0,0:0:0:0:
208,80,103065,2,0,L|264:72,3,39.000001487732,0|0|4|0,1:0|0:0|3:0|0:0,0:0:0:0:
324,120,103493,2,0,L|356:124,6,19.500000743866,0|0|0|0|0|0|0,3:0|0:0|3:0|0:0|3:0|0:0|3:0,0:0:0:0:
396,52,103922,5,2,1:0:0:0:
396,52,104350,2,0,P|424:88|424:160,1,117.000004463196,2|0,1:0|0:0,0:0:0:0:
376,228,104779,6,0,L|452:248,1,78.000002975464,4|0,1:0|3:0,0:0:0:0:
451,248,105101,2,0,L|395:303,1,78.000002975464,0|0,0:0|3:0,0:0:0:0:
376,228,105422,1,0,3:0:0:0:
396,304,105636,6,0,P|396:328|392:344,1,39.000001487732,8|0,0:0|3:0,0:0:0:0:
296,252,105850,2,0,P|296:228|292:212,1,39.000001487732,0|0,3:0|3:0,0:0:0:0:
208,320,106065,2,0,L|204:344,6,19.500000743866,4|0|0|0|0|0|0,3:0|0:0|3:0|0:0|3:0|0:0|3:0,0:0:0:0:
136,288,106493,6,0,L|132:328,6,26,4|0|0|0|4|0|0,1:2|0:0|0:0|0:0|3:0|3:0|3:0,3:3:0:0:
56,268,106922,6,0,L|60:320,6,39.000001487732,2|0|2|0|2|0|2,0:0|0:0|0:0|0:0|0:0|0:0|0:0,0:0:0:0:
115,209,107350,6,0,P|59:135|11:224,1,208
40,40,108208,5,4,0:1:0:0:
440,232,114636,6,0,L|472:224,2,26,0|0|0,3:0|0:0|0:0,3:3:0:0:
328,200,114851,2,0,L|306:176,2,26,0|0|0,3:0|0:0|0:0,3:3:0:0:
356,312,115065,1,4,0:0:0:0:
140,80,121065,6,0,P|144:56|144:44,2,34.6666666666667,0|0|0,3:0|0:0|0:0,3:3:0:0:
56,112,121279,2,0,P|32:108|20:108,2,34.6666666666667,0|0|0,3:0|0:0|0:0,0:0:0:0:
88,192,121494,2,0,P|84:216|84:228,2,34.6666666666667,0|0|0,3:0|0:0|0:0,3:3:0:0:
172,160,121708,2,0,P|196:164|208:164,2,34.6666666666667,0|0|0,3:0|0:0|0:0,0:0:0:0:
132,92,121922,5,8,0:0:0:0:
216,88,122136,1,0,0:0:0:0:
132,92,122351,5,0,3:0:0:0:
444,76,122779,5,4,3:0:0:0:
360,80,122994,1,0,0:0:0:0:
444,76,123208,1,0,0:0:0:0:
132,92,123636,5,4,3:0:0:0:
216,88,123850,1,0,0:0:0:0:
132,92,124065,1,0,0:0:0:0:
284,32,124279,1,2,0:3:0:0:
444,76,124493,5,4,3:0:0:0:
360,80,124708,1,0,0:0:0:0:
444,76,124922,1,0,3:0:0:0:
288,128,125136,1,0,3:0:0:0:
292,144,125351,5,4,3:0:0:0:
376,152,125565,1,0,0:0:0:0:
460,160,125779,1,0,0:0:0:0:
0,228,126208,5,4,3:0:0:0:
84,236,126422,1,0,0:0:0:0:
168,244,126636,1,0,3:0:0:0:
376,152,127065,5,4,3:0:0:0:
460,160,127279,1,2,0:0:0:0:
376,152,127494,1,0,1:0:0:0:
292,144,127708,1,2,0:0:0:0:
84,236,127922,5,4,3:0:0:0:
0,228,128136,1,0,3:0:0:0:
84,236,128351,1,0,3:0:0:0:
168,244,128565,1,0,3:0:0:0:
172,260,128779,6,0,L|268:252,2,78.000002975464,8|0|0,0:0|0:0|1:0,0:0:0:0:
452,240,129422,1,8,3:0:0:0:
452,240,129636,6,0,L|356:248,2,78.000002975464,4|2|0,3:0|0:0|3:0,0:0:0:0:
472,224,130172,1,0,3:0:0:0:
496,236,130279,1,0,3:0:0:0:
476,252,130386,1,0,3:0:0:0:
452,240,130494,6,0,L|356:248,2,78.000002975464,4|0|0,3:0|0:0|1:0,0:0:0:0:
172,260,131136,1,2,0:3:0:0:
172,260,131351,2,0,L|268:252,2,78.000002975464,4|0|0,0:0|3:0|3:0,3:3:0:0:
164,280,131886,1,0,3:0:0:0:
156,300,131994,1,0,3:0:0:0:
148,320,132101,1,0,3:0:0:0:
140,340,132208,6,0,L|84:336,4,39.000001487732,0|0|0|4|2,1:0|1:0|1:0|3:0|3:0,1:1:0:0:
272,352,132636,2,0,L|216:348,4,39.000001487732,0|0|0|2|2,1:0|1:0|1:0|3:0|3:0,1:1:0:0:
388,360,133065,6,0,L|393:302,1,52,0|0,3:0|3:0,0:0:0:0:
288,368,133279,2,0,L|292:315,1,52,0|0,3:0|3:0,0:0:0:0:
188,376,133493,2,0,L|192:352,3,19.500000743866,0|0|0|0,3:0|3:0|3:0|3:0,3:3:0:0:
88,384,133707,2,0,L|92:360,3,19.500000743866,0|0|0|0,3:0|3:0|3:0|0:0,0:0:0:0:
32,312,133922,6,0,B|0:304|-28:200|128:208|116:288|56:284|128:308|140:300|140:300|152:284|152:284|164:300|164:300|220:300|220:300|232:316|232:316|244:300|244:300|312:300,1,403,0|0,0:0|0:0,0:0:0:0:
368,260,135636,6,0,L|496:260,2,124.799996191406,4|8|0,1:0|0:0|3:0,0:0:0:0:
320,196,137565,1,0,3:0:0:0:
320,196,137672,1,0,3:0:0:0:
320,196,137779,2,0,L|312:160,1,31.1999990478516,4|2,3:0|0:3,0:0:0:0:
112,128,138208,5,8,0:0:0:0:
176,180,138422,2,0,L|164:184,2,7.7999997619629,2|0|0,3:1|3:0|3:0,3:3:0:0:
124,244,138636,1,4,1:2:0:0:
124,244,139065,6,2,L|-4:244,2,124.799996191406,6|8|0,1:1|0:0|1:0,0:0:0:0:
156,316,140993,1,4,3:0:0:0:
208,256,141208,1,0,3:0:0:0:
240,328,141422,1,0,3:0:0:0:
292,268,141636,2,0,B|296:260|296:260|300:268|300:268|340:280|340:280|344:272|344:272|348:280|348:280|388:293,1,116.999996429443,2|0,3:0|0:0,0:0:0:0:
464,316,142493,6,0,B|492:248|432:264|460:196,2,124.799996191406,4|8|0,1:0|0:0|3:0,0:0:0:0:
432,336,144315,1,0,3:0:0:0:
396,356,144422,1,0,3:0:0:0:
356,352,144529,1,0,3:0:0:0:
316,344,144636,2,0,P|308:324|308:312,1,31.1999990478516,4|2,3:0|0:3,0:0:0:0:
292,132,145065,5,8,0:0:0:0:
232,84,145279,2,0,L|236:72,2,7.7999997619629,2|0|0,3:1|3:0|3:0,3:3:0:0:
184,144,145493,1,4,1:2:0:0:
184,144,145922,6,2,B|120:156|128:116|60:128,1,124.799996191406,6|8,1:1|0:0,0:0:0:0:
62,127,147208,1,0,3:0:0:0:
124,216,147422,5,0,3:0:0:0:
124,216,147529,1,0,3:0:0:0:
124,216,147636,1,2,0:0:0:0:
200,240,147850,1,4,3:0:0:0:
388,216,148065,1,2,0:0:0:0:
312,240,148279,1,2,0:3:0:0:
256,304,148493,2,0,L|256:180,1,124.799996191406,0|4,1:0|0:1,0:0:0:0:
160,64,149993,5,0,3:0:0:0:
40,152,150636,1,0,3:0:0:0:
216,184,151065,5,0,3:0:0:0:
148,120,151708,1,0,3:0:0:0:
72,176,152350,1,0,0:0:0:0:
72,188,152779,6,0,L|72:284,2,93.5999971435548,4|0|0,0:0|3:0|3:0,0:0:0:0:
144,256,154279,1,0,3:0:0:0:
216,324,154493,2,0,L|216:230,2,93.5999971435548,0|0|0,3:0|3:0|3:0,0:0:0:0:
256,172,156208,5,4,0:1:0:0:
352,64,156850,1,0,3:0:0:0:
472,152,157493,1,0,3:0:0:0:
296,184,157922,5,0,3:0:0:0:
364,120,158565,1,0,3:0:0:0:
440,176,159207,1,0,0:0:0:0:
440,188,159636,6,0,L|440:284,2,93.5999971435548,4|0|0,0:0|3:0|3:0,0:0:0:0:
368,256,161136,1,0,3:0:0:0:
296,230,161350,2,0,L|296:324,1,93.5999971435548,0|2,3:0|0:0,0:0:0:0:
220,336,162208,1,2,3:2:0:0:
148,348,162422,1,2,0:0:0:0:
72,360,162636,2,0,L|72:324,1,31.1999990478516,2|0,3:2|3:0,0:0:0:0:
20,236,163065,5,4,1:0:0:0:
172,212,163493,1,0,3:0:0:0:
96,224,163708,1,0,3:0:0:0:
148,284,163922,2,0,L|212:284,1,62.3999980957032,4|8,3:0|0:0,0:0:0:0:
280,248,164565,5,0,3:0:0:0:
280,248,164779,2,0,L|344:248,1,62.3999980957032,0|0,1:0|3:0,0:0:0:0:
416,276,165422,1,2,0:1:0:0:
356,324,165636,1,4,0:3:0:0:
476,224,166065,1,8,0:0:0:0:
432,76,166493,5,0,1:0:0:0:
356,96,166708,2,0,L|324:104,1,31.1999990478516,2|0,0:1|3:0,0:0:0:0:
252,124,167136,1,2,0:1:0:0:
176,104,167350,2,0,L|192:40,1,62.3999980957032,4|8,0:3|0:0,0:0:0:0:
36,28,168208,6,0,L|28:60,1,31.1999990478516,0|2,1:0|0:0,0:0:0:0:
60,80,168529,1,2,0:0:0:0:
92,100,168636,2,0,L|100:132,1,31.1999990478516,2|2,3:2|0:0,0:0:0:0:
68,152,168957,1,2,0:0:0:0:
36,172,169065,2,0,L|28:204,1,31.1999990478516,2|2,3:2|0:0,0:0:0:0:
60,224,169386,1,2,0:0:0:0:
92,244,169493,6,0,L|96:256,2,7.7999997619629,0|0|0,3:0|0:0|0:0,0:0:0:0:
176,256,169708,2,0,L|180:268,2,7.7999997619629,0|0|0,3:0|0:0|0:0,0:0:0:0:
256,268,169922,5,4,1:0:0:0:
244,352,170136,1,0,0:0:0:0:
340,236,170350,5,0,3:0:0:0:
256,268,170565,1,2,0:3:0:0:
400,296,170779,5,2,0:3:0:0:
340,236,170993,1,0,3:0:0:0:
384,376,171208,5,8,0:0:0:0:
392,336,171315,1,0,0:0:0:0:
400,296,171422,1,0,3:0:0:0:
408,256,171529,1,0,3:0:0:0:
412,216,171636,5,0,1:0:0:0:
496,200,171850,1,2,0:1:0:0:
324,184,172065,5,0,3:0:0:0:
412,216,172279,1,2,0:1:0:0:
228,212,172493,5,4,3:0:0:0:
324,184,172708,1,8,0:3:0:0:
68,180,172922,5,8,0:0:0:0:
108,188,173029,1,0,0:0:0:0:
148,196,173136,1,0,3:3:0:0:
188,204,173243,1,0,3:0:0:0:
228,212,173350,6,0,L|224:232,3,15.5999995239258,0|0|0|0,3:0|3:0|3:0|3:0,0:0:0:0:
312,160,173779,6,0,L|360:168,3,39.000001487732,0|0|0|0,3:0|3:0|3:0|3:0,0:0:0:0:
252,80,174208,6,0,L|260:24,3,52,0|0|0|0,3:0|3:0|3:0|3:0,0:0:0:0:
168,132,174637,6,0,L|84:116,3,78.000002975464,0|0|0|0,3:0|3:0|3:0|3:0,0:0:0:0:
228,212,175065,6,0,P|216:232|200:240,1,41.6,2|4,0:1|0:1,0:0:0:0:
116,280,176136,6,0,B|164:272|164:272|212:312,1,91.0000008678436,4|0,1:2|0:0,0:0:0:0:
296,324,176350,2,0,B|344:332|344:332|392:292,1,91.0000008678436,4|0,0:0|0:0,0:0:0:0:
460,172,176779,6,0,L|424:168,1,36.4,4|0,1:0|0:0,0:0:0:0:
360,204,177636,1,0,1:0:0:0:
176,84,178279,6,0,L|171:56,1,26,4|0,3:0|0:0,0:0:0:0:
96,108,178922,2,0,L|92:124,1,15.6,4|0,3:0|0:0,0:0:0:0:
156,168,179350,1,0,1:0:0:0:
148,176,179779,6,0,B|68:192|68:192|128:252,1,156.000005950928,6|0,1:2|1:0,0:0:0:0:
172,300,180208,6,0,L|168:336,1,36.4,4|0,1:0|0:0,0:0:0:0:
100,368,181065,1,0,1:0:0:0:
404,320,181708,6,0,L|415:318,4,10.4,4|0|2|4|2,1:3|1:0|0:1|3:0|0:1,0:0:0:0:
368,252,182779,6,0,L|363:262,3,10.4,8|2|0|2,1:2|3:1|3:0|3:1,0:0:0:0:
296,232,183636,6,0,L|300:204,1,28.6,4|0,1:0|0:0,0:0:0:0:
344,176,184279,2,0,L|348:148,1,28.6,4|0,3:0|0:0,0:0:0:0:
392,120,184922,1,4,1:2:0:0:
216,232,185350,6,0,L|212:204,1,28.6,4|0,1:0|0:0,0:0:0:0:
168,176,185993,2,0,L|164:148,1,28.6,4|0,3:0|0:0,0:0:0:0:
120,120,186636,1,4,1:2:0:0:
308,96,187065,6,0,L|280:88,1,28.6,4|0,1:0|0:0,0:0:0:0:
232,88,187708,2,0,L|204:96,1,28.6,4|0,3:0|0:0,0:0:0:0:
256,48,188350,1,4,1:2:0:0:
256,220,188779,6,0,L|256:240,1,20.8,4|0,3:0|3:0,0:0:0:0:
204,324,189422,6,0,L|160:332,4,39.000001487732,0|0|0|0|0,3:0|3:0|3:0|3:0|3:0,0:0:0:0:
308,324,189850,2,0,L|352:332,4,39.000001487732,0|0|0|0|0,3:0|3:0|3:0|3:0|3:0,0:0:0:0:
256,240,190279,1,0,3:0:0:0:
152,244,190493,6,0,B|140:204|140:204|108:213|108:213|100:184|100:184|82:189|82:189|77:171,1,143,4|0,1:0|3:0,0:0:0:0:
60,100,193493,1,4,1:2:0:0:
212,144,193922,6,0,B|252:132|252:132|243:100|243:100|272:92|272:92|267:74|267:74|285:69,1,143,4|0,1:0|0:0,0:0:0:0:
285,68,196922,1,2,3:2:0:0:
432,32,197136,2,0,L|428:60,2,26,4|0|0,3:2|0:0|0:0,0:0:0:0:
500,72,197350,6,0,L|500:104,2,31.2,4|4|4,1:0|3:0|1:2,0:0:0:0:
372,128,199065,2,0,L|372:160,2,31.2,4|4|4,3:0|3:0|0:0,0:0:0:0:
292,116,200565,6,0,L|292:96,2,19.500000743866,0|0|0,3:0|3:0|3:0,0:0:0:0:
244,184,200779,6,0,L|244:216,2,31.2,4|4|4,1:0|3:0|1:2,0:0:0:0:
116,240,202493,2,0,L|116:272,1,31.2,4|4,3:0|3:0,0:0:0:0:
48,304,203350,6,0,L|40:328,3,19.500000743866,0|0|0|0,1:0|0:0|1:0|0:0,0:0:0:0:
256,320,203779,2,0,L|248:344,3,19.500000743866,0|0|0|0,1:0|0:0|1:0|0:0,0:0:0:0:
464,336,204208,1,2,0:1:0:0:
