osu file format v14

[General]
AudioFilename: audio.mp3
AudioLeadIn: 0
PreviewTime: 75529
Countdown: 0
SampleSet: Soft
StackLeniency: 0.4
Mode: 0
LetterboxInBreaks: 0
WidescreenStoryboard: 1

[Editor]
Bookmarks: 10474,24189,51617,92760
DistanceSpacing: 0.2
BeatDivisor: 8
GridSize: 4
TimelineZoom: 1.9

[Metadata]
Title:DDU-DU DDU-DU
TitleUnicode:뚜두뚜두
Artist:BLACKPINK
ArtistUnicode:BLACKPINK
Creator:Irreversible
Version:Zetera's Insane
Source:
Tags:CharmCaster Stjpa Marianna Zetera Basti Sala- fanzhen fanzhen0019 -M4x Nhawak Voli Team Rocket Dissie Dimes Sing Daoski Collab Collaboration Lisa Rap Dance Thai Jisoo Jennie Badass Girl Inka Bird Hit You With That Rose Glitter Tank With Popcorn Scene d4
BeatmapID:1678001
BeatmapSetID:798691

[Difficulty]
HPDrainRate:6
CircleSize:3.9
OverallDifficulty:7
ApproachRate:8.5
SliderMultiplier:1.7
SliderTickRate:1

[Events]
//Background and Video events
0,0,"16ab049459.jpg",0,0
Video,-1710,"video.mp4"
//Break Periods
//Storyboard Layer 0 (Background)
//Storyboard Layer 1 (Fail)
//Storyboard Layer 2 (Pass)
//Storyboard Layer 3 (Foreground)
//Storyboard Sound Samples

[TimingPoints]
208,428.571428571429,4,2,0,70,1,0
22065,-500,4,2,0,70,0,0
22708,-100,4,2,0,70,0,0
75636,-133.333333333333,4,2,0,70,0,0
77350,-100,4,2,0,80,0,1
89136,-100,4,2,0,70,0,0
133922,-133.333333333333,4,2,0,70,0,0
135636,-100,4,2,0,80,0,1
149350,-100,4,2,0,70,0,0
163708,-200,4,2,0,70,0,0
168422,-100,4,2,0,70,0,0
176779,-125,4,2,0,80,0,1
179779,-25,4,2,0,80,0,1
179994,-125,4,2,0,80,0,1
183636,-66.6666666666667,4,2,0,80,0,1
190494,-125,4,2,0,80,0,1
193494,-25,4,2,0,80,0,1
193708,-125,4,2,0,80,0,1
195851,-100,4,2,0,80,0,1
197351,-66.6666666666667,4,2,0,80,0,1
203779,-133.333333333333,4,2,0,80,0,1
204208,-133.333333333333,4,2,0,70,0,0

[Colours]
Combo1 : 255,117,145
Combo2 : 184,236,241
Combo3 : 143,165,252
Combo4 : 255,140,243

[HitObjects]
23,229,8779,6,2,P|100:243|140:270,1,127.5,4|2,1:0|3:0,0:0:0:0:
139,269,9208,1,2,0:0:0:0:
226,184,9422,2,0,L|224:230,1,42.5,2|0,0:0|0:0,0:0:0:0:
221,322,9636,6,0,B|299:314|299:314|321:319|321:319|412:307,1,170,8|0,0:0|0:0,0:0:0:0:
495,317,10279,5,0,0:0:0:0:
500,328,10386,1,0,0:0:0:0:
504,340,10494,2,2,P|450:375|418:371,1,85,2|0,3:0|0:0,0:0:0:0:
399,189,10922,2,2,P|440:195|471:223,1,85,0|0,1:0|0:0,0:0:0:0:
324,362,11351,5,8,0:0:0:0:
324,362,11779,5,2,0:1:0:0:
328,347,11994,1,2,0:1:0:0:
153,297,12208,6,2,P|91:303|6:337,1,127.5,6|0,1:0|0:0,0:0:0:0:
30,325,12636,1,2,0:0:0:0:
113,192,12851,2,0,P|67:178|50:178,1,42.5,2|0,0:0|0:0,0:0:0:0:
18,234,13065,6,0,B|27:199|27:199|-3:55,1,170,8|0,0:0|0:0,0:0:0:0:
127,13,13708,1,0,0:0:0:0:
139,15,13815,1,0,0:0:0:0:
151,18,13922,2,2,L|267:1,1,85,0|0,0:0|1:0,0:0:0:0:
440,32,14351,2,2,L|356:45,1,85,0|0,0:0|0:0,0:0:0:0:
104,94,14779,5,8,0:0:0:0:
200,116,14994,1,4,0:0:0:0:
113,117,15208,1,4,0:0:0:0:
122,143,15636,6,2,P|104:224|104:304,1,127.5,4|2,1:0|3:0,0:0:0:0:
112,285,16065,1,2,0:0:0:0:
39,124,16279,2,0,P|25:178|25:190,1,42.5,2|0,0:0|0:0,0:0:0:0:
1,52,16494,6,2,B|63:36|63:36|110:47|110:47|166:36,1,170,8|0,0:0|0:0,0:0:0:0:
311,58,17136,1,0,0:0:0:0:
307,70,17244,1,0,0:0:0:0:
304,82,17351,2,2,P|310:130|315:185,1,85,2|0,3:0|0:0,0:0:0:0:
436,349,17779,2,2,P|440:306|445:264,1,85,0|0,1:0|0:0,0:0:0:0:
235,211,18208,1,8,0:0:0:0:
235,211,18636,5,2,0:1:0:0:
232,226,18851,1,2,0:1:0:0:
491,184,19065,6,2,P|482:118|458:32,1,127.5,4|0,1:0|2:0,0:0:0:0:
447,47,19494,1,2,0:0:0:0:
444,264,19708,2,0,L|507:280,1,42.5,2|0,0:0|0:0,0:0:0:0:
404,185,19922,2,2,L|225:203,1,170,8|0,0:0|0:0,0:0:0:0:
103,366,20565,5,2,0:0:0:0:
98,353,20672,1,2,0:0:0:0:
91,340,20779,2,0,L|193:356,1,85,2|0,0:0|1:0,0:0:0:0:
84,101,21208,2,2,L|0:114,1,85,2|2,0:0|0:0,0:0:0:0:
223,137,21636,5,8,0:0:0:0:
223,137,22065,2,0,P|229:159|230:167,1,25.5,2|0,0:0|0:0,0:0:0:0:
278,72,22494,5,4,1:0:0:0:
459,163,22922,2,0,L|373:174,1,85,0|0,0:0|0:0,0:0:0:0:
299,217,23351,2,0,P|251:141|293:59,1,170,10|0,0:0|0:0,0:0:0:0:
369,87,23994,1,0,0:0:0:0:
199,27,24208,5,0,0:0:0:0:
287,55,24422,1,0,0:0:0:0:
133,127,24636,2,0,L|241:116,1,85,0|0,1:0|0:0,0:0:0:0:
96,49,25065,2,0,L|-1:38,1,85,10|0,0:0|0:0,0:0:0:0:
5,47,25708,5,0,0:0:0:0:
48,127,25922,2,0,P|60:172|71:227,1,85,0|0,1:0|0:0,0:0:0:0:
180,61,26351,2,0,L|75:46,1,85,0|0,0:0|0:0,0:0:0:0:
151,247,26779,6,0,L|353:207,1,170,10|0,0:0|0:0,0:0:0:0:
404,197,27422,1,0,0:0:0:0:
487,183,27636,5,0,0:0:0:0:
415,287,27851,1,0,1:0:0:0:
317,213,28065,2,0,L|322:97,1,85,0|0,0:0|0:0,0:0:0:0:
479,17,28494,2,0,L|484:133,1,85,10|0,0:0|0:0,0:0:0:0:
279,56,28922,1,0,0:0:0:0:
279,56,29351,5,0,1:0:0:0:
363,41,29565,1,0,0:0:0:0:
217,119,29779,5,0,0:0:0:0:
197,36,29993,1,0,0:0:0:0:
340,128,30208,2,0,L|328:247,1,85,10|0,0:0|0:0,0:0:0:0:
161,349,30636,2,0,L|152:264,1,85,0|0,0:0|0:0,0:0:0:0:
95,98,31065,5,0,0:0:0:0:
189,110,31279,1,0,0:0:0:0:
22,170,31494,5,0,1:0:0:0:
7,49,31708,1,0,0:0:0:0:
132,187,31922,5,10,0:0:0:0:
111,353,32136,1,0,0:0:0:0:
121,268,32351,1,0,0:0:0:0:
121,268,32779,6,0,P|178:288|191:374,1,127.5,0|0,1:0|0:0,0:0:0:0:
189,357,33208,2,0,L|295:347,1,85,0|0,0:0|0:0,0:0:0:0:
442,193,33636,6,0,L|423:354,1,127.5,10|0,0:0|0:0,0:0:0:0:
424,332,34065,2,0,P|400:283|353:254,1,85,0|0,0:0|0:0,0:0:0:0:
298,111,34494,5,0,0:0:0:0:
463,67,34708,2,0,L|356:50,1,85,0|0,1:0|0:0,0:0:0:0:
381,150,35136,1,0,0:0:0:0:
286,10,35351,5,2,3:0:0:0:
185,26,35565,1,0,0:0:0:0:
86,44,35779,1,2,1:0:0:0:
86,44,36208,6,0,L|78:165,1,85,4|0,1:0|0:0,0:0:0:0:
64,201,36529,1,0,0:0:0:0:
61,211,36636,2,0,L|124:199,2,56.6666666666667,4|0|0,3:0|3:0|3:0,0:0:0:0:
62,294,37065,6,0,L|-2:279,2,63.75,8|0|0,0:0|0:0|0:0,0:0:0:0:
136,314,37494,1,4,3:0:0:0:
408,44,37922,6,0,L|462:35,1,42.5,2|0,0:0|0:0,0:0:0:0:
459,118,38136,2,0,L|516:107,2,42.5,0|0|4,0:0|0:0|3:0,0:0:0:0:
254,153,38565,1,0,0:0:0:0:
322,11,38779,6,0,L|315:87,2,56.6666666666667,0|0|0,3:0|3:0|3:0,0:0:0:0:
240,34,39208,2,0,L|81:50,1,127.5,4|0,3:0|0:0,0:0:0:0:
33,18,39636,5,4,1:0:0:0:
2,119,39851,1,0,0:0:0:0:
4,131,39958,1,0,0:0:0:0:
7,143,40065,2,0,P|58:183|90:183,1,85,4|0,3:0|0:0,0:0:0:0:
214,145,40494,6,0,L|291:132,2,56.6666666666667,8|0|4,0:0|0:0|3:0,0:0:0:0:
197,164,40922,2,0,L|207:279,1,85,0|2,0:0|3:0,0:0:0:0:
467,333,41351,6,0,L|475:274,1,42.5,0|0,3:0|0:0,0:0:0:0:
391,282,41565,2,0,L|397:223,2,42.5,0|0|4,0:0|0:0|3:0,0:0:0:0:
389,374,41994,1,0,0:0:0:0:
347,164,42208,6,0,P|378:153|412:152,2,56.6666666666667,10|0|0,0:0|3:0|0:0,0:0:0:0:
290,220,42636,2,2,L|301:88,1,127.5,4|0,0:1|3:0,0:0:0:0:
311,20,43065,5,4,3:1:0:0:
421,3,43279,1,2,0:0:0:0:
429,10,43386,1,0,0:0:0:0:
438,17,43494,2,0,L|428:136,1,85,2|0,0:0|0:0,0:0:0:0:
385,162,43815,2,0,L|538:142,1,127.5,2|2,0:0|0:0,0:0:0:0:
300,92,44351,2,0,P|274:148|304:225,1,127.5,2|2,0:0|0:0,0:0:0:0:
370,245,44779,6,0,L|426:238,3,42.5,0|0|0|0,0:0|0:0|0:0|0:0,0:0:0:0:
455,236,45208,2,0,L|448:320,1,85,4|0,3:0|0:0,0:0:0:0:
498,375,45529,2,0,L|361:351,1,127.5,4|0,3:0|0:0,0:0:0:0:
198,364,46065,1,2,0:0:0:0:
198,364,46494,6,0,P|177:299|192:256,1,85,4|0,1:0|0:0,0:0:0:0:
187,274,46815,1,0,0:0:0:0:
193,262,46922,2,0,P|199:195|184:164,1,85,2|0,0:0|0:0,0:0:0:0:
47,121,47351,2,0,L|170:110,1,85,0|2,0:0|0:0,0:0:0:0:
302,174,47779,1,2,0:0:0:0:
256,192,48208,12,4,49922,0:1:0:0:
59,351,50779,6,0,P|36:303|42:259,1,85,2|2,0:0|0:0,0:0:0:0:
119,250,51208,2,0,P|158:201|199:195,1,85,2|2,0:0|0:0,0:0:0:0:
199,302,51636,6,0,B|214:357|293:369|334:309|334:309|379:253|455:265|474:344,1,340,2|2,0:0|0:0,0:0:0:0:
468,327,52922,2,0,L|475:212,1,85,0|0,0:0|0:0,0:0:0:0:
444,155,53351,6,0,P|462:93|410:20,1,141.666666666667,2|2,0:0|0:0,0:0:0:0:
216,91,53993,1,2,0:0:0:0:
216,91,54208,2,0,L|357:105,1,127.5,0|0,0:0|0:0,0:0:0:0:
349,123,54636,2,0,P|343:174|371:221,1,85,2|2,0:0|0:0,0:0:0:0:
443,154,55065,6,0,L|429:3,1,148.75,2|2,0:0|0:0,0:0:0:0:
510,234,55708,1,0,0:0:0:0:
458,322,55922,2,0,P|390:319|338:384,1,127.5,2|2,0:0|0:0,0:0:0:0:
335,355,56351,2,0,P|317:292|278:259,1,85,0|0,0:0|0:0,0:0:0:0:
212,311,56779,6,0,B|150:295|89:326|89:326|58:263|-26:236,1,255,12|0,0:0|0:0,0:0:0:0:
29,167,57636,2,0,L|13:50,1,85,2|2,0:0|0:0,0:0:0:0:
115,11,58065,2,0,L|110:107,1,85,2|2,0:0|0:0,0:0:0:0:
111,223,58494,6,0,P|183:155|195:313,1,340,2|2,0:0|0:0,0:0:0:0:
211,310,59779,2,0,L|320:322,1,85,0|0,0:0|0:0,0:0:0:0:
439,369,60208,6,0,P|449:315|514:226,1,148.75,2|2,0:0|0:0,0:0:0:0:
378,260,60850,2,0,P|376:165|347:93,1,170,2|2,0:0|0:0,0:0:0:0:
295,30,61494,1,2,0:0:0:0:
295,30,61708,1,2,0:0:0:0:
378,15,61922,6,0,B|500:36|500:36|455:48,1,170,2|0,0:0|0:0,0:0:0:0:
348,96,62565,1,2,0:0:0:0:
295,30,62779,2,0,L|257:20,9,28.3333333333333
182,103,63636,6,0,L|192:-22,1,85,4|0,1:0|0:0,0:0:0:0:
29,124,64065,1,8,0:0:0:0:
41,126,64172,1,0,0:0:0:0:
53,128,64279,1,0,0:0:0:0:
65,130,64386,1,0,0:0:0:0:
77,133,64494,6,0,L|67:16,1,85,0|0,1:0|0:0,0:0:0:0:
186,158,64922,1,8,0:0:0:0:
40,222,65136,1,0,0:0:0:0:
181,242,65351,6,0,P|180:201|195:126,1,85,0|0,1:0|0:0,0:0:0:0:
40,222,65779,2,0,P|46:245|50:306,1,85,8|0,0:0|0:0,0:0:0:0:
160,374,66208,2,0,L|354:361,1,170,0|8,1:0|0:0,0:0:0:0:
439,354,66851,5,0,0:0:0:0:
451,357,66958,1,0,0:0:0:0:
462,361,67065,2,0,P|485:296|473:259,1,85,0|0,1:0|0:0,0:0:0:0:
383,200,67494,2,0,P|362:236|362:278,1,85,8|0,0:0|0:0,0:0:0:0:
482,282,67922,2,0,L|466:99,1,170,0|8,1:0|0:0,0:0:0:0:
459,25,68565,1,0,0:0:0:0:
383,200,68779,6,0,P|324:185|293:137,1,85,0|0,1:0|0:0,0:0:0:0:
294,5,69208,2,0,P|310:63|284:114,1,85,8|0,0:0|0:0,0:0:0:0:
183,236,69636,6,0,P|186:178|260:128,1,127.5,0|0,1:0|0:0,0:0:0:0:
234,132,70065,2,0,L|132:118,1,85,8|0,0:0|1:0,0:0:0:0:
6,174,70494,5,4,1:0:0:0:
150,121,70815,1,0,0:0:0:0:
155,126,70922,2,0,L|52:109,1,85,8|0,0:0|1:0,0:0:0:0:
6,174,71351,5,0,1:0:0:0:
39,250,71565,1,0,0:0:0:0:
2,326,71779,2,2,L|-4:370,2,42.5,8|2|0,0:0|3:0|1:0,0:0:0:0:
124,247,72208,6,0,L|279:266,1,127.5,0|0,1:0|0:0,0:0:0:0:
257,281,72636,2,0,L|267:372,1,85,8|0,0:0|1:0,0:0:0:0:
316,193,73065,6,0,L|326:78,1,85,8|0,0:0|0:0,0:0:0:0:
312,86,73386,2,0,L|459:68,1,127.5,0|0,0:0|0:0,0:0:0:0:
481,252,73922,5,0,1:0:0:0:
396,271,74136,1,0,1:0:0:0:
238,89,74351,5,0,1:0:0:0:
323,108,74565,1,0,1:0:0:0:
253,294,74779,6,0,L|184:302,1,42.5,12|12,1:3|1:3,0:0:0:0:
133,310,74994,2,0,L|73:318,1,42.5,12|12,1:3|0:3,0:0:0:0:
6,330,75208,1,4,1:3:0:0:
6,330,75315,1,4,1:3:0:0:
6,330,75422,1,4,1:3:0:0:
6,330,75529,1,4,1:3:0:0:
6,330,75636,6,0,L|269:351,1,255.000009727478,2|2,0:0|0:0,0:0:0:0:
260,350,76922,1,2,0:0:0:0:
256,25,77351,6,2,L|111:51,1,127.5,4|2,1:0|3:0,0:0:0:0:
54,65,77779,1,2,0:0:0:0:
54,65,77994,1,2,0:0:0:0:
44,274,78208,2,0,P|-1:230|8:130,1,170,8|0,0:0|0:0,0:0:0:0:
120,225,78851,5,0,0:0:0:0:
116,212,78958,1,0,0:0:0:0:
112,199,79065,2,2,P|160:144|186:141,1,85,2|2,3:0|3:0,0:0:0:0:
189,267,79494,2,2,P|255:285|276:321,1,85,0|0,1:0|0:0,0:0:0:0:
40,358,79922,6,0,L|47:246,1,85,8|2,0:0|0:1,0:0:0:0:
60,84,80351,1,2,0:1:0:0:
10,196,80565,2,0,L|13:139,1,42.5,2|0,0:1|0:0,0:0:0:0:
0,214,80779,6,2,L|156:206,1,127.5,6|2,1:0|3:0,0:0:0:0:
168,142,81208,2,2,P|192:161|205:192,1,42.5,2|0,0:0|0:0,0:0:0:0:
196,250,81422,1,2,0:0:0:0:
212,1,81636,6,0,L|197:182,1,170,8|0,0:0|0:0,0:0:0:0:
328,165,82279,1,0,0:0:0:0:
340,162,82386,1,0,0:0:0:0:
352,159,82493,2,2,L|339:55,1,85,2|0,0:0|1:0,0:0:0:0:
316,250,82922,1,2,0:0:0:0:
466,179,83136,1,2,0:0:0:0:
424,21,83351,5,10,0:0:0:0:
412,26,83458,2,0,L|422:125,1,85,2|0,0:0|0:0,0:0:0:0:
352,159,83779,1,2,0:0:0:0:
364,164,83886,2,0,L|354:263,1,85,2|0,0:0|0:0,0:0:0:0:
417,309,84208,6,2,P|356:300|303:379,1,127.5,4|2,1:0|3:0,0:0:0:0:
309,340,84636,1,2,0:0:0:0:
231,159,84851,2,0,L|240:235,1,42.5,2|0,0:0|0:0,0:0:0:0:
245,281,85065,6,0,L|58:264,1,170,8|0,0:0|0:0,0:0:0:0:
17,176,85708,1,0,0:0:0:0:
28,171,85815,1,0,0:0:0:0:
39,165,85922,2,2,L|45:48,1,85,2|2,3:0|3:0,0:0:0:0:
75,265,86351,2,2,L|69:382,1,85,0|0,1:0|0:0,0:0:0:0:
140,170,86779,6,0,P|189:161|233:183,1,85,8|2,0:0|0:1,0:0:0:0:
291,253,87208,1,2,0:1:0:0:
299,127,87422,2,0,L|293:75,1,42.5,2|0,0:1|0:0,0:0:0:0:
309,0,87636,6,2,L|297:166,1,127.5,6|2,1:0|3:0,0:0:0:0:
370,178,88065,1,2,0:0:0:0:
370,178,88279,1,2,0:0:0:0:
500,22,88494,2,0,P|464:12|381:108,1,170,8|0,0:0|0:0,0:0:0:0:
453,182,89136,5,2,0:0:0:0:
465,184,89243,1,2,0:0:0:0:
477,186,89351,2,0,L|488:292,3,85,2|2|2|2,0:0|0:0|0:0|0:0,0:0:0:0:
497,360,90208,1,2,0:0:0:0:
256,192,91065,12,2,93422,0:0:0:0:
53,86,93851,5,4,0:0:0:0:
258,62,94065,6,0,L|106:77,1,127.5,4|0,0:0|0:0,0:0:0:0:
53,86,94494,6,0,B|31:125|31:125|43:199,1,85,4|0,1:0|0:0,0:0:0:0:
102,206,94815,2,0,L|90:356,1,127.5,0|2,0:0|0:0,0:0:0:0:
0,240,95351,5,0,1:0:0:0:
91,333,95565,1,4,3:0:0:0:
211,266,95779,1,4,3:0:0:0:
286,348,95994,1,0,0:0:0:0:
300,350,96101,1,0,0:0:0:0:
312,352,96208,2,0,B|338:318|338:318|331:244,1,85,2|4,0:1|0:0,0:0:0:0:
233,189,96636,2,0,B|207:223|207:223|214:297,1,85,0|2,0:0|3:0,0:0:0:0:
334,275,97065,6,0,L|445:288,2,85,2|2|0,1:2|0:0|0:0,0:0:0:0:
322,283,97601,1,0,0:0:0:0:
406,37,97922,6,0,B|417:103|417:103|411:121|411:121|414:185,2,127.5,4|0|0,1:0|0:0|0:0,0:0:0:0:
396,28,98672,1,0,0:0:0:0:
387,18,98779,2,0,L|296:7,1,85,0|0,1:0|0:0,0:0:0:0:
286,172,99208,2,2,L|436:160,1,127.5,4|0,3:0|0:0,0:0:0:0:
493,152,99636,5,4,1:2:0:0:
475,312,99851,2,0,L|461:204,1,85,0|4,0:0|0:0,0:0:0:0:
493,152,100279,1,2,3:0:0:0:
387,18,100494,6,0,B|344:2|344:2|255:17,1,127.5,0|0,1:0|0:0,0:0:0:0:
252,26,100922,2,0,L|247:90,2,42.5,4|0|0,1:0|0:0|0:0,0:0:0:0:
183,192,101351,6,2,B|191:138|177:125|162:116|169:58,2,127.5,4|2|2,1:2|0:0|0:0,0:0:0:0:
173,202,102101,1,0,3:0:0:0:
162,210,102208,2,0,L|106:217,2,42.5,0|0|4,1:0|3:0|3:0,0:0:0:0:
280,241,102636,1,4,3:0:0:0:
279,253,102744,1,0,0:0:0:0:
278,265,102851,1,0,0:0:0:0:
277,277,102958,1,0,0:0:0:0:
277,289,103065,6,0,L|373:280,1,85,2|4,0:0|3:0,0:0:0:0:
446,327,103493,2,0,L|451:287,6,21.25,0|0|0|0|4|0|0,0:0|0:0|0:0|0:0|3:0|0:0|0:0,0:0:0:0:
454,271,103922,6,0,P|482:221|440:129,1,127.5,4|0,0:0|0:0,0:0:0:0:
410,88,104351,2,0,P|382:138|424:230,1,127.5,2|0,0:0|0:0,0:0:0:0:
396,203,104779,6,0,L|292:212,1,85,4|0,0:0|0:0,0:0:0:0:
241,174,105101,2,0,B|220:222|220:222|240:330,1,127.5,0|0,0:0|0:0,0:0:0:0:
309,95,105636,2,0,L|266:89,3,42.5,0|0|0|0,1:0|3:0|0:0|0:0,0:0:0:0:
223,23,106065,2,0,L|180:29,3,42.5,0|0|0|0,0:0|0:0|0:0|0:0,0:0:0:0:
140,101,106494,6,0,L|147:199,1,85,0|0,0:0|0:0,0:0:0:0:
34,332,106922,1,0,0:0:0:0:
46,334,107029,1,0,0:0:0:0:
58,336,107136,1,0,0:0:0:0:
70,338,107244,1,0,0:0:0:0:
82,340,107351,2,0,L|69:179,1,127.5,4|0,0:0|0:0,0:0:0:0:
158,319,107779,2,0,L|164:390,1,42.5,2|0,0:0|0:0,0:0:0:0:
54,21,108208,5,4,0:1:0:0:
54,21,109065,6,0,P|93:-4|149:3,1,85,2|2,0:0|0:0,0:0:0:0:
91,166,109494,2,0,P|49:144|27:92,1,85,2|2,0:0|0:0,0:0:0:0:
192,79,109922,2,0,B|227:161|163:222|163:222|96:284|119:377|179:397,1,340,2|2,0:0|0:0,0:0:0:0:
154,383,111208,2,0,L|258:376,1,85,0|0,0:0|0:0,0:0:0:0:
371,318,111636,6,0,L|516:329,1,141.666666666667,2|2,0:0|0:0,0:0:0:0:
408,124,112279,1,0,0:0:0:0:
429,240,112494,2,0,P|396:165|421:108,1,127.5,2|0,0:0|0:0,0:0:0:0:
408,124,112922,2,0,L|495:113,1,85,2|2,0:0|0:0,0:0:0:0:
369,34,113350,6,0,P|311:2|215:33,1,170,2|2,0:0|0:0,0:0:0:0:
318,114,113993,1,0,0:0:0:0:
318,114,114208,2,0,L|307:267,1,127.5,2|0,0:0|0:0,0:0:0:0:
310,252,114636,2,0,P|257:232|222:244,1,85,0|0,0:0|0:0,0:0:0:0:
193,363,115065,6,0,L|170:101,1,255,10|0,0:0|0:0,0:0:0:0:
186,29,115922,2,0,P|129:39|97:77,1,85,2|2,0:0|0:0,0:0:0:0:
237,165,116351,2,0,P|256:110|239:63,2,85,2|2|0,0:0|0:0|0:0,0:0:0:0:
103,154,116994,6,0,P|82:220|151:309,1,170,2|0,0:0|0:0,0:0:0:0:
231,359,117636,2,0,L|216:247,1,85,2|0,0:0|0:0,0:0:0:0:
313,195,118065,2,2,L|307:293,1,85,0|0,0:0|0:0,0:0:0:0:
439,369,118493,6,0,P|449:315|514:226,1,148.75,2|2,0:0|0:0,0:0:0:0:
378,260,119136,2,0,P|376:165|347:93,1,170,2|2,0:0|0:0,0:0:0:0:
432,22,119779,1,2,0:0:0:0:
432,22,119994,1,2,0:0:0:0:
348,96,120208,6,0,P|377:175|377:259,1,170,2|2,0:0|0:0,0:0:0:0:
256,192,120850,1,0,0:0:0:0:
316,31,121065,2,0,L|270:19,9,28.3333333333333,2|0|0|0|0|0|0|0|0|0,0:0|0:0|0:0|0:0|0:0|0:0|0:0|0:0|0:0|0:0,0:0:0:0:
213,82,121922,6,0,P|209:31|182:-7,1,85,4|0,1:0|0:0,0:0:0:0:
42,109,122351,1,8,0:0:0:0:
44,121,122458,1,0,0:0:0:0:
46,133,122565,1,0,0:0:0:0:
48,145,122672,1,0,0:0:0:0:
51,159,122779,6,0,P|97:181|143:176,1,85,0|0,1:0|0:0,0:0:0:0:
115,93,123208,1,8,0:0:0:0:
0,239,123422,1,0,0:0:0:0:
157,278,123636,6,0,P|212:247|224:219,1,85,0|0,1:0|0:0,0:0:0:0:
268,36,124065,2,0,L|276:146,1,85,8|0,0:0|0:0,0:0:0:0:
279,318,124494,2,0,P|359:321|426:390,1,170,0|8,1:0|0:0,0:0:0:0:
461,302,125136,5,2,3:0:0:0:
473,298,125244,1,2,3:0:0:0:
485,295,125351,2,0,L|497:174,1,85,0|0,1:0|0:0,0:0:0:0:
421,45,125779,2,0,L|426:134,1,85,8|0,0:0|0:0,0:0:0:0:
482,204,126208,2,0,P|391:221|338:164,1,170,0|8,1:0|0:0,0:0:0:0:
345,88,126851,1,0,0:0:0:0:
292,262,127065,6,0,L|306:370,1,85,0|0,1:0|0:0,0:0:0:0:
212,241,127494,2,0,L|173:332,1,85,8|0,0:0|0:0,0:0:0:0:
178,165,127922,6,0,L|34:183,1,127.5,0|0,1:0|0:0,0:0:0:0:
51,180,128351,2,0,P|49:231|82:292,1,85,8|0,0:0|1:0,0:0:0:0:
101,96,128779,5,4,1:0:0:0:
262,154,129101,1,0,0:0:0:0:
262,154,129208,2,0,L|177:164,1,85,8|0,0:0|1:0,0:0:0:0:
101,96,129636,5,0,1:0:0:0:
177,164,129851,1,0,0:0:0:0:
202,68,130065,2,2,L|196:17,2,42.5,8|2|0,0:0|3:0|0:0,0:0:0:0:
108,226,130494,6,0,P|199:251|237:232,1,127.5,0|0,1:0|0:0,0:0:0:0:
242,228,130922,2,0,L|236:339,1,85,8|0,0:0|1:0,0:0:0:0:
318,174,131351,6,0,L|308:29,1,127.5,0|0,1:0|0:0,0:0:0:0:
307,31,131779,2,0,L|409:47,1,85,8|0,0:0|1:0,0:0:0:0:
357,273,132208,6,0,L|352:243,2,21.25,2|4|2,3:0|3:0|3:0,0:0:0:0:
418,166,132636,2,0,L|395:185,2,21.25,2|2|2,3:0|3:0|3:0,0:0:0:0:
318,174,133065,1,4,1:3:0:0:
306,171,133172,1,4,1:3:0:0:
295,168,133279,1,4,1:3:0:0:
283,165,133386,1,4,1:3:0:0:
270,162,133494,2,0,L|229:152,5,28.3333333333333,4|0|0|4|0|0,1:3|0:0|0:0|1:3|0:0|0:0,0:0:0:0:
198,96,133922,6,0,L|215:354,1,255.000009727478,2|2,0:0|0:0,0:0:0:0:
214,350,135208,1,2,0:0:0:0:
256,25,135636,6,2,L|401:51,1,127.5,4|2,1:0|3:0,0:0:0:0:
458,65,136064,1,2,0:0:0:0:
458,65,136279,1,2,0:0:0:0:
468,274,136493,2,0,P|513:230|504:130,1,170,8|0,0:0|0:0,0:0:0:0:
392,225,137136,1,0,0:0:0:0:
396,212,137243,1,0,0:0:0:0:
400,199,137350,2,2,P|352:144|326:141,1,85,2|2,3:0|3:0,0:0:0:0:
323,267,137779,2,2,P|257:285|236:321,1,85,0|0,1:0|0:0,0:0:0:0:
472,358,138207,6,0,L|465:246,1,85,8|2,0:0|0:1,0:0:0:0:
452,84,138636,1,2,0:1:0:0:
502,196,138850,2,0,L|499:139,1,42.5,2|0,0:1|0:0,0:0:0:0:
512,214,139064,6,2,L|356:206,1,127.5,6|0,1:0|2:0,0:0:0:0:
344,142,139493,2,2,P|320:161|307:192,1,42.5,2|0,0:0|0:0,0:0:0:0:
316,250,139707,1,2,0:0:0:0:
300,1,139921,6,0,L|315:182,1,170,8|0,0:0|0:0,0:0:0:0:
220,130,140564,1,0,0:0:0:0:
208,127,140671,1,0,0:0:0:0:
196,124,140778,2,2,L|209:20,1,85,2|0,0:0|1:0,0:0:0:0:
232,215,141207,1,2,0:0:0:0:
46,179,141421,1,2,0:0:0:0:
88,21,141636,5,10,0:0:0:0:
100,26,141743,2,0,L|90:125,1,85,2|0,0:0|0:0,0:0:0:0:
151,168,142064,1,2,0:0:0:0:
139,173,142171,2,0,L|149:272,1,85,2|0,0:0|0:0,0:0:0:0:
95,309,142493,6,2,P|156:300|209:379,1,127.5,4|2,1:0|3:0,0:0:0:0:
203,340,142921,1,2,0:0:0:0:
281,159,143136,2,0,L|272:235,1,42.5,2|0,0:0|0:0,0:0:0:0:
267,281,143350,6,0,L|454:264,1,170,8|0,0:0|0:0,0:0:0:0:
495,176,143993,1,0,0:0:0:0:
484,171,144100,1,0,0:0:0:0:
473,165,144207,2,2,L|467:48,1,85,2|2,3:0|3:0,0:0:0:0:
437,265,144636,2,2,L|443:382,1,85,0|0,1:0|0:0,0:0:0:0:
372,170,145064,6,0,P|323:161|279:183,1,85,8|2,0:0|0:1,0:0:0:0:
221,253,145493,1,2,0:1:0:0:
213,127,145707,2,0,L|219:75,1,42.5,2|0,0:1|0:0,0:0:0:0:
203,0,145921,6,2,L|215:166,1,127.5,6|0,1:0|0:0,0:0:0:0:
142,178,146350,1,2,0:0:0:0:
142,178,146564,1,2,0:0:0:0:
12,22,146779,2,0,P|48:12|131:108,1,170,8|0,0:0|0:0,0:0:0:0:
59,182,147421,5,2,0:0:0:0:
47,184,147528,1,0,0:0:0:0:
35,186,147636,2,0,L|24:292,3,85,2|0|2|2,0:0|1:0|0:0|0:0,0:0:0:0:
15,360,148493,1,8,0:0:0:0:
15,360,148922,6,0,L|163:346,1,127.5,2|0,0:0|0:0,0:0:0:0:
215,384,149351,6,0,B|158:309|193:260|193:260|267:237|262:163|262:163|333:115|268:34|268:34|184:36|178:90|178:90,1,510,4|2,1:3|1:2,0:0:0:0:
186,70,151065,2,0,P|110:35|60:55,2,127.5,2|2|2,1:2|0:0|1:2,0:0:0:0:
58,205,151922,2,0,P|25:150|27:117,1,85,0|0,0:0|0:0,0:0:0:0:
145,216,152244,2,0,P|209:214|236:233,1,85,2|0,0:0|0:0,0:0:0:0:
91,288,152565,2,0,P|59:344|30:358,1,85,0|4,0:0|1:3,0:0:0:0:
34,346,153422,1,2,1:2:0:0:
26,335,154065,1,2,1:2:0:0:
56,142,154279,1,0,0:0:0:0:
202,267,154494,5,2,1:2:0:0:
208,272,155136,1,2,1:2:0:0:
213,279,155779,2,0,L|372:290,1,127.5,2|0,1:2|0:0,0:0:0:0:
381,364,156208,6,0,B|382:202|382:202|403:191|403:191|405:24,1,340,4|0,1:3|0:0,0:0:0:0:
404,36,157494,2,0,P|350:2|300:2,1,85,2|0,1:2|0:0,0:0:0:0:
287,71,157922,2,0,P|224:76|181:121,2,127.5,2|2|2,1:2|0:0|1:2,0:0:0:0:
352,216,158779,6,0,P|342:153|344:111,1,85,0|0,0:0|0:0,0:0:0:0:
285,282,159101,2,0,P|344:304|379:327,1,85,2|0,0:0|0:0,0:0:0:0:
261,195,159422,2,0,P|211:235|174:254,1,85,0|2,0:0|1:2,0:0:0:0:
191,252,160279,1,2,1:2:0:0:
190,261,160922,1,2,1:2:0:0:
123,93,161136,1,0,0:0:0:0:
19,246,161351,5,2,1:2:0:0:
116,192,161565,2,0,L|193:174,1,42.5,2|2,0:0|0:0,0:0:0:0:
190,261,161779,2,0,P|174:323|173:381,1,85,2|2,0:0|0:0,0:0:0:0:
248,361,162101,1,2,0:0:0:0:
255,356,162208,2,0,L|375:370,1,85,2|2,0:0|0:0,0:0:0:0:
408,333,162529,1,2,0:0:0:0:
416,337,162636,1,4,1:0:0:0:
348,272,162851,1,4,1:0:0:0:
478,275,163065,6,0,B|489:205|489:205|476:184|476:184|487:104,1,170,4|8,1:0|0:0,0:0:0:0:
396,0,163708,2,0,L|407:88,1,85,2|0,0:0|0:0,0:0:0:0:
382,165,164351,1,8,0:0:0:0:
275,41,164565,5,2,3:0:0:0:
266,38,164672,1,2,3:0:0:0:
258,34,164779,2,0,P|233:25|201:23,1,42.5,8|2,0:0|0:0,0:0:0:0:
184,142,165208,2,0,P|204:124|222:98,1,42.5,8|2,0:0|0:0,0:0:0:0:
144,65,165636,2,0,L|75:54,1,63.75,8|0,0:0|0:0,0:0:0:0:
65,63,166065,1,8,0:0:0:0:
22,212,166279,5,2,3:0:0:0:
24,222,166386,1,2,3:0:0:0:
25,232,166494,1,8,0:0:0:0:
42,321,166708,1,2,0:0:0:0:
136,334,166922,1,8,0:0:0:0:
179,252,167136,1,2,0:0:0:0:
106,178,167351,2,0,L|97:107,1,63.75,8|0,0:0|0:0,0:0:0:0:
110,99,167779,1,8,0:0:0:0:
17,92,167994,1,2,0:0:0:0:
202,107,168208,5,8,0:0:0:0:
269,45,168422,2,0,L|264:-4,1,42.5,2|2,0:0|0:0,0:0:0:0:
283,65,168636,2,0,P|346:79|393:53,1,85,8|2,0:0|0:0,0:0:0:0:
432,39,168958,1,2,0:0:0:0:
437,33,169065,2,0,L|444:128,1,85,8|2,0:0|0:0,0:0:0:0:
506,167,169386,1,2,0:0:0:0:
501,173,169494,1,4,1:0:0:0:
356,149,169708,1,4,1:0:0:0:
410,281,169922,5,12,1:2:0:0:
423,200,170136,1,0,0:0:0:0:
273,97,170351,5,8,1:2:0:0:
260,178,170565,1,0,0:0:0:0:
305,343,170779,5,8,1:2:0:0:
318,262,170993,1,0,0:0:0:0:
168,159,171208,5,8,1:2:0:0:
162,201,171315,1,0,0:0:0:0:
155,242,171422,1,2,3:0:0:0:
148,283,171529,1,2,3:0:0:0:
142,325,171636,5,8,1:2:0:0:
52,343,171851,1,0,0:0:0:0:
0,123,172065,5,8,1:2:0:0:
90,105,172280,1,0,0:0:0:0:
208,230,172494,5,8,1:2:0:0:
118,248,172709,1,0,0:0:0:0:
66,28,172923,5,8,1:2:0:0:
156,10,173136,1,0,0:0:0:0:
197,19,173244,1,4,1:3:0:0:
238,28,173350,6,0,L|303:17,1,42.5,4|4,1:3|0:3,0:0:0:0:
353,46,173565,2,0,L|418:35,1,42.5,4|4,1:3|0:3,0:0:0:0:
278,107,173779,2,0,L|237:115,1,42.5,4|4,1:3|1:3,0:0:0:0:
359,128,173993,2,0,L|424:117,1,42.5,4|4,1:3|1:3,0:0:0:0:
296,194,174208,2,0,L|255:202,1,42.5,4|4,1:3|1:3,0:0:0:0:
381,213,174422,2,0,L|446:202,1,42.5,4|4,1:3|1:3,0:0:0:0:
317,283,174636,2,0,P|275:292|242:304,3,42.5,4|4|4|4,1:3|1:3|1:3|1:3,0:0:0:0:
317,283,175922,6,0,L|167:269,1,127.5,2|0,3:0|0:0,0:0:0:0:
135,204,176351,2,0,P|100:285|124:353,1,127.5,4|0,0:0|0:0,0:0:0:0:
218,192,176779,6,0,L|331:177,1,102,4|0,1:0|0:0,0:0:0:0:
336,187,177208,1,2,0:0:0:0:
317,66,177422,1,2,0:0:0:0:
424,119,177636,1,10,0:0:0:0:
430,120,177744,1,0,0:0:0:0:
436,121,177851,1,0,0:0:0:0:
336,187,178065,1,2,0:0:0:0:
317,66,178279,6,0,L|321:12,2,34,0|0|2,1:0|0:0|0:0,0:0:0:0:
289,270,178708,1,0,0:0:0:0:
289,270,178922,2,0,L|294:347,1,68,0|0,1:0|0:0,0:0:0:0:
226,206,179351,1,10,0:0:0:0:
227,199,179458,1,0,0:0:0:0:
228,192,179565,1,0,0:0:0:0:
155,277,179779,5,4,1:2:0:0:
294,114,179994,2,0,L|292:98,2,17
371,318,180208,6,0,P|416:340|471:339,1,102,4|0,1:0|0:0,0:0:0:0:
484,353,180636,1,2,0:0:0:0:
453,125,180851,1,2,0:0:0:0:
383,210,181065,2,0,P|396:231|412:246,2,34,10|0|0,0:0|0:0|0:0,0:0:0:0:
512,197,181494,1,2,0:0:0:0:
407,39,181708,6,0,L|282:27,1,102,2|0,1:0|0:0,0:0:0:0:
296,37,182136,1,2,0:0:0:0:
240,189,182351,2,0,L|248:108,1,68,2|2,1:0|0:1,0:0:0:0:
178,22,182779,2,0,L|171:89,1,68,10|0,0:0|0:0,0:0:0:0:
84,165,183208,2,0,L|90:97,1,68,2|2,0:1|0:1,0:0:0:0:
19,228,183636,6,0,P|81:255|153:218,1,127.500004863739,4|2,1:0|3:0,0:0:0:0:
145,225,183958,1,2,3:0:0:0:
154,214,184065,2,0,L|142:358,1,127.500004863739,8|0,0:0|1:0,0:0:0:0:
222,303,184386,1,2,3:0:0:0:
227,298,184494,2,0,L|222:374,2,63.7500024318696,2|2|2,3:0|3:0|3:0,0:0:0:0:
230,293,184922,6,0,L|387:275,1,127.500004863739,12|4,0:0|3:0,0:0:0:0:
431,266,185244,1,4,3:0:0:0:
437,273,185351,6,0,L|429:352,1,63.7500024318696,4|0,1:0|0:0,0:0:0:0:
446,189,185565,1,2,0:1:0:0:
353,166,185779,1,2,0:1:0:0:
457,175,185994,5,2,1:0:0:0:
380,155,186208,1,2,0:1:0:0:
474,162,186422,5,2,0:1:0:0:
298,107,186636,2,0,B|287:20|287:20|308:53,1,127.500004863739,12|0,0:0|0:0,0:0:0:0:
299,204,187065,6,0,P|228:188|204:111,1,127.500004863739,4|2,1:0|3:0,0:0:0:0:
206,132,187386,1,2,3:0:0:0:
209,120,187494,2,0,P|161:159|52:130,1,127.500004863739,8|0,0:0|1:0,0:0:0:0:
38,109,187815,1,2,3:0:0:0:
30,101,187922,2,0,P|24:51|32:29,2,63.7500024318696,2|2|2,3:0|3:0|3:0,0:0:0:0:
46,116,188351,6,0,L|35:276,1,127.500004863739,12|4,0:0|3:0,0:0:0:0:
32,323,188672,1,4,3:0:0:0:
32,323,188779,1,4,3:0:0:0:
189,242,188994,6,0,P|216:220|256:182,2,63.7500024318696,2|0|2,0:0|0:0|0:0,0:0:0:0:
320,151,189422,2,0,P|325:185|338:239,2,63.7500024318696,2|2|2,3:0|3:0|3:0,0:0:0:0:
335,311,189851,2,0,P|302:298|249:282,2,63.7500024318696,2|2|4,3:0|3:0|0:0,0:0:0:0:
344,324,190172,1,0,0:0:0:0:
349,337,190279,1,2,0:0:0:0:
512,84,190494,6,0,P|457:88|402:107,1,102,4|0,1:0|0:0,0:0:0:0:
403,111,190922,2,0,L|400:17,1,68,2|0,0:0|0:0,0:0:0:0:
479,170,191351,1,10,0:0:0:0:
477,176,191458,1,0,0:0:0:0:
475,182,191565,1,0,0:0:0:0:
452,262,191779,1,2,0:0:0:0:
319,123,191994,6,0,P|290:126|265:132,2,34,0|0|2,1:0|0:0|0:0,0:0:0:0:
362,256,192422,1,0,0:0:0:0:
362,256,192636,2,0,L|367:328,1,68,0|0,1:0|0:0,0:0:0:0:
248,359,193065,1,10,0:0:0:0:
249,352,193172,1,0,0:0:0:0:
250,345,193279,1,0,0:0:0:0:
147,105,193493,5,4,1:2:0:0:
100,361,193708,2,0,L|74:364,2,17,8|0|0,0:0|0:0|0:0,0:0:0:0:
23,320,193922,6,0,L|31:216,1,102,4|0,1:0|0:0,0:0:0:0:
45,211,194351,1,2,0:0:0:0:
138,201,194565,1,2,0:0:0:0:
49,113,194779,5,10,0:0:0:0:
42,115,194886,1,0,0:0:0:0:
35,116,194994,1,0,0:0:0:0:
145,105,195208,1,2,0:0:0:0:
230,308,195422,6,0,P|230:262|245:196,1,102,0|0,1:0|0:0,0:0:0:0:
256,201,195851,6,0,P|249:161|253:137,1,42.5,2|2,3:0|3:0,0:0:0:0:
305,106,196065,2,0,L|294:3,1,85,0|2,1:0|3:0,0:0:0:0:
374,25,196386,1,2,3:0:0:0:
381,31,196494,2,0,P|427:30|475:70,1,85,10|0,0:0|0:0,0:0:0:0:
472,123,196815,1,2,3:2:0:0:
468,128,196922,2,0,L|475:237,1,85,2|0,0:0|0:0,0:0:0:0:
473,212,197351,6,0,P|411:239|339:202,1,127.500004863739,4|2,1:0|3:0,0:0:0:0:
347,209,197673,1,2,3:0:0:0:
338,198,197780,2,0,L|350:342,1,127.500004863739,8|0,0:0|0:0,0:0:0:0:
270,287,198101,1,2,3:0:0:0:
265,282,198209,2,0,L|270:358,2,63.7500024318696,8|2|0,0:0|3:0|0:0,0:0:0:0:
261,277,198636,6,0,P|224:259|181:263,1,63.7500024318696,12|0,0:0|0:0,0:0:0:0:
147,317,198851,2,0,P|110:335|67:331,1,63.7500024318696,4|4,3:0|3:0,0:0:0:0:
28,281,199065,6,0,B|16:228|16:228|17:206|17:206|5:136,1,127.500004863739,4|2,1:0|3:0,0:0:0:0:
14,146,199386,1,2,3:0:0:0:
21,137,199494,1,8,0:0:0:0:
82,40,199708,1,0,1:0:0:0:
89,49,199815,1,2,3:0:0:0:
97,58,199922,1,8,0:0:0:0:
104,68,200029,1,2,3:0:0:0:
112,77,200136,2,0,L|105:221,1,127.500004863739,2|12,3:0|0:0,0:0:0:0:
228,121,200565,1,0,0:0:0:0:
213,204,200780,6,0,P|284:188|308:111,1,127.500004863739,4|2,1:0|3:0,0:0:0:0:
306,132,201101,1,2,3:0:0:0:
303,120,201209,2,0,P|351:159|460:130,1,127.500004863739,8|0,0:0|0:0,0:0:0:0:
474,109,201530,1,2,3:0:0:0:
482,101,201637,2,0,P|488:51|480:29,2,63.7500024318696,8|2|0,0:0|3:0|0:0,0:0:0:0:
466,116,202066,6,0,L|477:276,1,127.500004863739,12|4,0:0|3:0,0:0:0:0:
480,323,202387,1,4,3:0:0:0:
480,323,202494,1,4,1:0:0:0:
365,335,202708,1,2,0:0:0:0:
258,186,202922,1,2,0:0:0:0:
373,174,203136,1,0,1:0:0:0:
255,315,203351,5,10,0:0:0:0:
238,334,203458,2,0,L|98:314,1,127.500004863739,2|0,0:0|0:0,0:0:0:0:
106,218,203779,5,2,0:0:0:0:
91,198,203886,2,0,L|2:213,1,63.7500024318696,2|0,0:0|0:0,0:0:0:0:
0,362,204208,5,6,0:0:0:0:
