osu file format v14

[General]
AudioFilename: audio.mp3
AudioLeadIn: 0
PreviewTime: 75529
Countdown: 0
SampleSet: Soft
StackLeniency: 0.4
Mode: 0
LetterboxInBreaks: 0
WidescreenStoryboard: 1

[Editor]
Bookmarks: 10474,24189,51617,92760
DistanceSpacing: 0.4
BeatDivisor: 6
GridSize: 4
TimelineZoom: 3.899998

[Metadata]
Title:DDU-DU DDU-DU
TitleUnicode:뚜두뚜두
Artist:BLACKPINK
ArtistUnicode:BLACKPINK
Creator:Irreversible
Version:Voli, Max, Nhawak & Irre's Extra
Source:
Tags:CharmCaster Stjpa Marianna Zetera Basti Sala- fanzhen fanzhen0019 -M4x Nhawak Voli Team Rocket Dissie Dimes Sing Daoski Collab Collaboration Lisa Rap Dance Thai Jisoo Jennie Badass Girl Inka Bird Hit You With That Rose Glitter Tank With Popcorn Scene d4
BeatmapID:1677136
BeatmapSetID:798691

[Difficulty]
HPDrainRate:6
CircleSize:4.1
OverallDifficulty:8.3
ApproachRate:9
SliderMultiplier:2.1
SliderTickRate:1

[Events]
//Background and Video events
0,0,"16ab049459.jpg",0,0
Video,-1710,"video.mp4"
//Break Periods
//Storyboard Layer 0 (Background)
//Storyboard Layer 1 (Fail)
//Storyboard Layer 2 (Pass)
//Storyboard Layer 3 (Foreground)
Sprite,Foreground,Centre,"Voli.png",320,240 M,0,8779,,500,400 S,0,8779,,0.22 F,0,8779,9208,0,1 F,0,9208,22065,1 F,0,22065,22493,1,0
Sprite,Foreground,Centre,"Voli.png",320,240 M,0,8779,,500,400 S,0,8779,,0.22 F,0,8779,9208,0,1 P,0,8779,22493,A F,0,9208,22065,1 F,0,22065,22493,1,0
Sprite,Foreground,Centre,"Max.png",320,240 M,0,22493,,500,400 S,0,22493,,0.22 F,0,22493,22922,0,1 F,0,22922,49493,1 F,0,49493,49922,1,0
Sprite,Foreground,Centre,"Max.png",320,240 M,0,22493,,500,400 S,0,22493,,0.22 F,0,22493,22922,0,1 P,0,22493,49922,A F,0,22922,49493,1 F,0,49493,49922,1,0
Sprite,Foreground,Centre,"Irre.png",320,240 M,0,49922,,500,400 S,0,49922,,0.22 F,0,49922,50350,0,1 F,0,50350,135208,1 F,0,135208,135636,1,0
Sprite,Foreground,Centre,"Irre.png",320,240 M,0,49922,,500,400 S,0,49922,,0.22 F,0,49922,50350,0,1 P,0,49922,135636,A F,0,50350,135208,1 F,0,135208,135636,1,0
Sprite,Foreground,Centre,"Voli.png",320,240 M,0,135636,,500,400 S,0,135636,,0.22 F,0,135636,136065,0,1 F,0,136065,148922,1 F,0,148922,149350,1,0
Sprite,Foreground,Centre,"Voli.png",320,240 M,0,135636,,500,400 S,0,135636,,0.22 F,0,135636,136065,0,1 P,0,135636,149350,A F,0,136065,148922,1 F,0,148922,149350,1,0
Sprite,Foreground,Centre,"Nhawak.png",320,240 M,0,149350,,500,400 S,0,149350,,0.18 F,0,149350,149779,0,1 F,0,149779,203779,1 F,0,203779,204208,1,0
Sprite,Foreground,Centre,"Nhawak.png",320,240 M,0,149350,,500,400 S,0,149350,,0.18 F,0,149350,149779,0,1 P,0,149350,204208,A F,0,149779,203779,1 F,0,203779,204208,1,0
//Storyboard Sound Samples

[TimingPoints]
208,428.571428571429,4,2,0,60,1,0
8779,-83.3333333333333,4,2,0,60,0,0
9206,-100,4,2,0,60,0,0
10492,-66.6666666666667,4,2,0,60,0,0
11135,-100,4,2,0,60,0,0
11778,-133.333333333333,4,2,0,60,0,0
12206,-80,4,2,0,60,0,0
12635,-100,4,2,0,60,0,0
13278,-129.87012987013,4,2,0,60,0,0
14992,-28.5714285714286,4,2,0,60,0,0
15206,-133.333333333333,4,2,0,60,0,0
15635,-80,4,2,0,60,0,0
16063,-133.333333333333,4,2,0,60,0,0
16706,-100,4,2,0,60,0,0
17349,-50,4,2,0,60,0,0
17992,-200,4,2,0,60,0,0
18420,-71.4285714285714,4,2,0,60,0,0
18583,-71.4285714285714,4,2,0,5,0,0
18636,-71.4285714285714,4,2,0,60,0,0
18797,-71.4285714285714,4,2,0,5,0,0
18850,-71.4285714285714,4,2,0,60,0,0
19011,-71.4285714285714,4,2,0,5,0,0
19063,-80,4,2,0,60,0,0
22064,-500,4,2,0,40,0,0
22439,-500,4,2,0,5,0,0
22493,-133.333333333333,4,2,0,60,0,0
24207,-1000,4,2,0,60,0,0
24850,-133.333333333333,4,2,0,60,0,0
26993,-1000,4,2,0,60,0,0
27635,-133.333333333333,4,2,0,60,0,0
28493,-66.6666666666667,4,2,0,60,0,0
28921,-133.333333333333,4,2,0,60,0,0
30635,-500,4,2,0,60,0,0
31493,-80,4,2,0,60,0,0
32457,-80,4,2,0,5,0,0
32778,-200,4,2,0,60,0,0
33635,-250,4,2,0,60,0,0
35350,-100,4,2,0,60,0,0
35564,-28.5714285714286,4,2,0,60,0,0
35778,-133.333333333333,4,2,0,60,0,0
36100,-66.6666666666667,4,2,0,5,0,0
36207,-200,4,2,0,60,0,0
36528,-200,4,2,0,5,0,0
36635,-333.333333333333,4,2,0,60,0,0
37850,-333.333333333333,4,2,0,5,0,0
37921,-66.6666666666667,4,2,0,60,0,0
37949,-66.6666666666667,4,2,0,5,0,0
38208,-333.333333333333,4,2,0,60,0,0
39564,-333.333333333333,4,2,0,5,0,0
39635,-66.6666666666667,4,2,0,60,0,0
39663,-66.6666666666667,4,2,0,5,0,0
40064,-333.333333333333,4,2,0,60,0,0
42635,-1000,4,2,0,60,0,0
43493,-333.333333333333,4,2,0,60,0,0
48635,-1000,4,2,0,50,0,0
49493,-1000,4,2,0,70,0,0
49922,-1000,4,2,0,40,0,0
50778,-166.666666666667,4,2,0,40,0,0
51635,-333.333333333334,4,2,0,40,0,0
53350,-166.666666666667,4,2,0,50,0,0
55065,-166.666666666667,4,2,0,60,0,0
57421,-166.666666666667,4,2,0,5,0,0
57635,-166.666666666667,4,2,0,40,0,0
58493,-333.333333333334,4,2,0,40,0,0
60207,-166.666666666667,4,2,0,50,0,0
61922,-166.666666666667,4,2,0,60,0,0
62779,-166.666666666667,4,2,0,30,0,0
62922,-166.666666666667,4,2,0,35,0,0
63065,-166.666666666667,4,2,0,40,0,0
63208,-166.666666666667,4,2,0,45,0,0
63350,-166.666666666667,4,2,0,50,0,0
63493,-166.666666666667,4,2,0,55,0,0
63636,-166.666666666667,4,2,0,60,0,0
64065,-166.666666666667,4,2,0,50,0,0
73332,-166.666666666667,4,2,0,5,0,0
73385,-166.666666666667,4,2,0,50,0,0
75636,-166.666666666667,4,2,0,40,0,0
76493,-166.666666666667,4,2,0,45,0,0
76600,-166.666666666667,4,2,0,40,0,0
76922,-166.666666666667,4,2,0,45,0,0
77029,-166.666666666667,4,2,0,40,0,0
77350,-83.3333333333333,4,2,0,80,0,1
77458,-83.3333333333333,4,2,0,70,0,1
77779,-100,4,2,0,70,0,0
79064,-33.3333333333333,4,2,0,70,0,0
79707,-100,4,2,0,70,0,0
80350,-133.333333333333,4,2,0,70,0,0
80778,-80,4,2,0,70,0,0
81207,-100,4,2,0,70,0,0
81850,-133.333333333333,4,2,0,70,0,0
83350,-133.333333333333,4,2,0,60,0,0
83779,-133.333333333333,4,2,0,50,0,0
84207,-79.9999999999999,4,2,0,80,0,0
84315,-79.9999999999999,4,2,0,70,0,0
84635,-100,4,2,0,70,0,0
85921,-33.3333333333333,4,2,0,70,0,0
86564,-133.333333333333,4,2,0,70,0,0
86993,-71.4285714285714,4,2,0,70,0,0
87153,-71.4285714285714,4,2,0,5,0,0
87207,-71.4285714285714,4,2,0,70,0,0
87368,-71.4285714285714,4,2,0,5,0,0
87421,-71.4285714285714,4,2,0,70,0,0
87582,-71.4285714285714,4,2,0,5,0,0
87635,-80,4,2,0,70,0,0
88064,-100,4,2,0,70,0,0
89136,-100,4,2,0,70,0,0
89243,-100,4,2,0,60,0,0
89350,-100,4,2,0,50,0,0
89565,-100,4,2,0,45,0,0
89779,-100,4,2,0,40,0,0
89993,-100,4,2,0,35,0,0
90208,-100,4,2,0,30,0,0
90636,-1000,4,2,0,10,0,0
91011,-1000,4,2,0,5,0,0
91064,-454.545454545455,4,2,0,20,0,0
91921,-227.272727272727,4,2,0,30,0,0
92778,-113.636363636364,4,2,0,40,0,0
93850,-28.5714285714286,4,2,0,60,0,0
93958,-28.5714285714286,4,2,0,5,0,0
94064,-133.333333333333,4,2,0,60,0,0
94386,-133.333333333333,4,2,0,5,0,0
94493,-81.3008130081301,4,2,0,80,0,1
94600,-81.3008130081301,4,2,0,60,0,1
95885,-131.578947368421,4,2,0,60,0,1
96207,-81.3008130081301,4,2,0,60,0,1
96528,-81.3008130081301,4,2,0,5,0,1
96635,-81.3008130081301,4,2,0,60,0,1
98135,-81.3008130081301,4,2,0,60,0,1
99635,-60.2409638554217,4,2,0,60,0,1
100493,-113.636363636364,4,2,0,60,0,1
100814,-113.636363636364,4,2,0,5,0,1
100921,-30.1204819277108,4,2,0,60,0,1
101135,-227.272727272727,4,2,0,60,0,1
101350,-81.3008130081301,4,2,0,60,0,1
103921,-333.333333333333,4,2,0,60,0,1
104778,-81.3008130081301,4,2,0,60,0,1
106493,-81.3008130081301,4,2,0,60,0,1
106600,-81.3008130081301,4,2,0,60,0,1
106654,-81.3008130081301,4,2,0,5,0,1
106707,-81.3008130081301,4,2,0,60,0,1
106814,-81.3008130081301,4,2,0,60,0,1
106868,-81.3008130081301,4,2,0,5,0,1
106921,-81.3008130081301,4,2,0,60,0,1
107028,-81.3008130081301,4,2,0,60,0,1
107135,-81.3008130081301,4,2,0,60,0,1
107243,-81.3008130081301,4,2,0,60,0,1
107350,-333.333333333333,4,2,0,40,0,0
107778,-333.333333333333,4,2,0,69,0,0
108207,-333.333333333333,4,2,0,40,0,0
109064,-166.666666666667,4,2,0,40,0,0
109921,-333.333333333334,4,2,0,40,0,0
111636,-166.666666666667,4,2,0,50,0,0
113350,-166.666666666667,4,2,0,60,0,0
115707,-166.666666666667,4,2,0,5,0,0
115921,-166.666666666667,4,2,0,40,0,0
116779,-333.333333333334,4,2,0,40,0,0
116885,-333.333333333334,4,2,0,5,0,0
116993,-333.333333333334,4,2,0,40,0,0
118493,-166.666666666667,4,2,0,50,0,0
120208,-166.666666666667,4,2,0,60,0,0
121065,-166.666666666667,4,2,0,30,0,0
121208,-166.666666666667,4,2,0,35,0,0
121350,-166.666666666667,4,2,0,40,0,0
121493,-166.666666666667,4,2,0,45,0,0
121636,-166.666666666667,4,2,0,50,0,0
121779,-166.666666666667,4,2,0,55,0,0
121922,-166.666666666667,4,2,0,60,0,0
122350,-166.666666666667,4,2,0,50,0,0
131618,-166.666666666667,4,2,0,5,0,0
131671,-166.666666666667,4,2,0,50,0,0
132208,-166.666666666667,4,2,0,60,0,0
133922,-166.666666666667,4,2,0,40,0,0
134779,-166.666666666667,4,2,0,45,0,0
134886,-166.666666666667,4,2,0,40,0,0
135208,-166.666666666667,4,2,0,45,0,0
135315,-166.666666666667,4,2,0,40,0,0
135636,-83.3333333333333,4,2,0,80,0,1
135743,-83.3333333333333,4,2,0,70,0,1
136065,-100,4,2,0,70,0,0
137349,-33.3333333333333,4,2,0,70,0,0
137992,-100,4,2,0,70,0,0
138635,-133.333333333333,4,2,0,70,0,0
139063,-80,4,2,0,70,0,0
139492,-100,4,2,0,70,0,0
141636,-100,4,2,0,60,0,0
142065,-100,4,2,0,50,0,0
142492,-79.9999999999999,4,2,0,80,0,0
142600,-79.9999999999999,4,2,0,70,0,0
142920,-100,4,2,0,70,0,0
144206,-33.3333333333333,4,2,0,70,0,0
144849,-133.333333333333,4,2,0,70,0,0
145278,-71.4285714285714,4,2,0,70,0,0
145438,-71.4285714285714,4,2,0,5,0,0
145492,-71.4285714285714,4,2,0,70,0,0
145653,-71.4285714285714,4,2,0,5,0,0
145706,-71.4285714285714,4,2,0,70,0,0
145867,-71.4285714285714,4,2,0,5,0,0
145920,-80,4,2,0,70,0,0
146349,-100,4,2,0,70,0,0
147421,-200,4,2,0,70,0,0
147529,-200,4,2,0,60,0,0
147635,-200,4,2,0,50,0,0
147796,-200,4,2,0,5,0,0
147850,-200,4,2,0,45,0,0
148010,-200,4,2,0,5,0,0
148064,-200,4,2,0,40,0,0
148225,-200,4,2,0,5,0,0
148278,-200,4,2,0,35,0,0
148439,-200,4,2,0,5,0,0
148493,-200,4,2,0,50,0,0
148921,-200,4,2,0,50,0,0
149350,-111.111111111111,4,2,0,60,0,0
151279,-111.111111111111,4,2,0,5,0,0
151386,-111.111111111111,4,2,0,60,0,0
151600,-111.111111111111,4,2,0,5,0,0
151708,-111.111111111111,4,2,0,60,0,0
152136,-111.111111111111,4,2,0,5,0,0
152243,-111.111111111111,4,2,0,60,0,0
152350,-133.333333333333,4,2,0,60,0,0
152458,-133.333333333333,4,2,0,5,0,0
152565,-133.333333333333,4,2,0,60,0,0
152778,-250,4,2,0,60,0,0
154814,-81.3008130081301,4,2,0,5,0,0
154921,-81.3008130081301,4,2,0,60,0,0
156207,-111.111111111111,4,2,0,60,0,0
158136,-111.111111111111,4,2,0,5,0,0
158243,-111.111111111111,4,2,0,60,0,0
158458,-111.111111111111,4,2,0,5,0,0
158565,-111.111111111111,4,2,0,60,0,0
158993,-111.111111111111,4,2,0,5,0,0
159100,-111.111111111111,4,2,0,60,0,0
159315,-111.111111111111,4,2,0,5,0,0
159422,-111.111111111111,4,2,0,60,0,0
159635,-249.999999999999,4,2,0,60,0,0
161564,-100,4,2,0,60,0,0
163064,-95.2380952380952,4,2,0,60,0,0
163921,-500,4,2,0,60,0,0
164564,-100,4,2,0,60,0,0
164779,-81.3008130081301,4,2,0,60,0,0
164886,-81.3008130081301,4,2,0,60,0,0
164993,-81.3008130081301,4,2,0,60,0,0
165100,-81.3008130081301,4,2,0,60,0,0
165207,-81.3008130081301,4,2,0,60,0,0
165314,-81.3008130081301,4,2,0,60,0,0
165421,-81.3008130081301,4,2,0,60,0,0
165529,-81.3008130081301,4,2,0,60,0,0
165636,-333.333333333333,4,2,0,60,0,0
166064,-333.333333333333,4,2,0,60,0,0
166493,-333.333333333333,4,2,0,60,0,0
168421,-100,4,2,0,60,0,0
169493,-83.3333333333333,4,2,0,60,0,0
169921,-100,4,2,0,60,0,0
175064,-1000,4,2,0,30,0,0
175922,-1000,4,2,0,60,0,0
176135,-27.027027027027,4,2,0,60,0,0
176243,-27.027027027027,4,2,0,5,0,0
176350,-200,4,2,0,60,0,0
176672,-200,4,2,0,5,0,0
176779,-58.8235294117647,4,2,0,80,0,1
176886,-58.8235294117647,4,2,0,75,0,1
177100,-58.8235294117647,4,2,0,5,0,1
177207,-66.6666666666667,4,2,0,75,0,1
177314,-66.6666666666667,4,2,0,5,0,1
177421,-66.6666666666667,4,2,0,75,0,1
177528,-66.6666666666667,4,2,0,5,0,1
177635,-58.8235294117647,4,2,0,75,0,1
177957,-58.8235294117647,4,2,0,5,0,1
178064,-33.3333333333333,4,2,0,75,0,1
178278,-58.8235294117647,4,2,0,75,0,1
178600,-58.8235294117647,4,2,0,5,0,1
178707,-58.8235294117647,4,2,0,75,0,1
178921,-66.6666666666667,4,2,0,75,0,1
179028,-66.6666666666667,4,2,0,5,0,1
179135,-66.6666666666667,4,2,0,75,0,1
179243,-66.6666666666667,4,2,0,5,0,1
179350,-58.8235294117647,4,2,0,75,0,1
179671,-58.8235294117647,4,2,0,5,0,1
179778,-200,4,2,0,75,0,1
180100,-200,4,2,0,5,0,1
180207,-58.8235294117647,4,2,0,75,0,1
180528,-58.8235294117647,4,2,0,5,0,1
180635,-66.6666666666667,4,2,0,75,0,1
180743,-66.6666666666667,4,2,0,5,0,1
180850,-66.6666666666667,4,2,0,75,0,1
180957,-66.6666666666667,4,2,0,5,0,1
181064,-58.8235294117647,4,2,0,75,0,1
181385,-58.8235294117647,4,2,0,5,0,1
181493,-33.3333333333333,4,2,0,75,0,1
181707,-43.4782608695652,4,2,0,75,0,1
181921,-66.6666666666667,4,2,0,75,0,1
182028,-66.6666666666667,4,2,0,5,0,1
182135,-66.6666666666667,4,2,0,75,0,1
182243,-66.6666666666667,4,2,0,5,0,1
182350,-66.6666666666667,4,2,0,75,0,1
182457,-66.6666666666667,4,2,0,5,0,1
182564,-66.6666666666667,4,2,0,75,0,1
182671,-66.6666666666667,4,2,0,5,0,1
182778,-58.8235294117647,4,2,0,75,0,1
183635,-66.6666666666667,4,2,0,75,0,1
184600,-66.6666666666667,4,2,0,5,0,1
184707,-285.714285714286,4,2,0,75,0,1
184814,-285.714285714286,4,2,0,5,0,1
184921,-43.4782608695652,4,2,0,75,0,1
185350,-66.6666666666667,4,2,0,75,0,1
185778,-125,4,2,0,75,0,1
186207,-100,4,2,0,75,0,1
186635,-50,4,2,0,75,0,1
186743,-50,4,2,0,5,0,1
186850,-58.8235294117647,4,2,0,75,0,1
187064,-66.6666666666667,4,2,0,75,0,1
188028,-66.6666666666667,4,2,0,5,0,1
188135,-285.714285714286,4,2,0,75,0,1
188243,-285.714285714286,4,2,0,5,0,1
188350,-43.4782608695652,4,2,0,75,0,1
188778,-66.6666666666667,4,2,0,75,0,1
189314,-66.6666666666667,4,2,0,5,0,1
189421,-55.5555555555556,4,2,0,75,0,1
189689,-55.5555555555556,4,2,0,5,0,1
189850,-55.5555555555556,4,2,0,60,0,1
190065,-55.5555555555556,4,2,0,60,0,1
190118,-55.5555555555556,4,2,0,5,0,1
190278,-55.5555555555556,4,2,0,45,0,1
190493,-83.3333333333333,4,2,0,80,0,1
190600,-83.3333333333333,4,2,0,75,0,1
191350,-500,4,2,0,75,0,1
191993,-66.6666666666667,4,2,0,75,0,1
192100,-66.6666666666667,4,2,0,5,0,1
192207,-66.6666666666667,4,2,0,75,0,1
192314,-66.6666666666667,4,2,0,5,0,1
192421,-66.6666666666667,4,2,0,75,0,1
192528,-66.6666666666667,4,2,0,5,0,1
192635,-66.6666666666667,4,2,0,75,0,1
192743,-66.6666666666667,4,2,0,5,0,1
192850,-66.6666666666667,4,2,0,75,0,1
193064,-58.8235294117647,4,2,0,75,0,1
193385,-58.8235294117647,4,2,0,5,0,1
193493,-200,4,2,0,75,0,1
193814,-200,4,2,0,5,0,1
193921,-58.8235294117647,4,2,0,75,0,1
194243,-58.8235294117647,4,2,0,5,0,1
194350,-66.6666666666667,4,2,0,75,0,1
194457,-66.6666666666667,4,2,0,5,0,1
194564,-66.6666666666667,4,2,0,75,0,1
194671,-66.6666666666667,4,2,0,5,0,1
194778,-58.8235294117647,4,2,0,75,0,1
195100,-58.8235294117647,4,2,0,5,0,1
195207,-58.8235294117647,4,2,0,75,0,1
195743,-58.8235294117647,4,2,0,5,0,1
195850,-66.6666666666667,4,2,0,75,0,1
197885,-66.6666666666667,4,2,0,5,0,1
197993,-333.333333333333,4,2,0,75,0,1
198314,-333.333333333333,4,2,0,5,0,1
198421,-285.714285714286,4,2,0,75,0,1
198528,-285.714285714286,4,2,0,5,0,1
198635,-43.4782608695652,4,2,0,75,0,1
199064,-66.6666666666667,4,2,0,75,0,1
200135,-285.714285714286,4,2,0,75,0,1
200243,-285.714285714286,4,2,0,5,0,1
200350,-43.4782608695652,4,2,0,75,0,1
200457,-43.4782608695652,4,2,0,5,0,1
200564,-66.6666666666667,4,2,0,75,0,1
201743,-66.6666666666667,4,2,0,5,0,1
201850,-285.714285714286,4,2,0,75,0,1
201957,-285.714285714286,4,2,0,5,0,1
202064,-43.4782608695652,4,2,0,75,0,1
202493,-83.3333333333333,4,2,0,75,0,1
202600,-83.3333333333333,4,2,0,5,0,1
202707,-74.0740740740741,4,2,0,75,0,1
202814,-74.0740740740741,4,2,0,5,0,1
202921,-66.6666666666667,4,2,0,75,0,1
203028,-66.6666666666667,4,2,0,5,0,1
203135,-60.6060606060606,4,2,0,75,0,1
203243,-60.6060606060606,4,2,0,5,0,1
203350,-100,4,2,0,60,0,1
203779,-100,4,2,0,50,0,1
204208,-333.333333333333,4,2,0,40,0,0
204635,-333.333333333333,4,2,0,5,0,0

[Colours]
Combo1 : 255,117,145
Combo2 : 184,236,241
Combo3 : 143,165,252
Combo4 : 255,140,243

[HitObjects]
100,320,8779,6,0,B|116:186|116:186|96:122,1,188.999994232178,4|0,1:0|3:0,0:0:0:0:
99,135,9208,2,0,B|127:120|127:120|208:114,1,105,2|2,0:3|0:3,0:0:0:0:
312,307,9636,1,8,0:0:0:0:
412,285,9850,2,0,B|383:301|383:301|302:307,1,105,4|0,3:0|3:0,0:0:0:0:
98,317,10279,5,0,3:0:0:0:
98,317,10386,1,0,3:0:0:0:
98,317,10493,2,0,L|107:238,4,78.7500030040742,0|0|0|0|4,3:0|3:0|3:0|3:0|3:0,0:0:0:0:
96,68,11136,6,0,B|124:88|124:88|193:78,1,105,2|8,0:3|0:0,0:0:0:0:
358,57,11565,5,2,3:1:0:0:
366,135,11779,2,0,L|357:56,1,78.7500030040742,4|2,1:2|3:1,0:0:0:0:
465,129,12208,6,2,L|445:329,1,196.875,6|0,1:0|3:0,0:0:0:0:
340,332,12636,2,0,L|445:325,1,105,2|2,0:0|0:0,0:0:0:0:
233,195,13065,1,8,0:0:0:0:
60,256,13279,2,0,L|141:260,1,80.849998396225,4|0,3:0|3:0,0:0:0:0:
66,60,13708,1,0,3:0:0:0:
66,60,13815,1,0,3:0:0:0:
66,60,13922,5,2,0:0:0:0:
152,36,14136,1,4,3:0:0:0:
233,195,14350,5,2,0:0:0:0:
147,171,14565,1,2,0:3:0:0:
300,68,14779,5,8,0:0:0:0:
388,104,14993,6,0,P|367:27|299:67,1,183.750001752377,4|0,1:2|0:0,0:0:0:0:
233,195,15208,2,0,L|241:255,1,39.3750015020371,4|0,0:0|0:0,0:0:0:0:
300,316,15422,2,0,L|302:296,2,19.6875007510186,0|0|0,3:0|3:0|3:0,3:3:0:0:
392,284,15636,6,0,P|330:213|238:234,1,196.875,4|0,1:0|3:0,0:0:0:0:
238,234,16065,2,0,L|140:224,1,78.75,2|2,0:3|0:3,0:0:0:0:
152,44,16493,1,8,0:0:0:0:
47,54,16708,2,0,L|152:43,1,105,4|0,3:0|0:0,0:0:0:0:
301,296,17136,5,0,3:0:0:0:
301,296,17243,1,0,3:0:0:0:
301,296,17350,2,0,P|289:346|235:382,4,105,0|0|0|0|4,3:0|3:0|3:0|3:0|3:0,0:0:0:0:
164,248,17993,6,0,L|106:257,1,52.5,2|8,0:3|0:0,0:0:0:0:
397,291,18422,6,0,P|398:237|435:191,1,110.249996635437,2|0,3:1|3:0,3:3:0:0:
502,119,18636,2,0,P|479:168|426:195,1,110.249996635437,4|0,1:2|0:0,0:0:0:0:
358,267,18850,2,0,P|382:219|435:193,1,110.249996635437,2|0,3:1|0:0,0:0:0:0:
512,157,19065,6,2,P|442:197|373:134,1,196.875,6|0,1:0|3:0,0:0:0:0:
448,119,19493,1,2,0:3:0:0:
256,296,19708,1,2,0:3:0:0:
64,119,19922,1,8,0:0:0:0:
64,119,20565,5,0,3:0:0:0:
128,75,20672,1,0,3:0:0:0:
135,153,20779,1,2,0:0:0:0:
64,119,20993,5,4,3:0:0:0:
128,75,21208,1,2,0:0:0:0:
135,153,21422,1,2,0:3:0:0:
112,115,21636,5,8,0:0:0:0:
232,336,22065,6,2,L|268:344,1,36.75,2|0,0:1|0:0,0:0:0:0:
354,363,22493,1,4,3:1:0:0:
354,363,22922,1,0,3:0:0:0:
364,365,23136,1,0,0:0:0:0:
454,270,23350,5,8,0:0:0:0:
381,290,23565,1,0,0:0:0:0:
268,344,23779,5,0,3:0:0:0:
278,346,23993,1,0,3:0:0:0:
364,365,24208,6,0,L|352:362,2,10.5,0|0|4,3:0|3:0|3:0,0:0:0:0:
278,38,24850,2,0,L|187:62,2,78.7500030040742,0|8|0,3:0|0:0|3:0,3:3:0:0:
340,115,25493,6,2,B|352:96|347:72|347:72|337:88|323:98,1,78.7500030040742,2|0,0:1|1:0,0:0:0:0:
278,38,25922,5,4,3:0:0:0:
201,58,26136,1,0,0:0:0:0:
124,78,26350,1,0,0:0:0:0:
122,68,26565,1,0,0:0:0:0:
278,38,26779,5,8,0:0:0:0:
443,140,26993,2,0,L|431:142,2,10.5,0|0|0,0:0|3:0|3:0,3:3:0:0:
355,162,27636,5,0,3:0:0:0:
432,142,27850,1,4,3:0:0:0:
201,202,28065,5,0,3:0:0:0:
355,162,28279,1,0,3:0:0:0:
156,281,28493,6,0,B|181:315|181:315|207:170,1,157.500006008148,8|0,0:0|1:0,0:0:0:0:
156,103,28922,6,0,P|147:91|154:106,2,39.3750015020371,0|0|0,3:0|0:0|3:0,3:3:0:0:
156,281,29350,5,4,3:0:0:0:
310,321,29565,1,0,0:0:0:0:
156,281,29779,1,0,0:0:0:0:
79,261,29993,1,0,0:0:0:0:
156,281,30208,1,8,0:0:0:0:
166,283,30422,1,0,0:0:0:0:
309,320,30636,5,0,1:0:0:0:
222,342,30850,1,0,3:0:0:0:
309,320,31065,1,4,0:1:0:0:
222,342,31279,1,2,0:0:0:0:
309,64,31493,6,0,P|376:66|430:102,3,131.25,4|2|0|0,3:0|0:0|1:0|3:0,3:3:0:0:
444,297,32350,2,0,P|422:310|440:288,1,65.625,2|0,0:1|0:0,0:0:0:0:
428,284,32779,6,0,P|406:272|374:268,1,52.5,4|0,3:1|0:0,0:0:0:0:
292,314,33208,2,0,P|270:302|238:298,1,52.5,0|0,1:0|3:0,0:0:0:0:
156,344,33636,6,0,B|136:326|105:328|105:328|121:334|132:346,1,84,4|0,3:2|1:0,0:0:0:0:
129,343,34279,1,0,3:0:0:0:
243,297,34493,5,0,3:0:0:0:
253,299,34708,1,4,3:0:0:0:
343,204,34922,5,2,0:0:0:0:
270,224,35136,1,0,3:0:0:0:
383,343,35350,1,0,1:0:0:0:
106,196,35565,6,0,B|180:249|180:249|269:224,1,183.750001752377,4|0,0:0|0:0,0:0:0:0:
435,46,35779,2,0,B|357:68|357:68|384:40,1,118.125004506111,0|0,1:0|3:0,0:0:0:0:
382,41,36208,6,0,L|374:122,1,78.75,4|0,0:1|0:0,0:0:0:0:
343,204,36636,6,0,L|345:224,2,20.9999993591309,0|0|0,1:0|3:0|3:0,0:0:0:0:
128,322,37065,2,0,L|130:343,2,20.9999993591309,0|0|0,1:0|3:0|3:0,0:0:0:0:
290,348,37493,6,0,L|284:295,1,52.4999983978272,0|0,0:0|0:0,0:0:0:0:
284,295,37922,2,0,L|288:262,1,19.6875007510186,2|0,0:0|0:0,0:0:0:0:
228,89,38208,5,2,0:0:0:0:
228,89,38350,2,0,L|205:85,2,20.9999993591309,0|0|0,1:0|3:0|3:0,0:0:0:0:
396,287,38779,2,0,L|418:290,2,20.9999993591309,0|0|0,1:0|3:0|3:0,0:0:0:0:
136,75,39208,6,0,P|150:39|165:26,1,52.4999983978272,4|0,0:0|0:0,0:0:0:0:
207,85,39636,2,0,L|233:89,1,19.6875007510186,6|0,0:1|0:0,0:0:0:0:
451,169,40065,6,0,L|447:191,2,20.9999993591309,0|0|0,1:0|3:0|3:0,0:0:0:0:
166,207,40493,2,0,L|162:230,2,20.9999993591309,0|0|0,1:0|3:0|3:0,0:0:0:0:
451,169,40922,5,0,3:0:0:0:
308,188,41136,1,0,3:0:0:0:
166,207,41350,1,0,3:0:0:0:
162,227,41565,1,4,3:0:0:0:
451,169,41779,6,0,L|447:191,2,20.9999993591309,0|0|0,1:0|3:0|3:0,0:0:0:0:
166,207,42208,2,0,L|162:230,2,20.9999993591309,0|0|0,1:0|3:0|3:0,0:0:0:0:
451,169,42636,6,0,L|447:189,1,21,4|4,0:0|0:1,0:0:0:0:
162,227,43279,1,2,0:3:0:0:
415,94,43493,6,0,L|356:101,2,47.2499985580445,0|2|0,1:0|0:0|0:0,0:0:0:0:
158,33,44350,2,0,L|164:79,2,47.2499985580445,4|0|2,0:0|0:0|0:3,0:0:0:0:
97,290,45208,2,0,L|143:283,2,47.2499985580445,4|2|0,3:0|0:0|0:0,0:0:0:0:
354,351,46065,5,4,0:0:0:0:
97,290,46386,2,0,L|145:283,1,47.2499985580445,2|0,0:0|3:0,0:0:0:0:
354,351,46922,5,2,0:0:0:0:
143,283,47243,2,0,L|97:290,1,47.2499985580445,2|0,0:0|0:0,0:0:0:0:
354,351,47779,5,2,0:0:0:0:
97,290,48100,2,0,L|143:283,1,47.2499985580445,2|0,0:0|0:0,0:0:0:0:
354,351,48636,6,0,L|352:366,2,15.75,2|2|0,0:0|0:0|0:0,0:0:0:0:
407,18,49493,1,2,0:0:0:0:
407,18,49922,1,4,0:1:0:0:
407,17,50779,6,0,P|377:28|346:32,1,62.9999980773926,2|0,0:0|0:0,0:0:0:0:
256,80,51208,2,0,P|226:69|195:65,1,62.9999980773926,2|2,0:0|0:0,0:0:0:0:
72,192,51636,6,0,L|68:160,3,31.4999990386963,4|0|0|0,0:0|0:0|0:0|0:0,0:0:0:0:
144,260,52493,2,0,L|140:291,3,31.4999990386963,0|0|0|0,0:0|0:0|3:0|3:0,3:3:0:0:
256,92,53350,6,0,L|365:83,1,104.999996795654,2|2,0:0|0:0,0:0:0:0:
373,291,53993,2,0,B|356:252|356:252|377:172,1,125.999996154785,2|0,0:0|0:0,0:0:0:0:
377,171,54636,2,0,L|467:165,1,62.9999980773926,2|2,0:0|0:0,0:0:0:0:
296,303,55065,6,0,P|249:311|206:293,2,94.499997116089,4|0|2,0:0|0:0|0:0,0:0:0:0:
162,156,55922,2,0,P|115:148|72:166,2,94.499997116089,4|0|0,0:0|0:0|3:0,3:3:0:0:
280,64,56779,6,0,B|334:78|334:78|402:41|402:41|456:58,1,188.999994232178,4|0,0:0|0:0,0:0:0:0:
356,238,57636,5,2,0:0:0:0:
423,156,57850,1,0,0:0:0:0:
423,227,58065,1,2,0:0:0:0:
356,145,58279,1,2,0:0:0:0:
256,340,58493,6,0,L|224:343,3,31.4999990386963,2|0|0|0,0:3|0:0|0:0|0:0,0:0:0:0:
152,264,59350,2,0,L|121:260,3,31.4999990386963,0|0|0|0,0:0|0:0|3:0|3:0,3:3:0:0:
65,133,60208,6,0,P|63:78|98:36,1,110.249996635437,2|2,0:0|0:0,0:0:0:0:
452,238,60850,2,0,P|454:299|416:347,1,125.999996154785,2|2,0:0|0:0,0:0:0:0:
416,347,61493,2,0,L|345:343,1,62.9999980773926,2|0,0:0|0:0,0:0:0:0:
256,295,61922,6,0,P|205:292|135:324,1,125.999996154785,4|2,0:0|0:0,0:0:0:0:
62,252,62565,1,0,0:0:0:0:
136,128,62779,6,0,L|150:143,5,20.9999993591309,0|0|0|0|0|0,3:0|3:0|3:0|3:0|3:0|3:0,3:3:0:0:
228,104,63208,2,0,L|250:102,5,20.9999993591309,0|0|0|0|0|0,3:0|3:0|3:0|3:0|3:0|3:0,3:3:0:0:
236,16,63636,5,8,0:0:0:0:
56,192,64065,1,0,3:0:0:0:
60,208,64172,1,0,3:0:0:0:
64,224,64279,1,0,3:0:0:0:
56,192,64493,5,4,3:0:0:0:
284,336,64922,1,0,0:0:0:0:
284,336,65136,1,2,0:3:0:0:
284,336,65350,6,0,L|183:339,2,94.499997116089,4|2|2,3:0|0:0|0:3,0:0:0:0:
228,48,66208,2,0,L|328:44,2,94.499997116089,4|2|0,3:0|0:0|3:0,0:0:0:0:
138,89,66958,1,0,3:0:0:0:
138,89,67065,6,0,L|141:189,2,94.499997116089,4|2|2,3:0|0:0|0:0,0:0:0:0:
374,295,67922,2,0,L|370:194,2,94.499997116089,4|2|0,3:0|0:0|3:0,0:0:0:0:
322,137,68779,6,0,P|353:122|386:122,1,62.9999980773926,4|2,3:0|0:0,0:0:0:0:
371,200,69208,2,0,P|339:214|306:214,1,62.9999980773926,0|2,1:0|0:0,0:0:0:0:
191,119,69636,2,0,P|158:107|134:83,1,62.9999980773926,4|0,3:0|3:0,0:0:0:0:
64,252,70065,6,0,P|55:255|46:256,2,15.7499995193482,0|0|0,3:0|3:0|3:0,3:3:0:0:
63,132,70279,2,0,P|55:128|46:127,2,15.7499995193482,0|0|0,3:0|3:0|3:0,3:3:0:0:
179,195,70493,5,8,0:0:0:0:
191,119,70708,1,0,0:0:0:0:
203,43,70922,1,0,1:0:0:0:
203,43,71029,1,0,0:0:0:0:
203,43,71136,1,8,3:0:0:0:
449,132,71350,5,4,3:0:0:0:
461,208,71565,1,0,3:0:0:0:
473,284,71779,1,0,3:0:0:0:
472,290,71886,1,0,3:0:0:0:
470,296,71993,1,0,3:0:0:0:
469,302,72100,1,0,3:0:0:0:
467,308,72208,5,4,3:0:0:0:
196,200,72422,1,0,0:0:0:0:
184,276,72636,1,0,1:0:0:0:
467,76,72850,1,2,0:3:0:0:
254,253,73065,6,0,P|229:273|180:274,1,78.7499975967408,4|0,0:0|0:0,0:0:0:0:
184,276,73386,2,0,P|211:313|209:359,1,94.499997116089,2|4,0:0|3:0,3:3:0:0:
52,336,73922,5,0,1:0:0:0:
54,327,74029,1,0,0:0:0:0:
55,318,74136,1,0,1:0:0:0:
57,308,74243,1,0,0:0:0:0:
58,299,74350,1,0,1:0:0:0:
59,290,74458,1,0,0:0:0:0:
61,280,74565,1,0,1:0:0:0:
62,271,74672,1,0,0:0:0:0:
63,262,74779,6,0,L|55:230,1,31.4999990386963,0|0,1:0|1:0,0:0:0:0:
200,192,74993,2,0,L|192:160,1,31.4999990386963,0|0,1:0|1:0,0:0:0:0:
92,40,75208,6,0,L|88:60,2,15.7499995193482,0|0|0,3:0|3:0|3:0,3:3:0:0:
320,96,75422,2,0,L|316:112,2,15.7499995193482,0|0|0,3:0|3:0|3:0,0:0:0:0:
446,60,75636,5,2,0:0:0:0:
446,60,75850,1,0,0:0:0:0:
446,60,76065,1,0,0:0:0:0:
446,60,76279,1,0,0:0:0:0:
446,60,76493,6,0,L|455:98,1,20.9999993591309,2|0,0:0|0:0,0:0:0:0:
87,165,76922,2,0,L|78:203,1,20.9999993591309,2|0,0:0|0:0,0:0:0:0:
446,324,77350,6,0,B|408:352|408:352|264:332,1,188.999994232178,4|0,1:0|3:0,0:0:0:0:
267,332,77779,2,0,P|293:287|284:235,1,105,2|2,0:3|0:3,0:0:0:0:
66,324,78208,1,8,0:0:0:0:
83,228,78422,2,0,P|57:273|66:325,1,105,4|0,3:0|3:0,0:0:0:0:
66,60,78850,5,0,3:0:0:0:
66,60,78958,1,0,3:0:0:0:
66,60,79065,2,2,L|232:48,4,157.500006008148,2|2|2|2|6,3:2|3:2|3:2|3:2|3:2,0:2:0:0:
271,239,79708,6,0,L|384:247,1,105,2|12,3:3|0:0,0:0:0:0:
445,59,80136,5,2,3:1:0:0:
432,131,80350,2,0,P|451:97|445:59,1,78.7500030040742,2|2,1:2|3:1,0:0:0:0:
47,129,80779,6,2,L|67:329,1,196.875,6|0,1:0|3:0,0:0:0:0:
172,332,81208,2,0,L|67:325,1,105,2|2,0:3|0:3,0:0:0:0:
316,192,81636,1,8,0:0:0:0:
452,256,81850,2,0,L|371:260,1,78.7500030040742,0|0,3:0|3:0,0:0:0:0:
446,60,82279,1,0,3:0:0:0:
446,60,82386,1,0,3:0:0:0:
446,60,82493,5,0,1:0:0:0:
256,108,82708,1,4,3:0:0:0:
66,60,82922,1,0,3:0:0:0:
256,108,83136,1,0,3:0:0:0:
128,320,83350,6,0,L|161:309,1,26.2500010013581,2|0,0:0|0:0,0:0:0:0:
384,320,83779,2,0,L|351:309,1,26.2500010013581,2|0,0:0|0:0,0:0:0:0:
216,272,83993,6,0,L|221:243,2,19.6875007510186,2|0|0,0:0|0:0|0:0,0:0:0:0:
127,319,84208,6,0,B|82:289|82:289|62:133,1,196.875,4|0,1:0|0:0,0:0:0:0:
63,147,84636,2,0,L|177:134,1,105,2|2,0:3|0:3,0:0:0:0:
444,60,85065,1,8,0:0:0:0:
339,49,85279,2,0,L|443:60,1,105,4|0,3:0|3:0,0:0:0:0:
332,196,85708,5,0,3:0:0:0:
332,196,85815,1,0,3:0:0:0:
332,196,85922,2,2,B|341:252|341:252|324:288|324:288|334:348,4,157.500006008148,2|2|2|2|6,3:2|3:2|3:2|3:2|3:2,0:2:0:0:
187,344,86565,6,0,L|103:348,1,78.7500030040742,2|12,0:3|0:0,0:0:0:0:
267,136,86993,6,0,P|310:107|369:118,1,110.249996635437,2|0,3:1|3:0,3:3:0:0:
328,192,87208,2,0,P|284:220|225:209,1,110.249996635437,4|0,1:3|0:0,0:0:0:0:
267,136,87422,2,0,P|310:107|369:118,1,110.249996635437,2|0,3:1|0:0,0:0:0:0:
327,192,87636,6,2,P|239:218|182:145,1,196.875,6|0,1:0|3:0,0:0:0:0:
182,145,88065,2,0,B|144:136|144:136|71:151,1,105,2|2,0:3|0:3,0:0:0:0:
64,328,88493,1,8,0:0:0:0:
64,328,89136,5,0,0:0:0:0:
56,316,89243,1,0,0:0:0:0:
59,302,89350,5,2,0:0:0:0:
132,272,89565,5,2,0:3:0:0:
204,312,89779,5,2,0:0:0:0:
284,316,89993,5,0,3:0:0:0:
344,264,90208,5,0,0:0:0:0:
415,259,90636,6,0,L|433:262,1,18.375,0|0,0:0|0:0,0:0:0:0:
433,262,91065,6,0,L|437:240,3,23.1000007049561,4|0|0|0,0:1|0:0|0:0|0:0,0:0:0:0:
256,192,91922,6,0,L|246:142,3,46.2000014099121,4|0|0|0,0:1|0:0|0:0|0:0,0:0:0:0:
75,145,92779,6,0,L|95:41,3,92.4000028198243,4|0|0|0,0:1|0:0|0:0|0:0,0:0:0:0:
421,311,93850,6,0,P|344:359|254:352,1,183.750001752377,4|0,1:2|0:0,0:0:0:0:
34,310,94065,2,0,B|39:266|82:255|82:255|63:270|59:286,1,118.125004506111,4|0,0:0|0:0,0:0:0:0:
58,286,94493,6,0,L|52:157,1,129.150001970673,4|0,1:0|0:0,0:0:0:0:
224,84,94922,6,0,L|229:19,1,64.5750009853363,0|0,3:0|3:0,0:0:0:0:
307,121,95136,2,0,L|312:56,1,64.5750009853363,0|0,3:0|3:0,0:0:0:0:
392,159,95350,5,0,1:0:0:0:
392,159,95458,1,2,0:0:0:0:
392,160,95565,2,0,L|397:95,1,64.5750009853363,4|2,1:3|0:0,0:0:0:0:
477,199,95779,1,4,1:3:0:0:
372,308,95886,6,0,B|326:303|326:303|301:320|301:320|258:316,1,119.699998538818,4|0,0:0|3:0,0:0:0:0:
248,308,96315,1,0,0:0:0:0:
239,299,96422,6,0,L|244:364,1,64.5750009853363,0|0,1:0|0:0,0:0:0:0:
124,104,96636,1,0,3:0:0:0:
105,86,96850,1,0,1:0:0:0:
80,77,97065,1,8,3:2:0:0:
54,80,97279,1,0,3:0:0:0:
256,152,97493,5,0,1:0:0:0:
256,152,97600,2,0,L|252:193,4,32.2875004926682,4|0|0|0|0,0:0|0:0|0:0|0:0|3:0,0:0:0:0:
56,300,97922,1,4,1:0:0:0:
56,300,98136,6,0,B|52:332|52:332|72:368,1,64.5750009853363,0|0,3:0|0:0,0:0:0:0:
67,359,98350,2,0,P|133:336|194:371,1,129.150001970673,0|0,3:0|3:0,0:0:0:0:
336,280,98672,5,2,0:0:0:0:
336,280,98779,2,0,L|413:287,1,64.5750009853363,0|0,1:0|3:0,0:0:0:0:
400,116,98993,2,0,L|335:110,1,64.5750009853363,0|0,3:0|3:0,0:0:0:0:
348,288,99208,6,0,L|425:295,1,64.5750009853363,4|0,3:0|3:0,3:3:0:0:
392,108,99422,2,0,L|327:102,1,64.5750009853363,0|0,3:0|3:0,0:0:0:0:
203,255,99636,6,0,P|132:302|48:289,3,174.300002526627,4|0|4|0,3:2|1:0|3:2|1:0,0:0:0:0:
189,173,100493,6,0,B|226:166|257:189|257:189|235:156|202:156,1,138.600004229736,8|0,0:0|0:0,0:0:0:0:
203,255,100922,2,0,P|240:331|319:362,1,174.300002526627,4|0,1:0|0:0,0:0:0:0:
463,94,101136,6,0,L|451:82|448:79|444:75|440:71|432:63|429:60|425:56|421:52|418:49|414:45|402:33|394:25|391:22|387:18|383:14|380:11|377:21,3,11.550000352478,2|0|0|0,1:0|0:0|3:0|0:0,0:0:0:0:
463,94,101350,6,0,B|485:131|485:131|465:216,1,129.150001970673,4|0,1:0|3:0,0:0:0:0:
203,255,101779,5,0,3:0:0:0:
190,225,101886,1,0,3:0:0:0:
186,192,101993,1,0,3:0:0:0:
192,160,102100,1,0,3:0:0:0:
203,129,102208,2,0,L|284:124,1,64.5750009853363,0|0,1:0|3:0,0:0:0:0:
49,94,102422,1,4,3:0:0:0:
48,94,102636,6,0,P|36:123|41:154,1,64.5750009853363,4|0,3:0|3:0,0:0:0:0:
161,62,102850,2,0,P|173:32|168:1,1,64.5750009853363,0|0,3:0|3:0,0:0:0:0:
48,94,103065,5,0,1:0:0:0:
463,289,103279,1,4,3:0:0:0:
463,289,103493,6,0,P|475:260|470:229,1,64.5750009853363,0|0,3:0|3:0,0:0:0:0:
351,322,103708,2,0,P|339:352|344:383,1,64.5750009853363,0|0,3:0|3:0,0:0:0:0:
112,264,103922,6,0,B|92:256|92:256|50:259,1,62.9999980773926,2|2,1:0|1:0,0:0:0:0:
50,258,104779,6,0,B|28:221|28:221|48:136,1,129.150001970673,4|0,1:0|3:0,0:0:0:0:
216,40,105208,6,0,P|251:39|287:63,1,64.5750009853363,0|0,1:0|3:0,0:0:0:0:
295,135,105422,2,0,P|260:136|224:112,1,64.5750009853363,0|0,3:0|3:0,0:0:0:0:
465,137,105636,5,8,0:0:0:0:
470,144,105743,1,0,3:0:0:0:
475,151,105850,2,0,L|471:231,1,64.5750009853363,0|0,3:0|3:0,0:0:0:0:
385,307,106065,5,4,3:0:0:0:
350,334,106172,1,0,3:0:0:0:
307,343,106279,1,0,3:0:0:0:
263,335,106386,1,0,3:0:0:0:
227,308,106493,6,0,L|237:182,1,96.8625014780045,4|0,1:2|0:0,0:0:0:0:
241,219,106708,2,0,L|232:93,1,96.8625014780045,4|0,3:0|0:0,3:3:0:0:
116,64,106922,6,0,P|89:45|57:42,1,64.5750009853363,2|2,0:0|0:0,0:0:0:0:
32,172,107136,2,0,P|59:191|90:193,1,64.5750009853363,2|2,0:0|0:0,0:0:0:0:
404,126,107350,6,0,L|396:56,2,62.9999980773926,0|0|4,3:0|3:1|0:1,0:0:0:0:
105,367,109065,6,0,P|135:356|166:352,1,62.9999980773926,2|0,0:0|0:0,0:0:0:0:
256,304,109493,2,0,P|286:315|317:319,1,62.9999980773926,2|2,0:0|0:0,0:0:0:0:
440,192,109922,6,0,L|444:224,3,31.4999990386963,4|0|0|0,0:0|0:0|0:0|0:0,0:0:0:0:
368,124,110779,2,0,L|372:93,3,31.4999990386963,0|0|0|0,0:0|0:0|3:0|3:0,3:3:0:0:
256,292,111636,6,0,L|144:300,1,104.999996795654,2|2,0:0|0:0,0:0:0:0:
139,93,112279,2,0,B|156:132|156:132|135:212,1,125.999996154785,2|0,0:0|0:0,0:0:0:0:
135,213,112922,2,0,L|45:219,1,62.9999980773926,2|2,0:0|0:0,0:0:0:0:
216,81,113350,6,0,P|263:73|306:91,2,94.499997116089,4|0|2,0:0|0:0|0:0,0:0:0:0:
350,228,114208,2,0,P|397:236|440:218,2,94.499997116089,4|0|0,0:0|0:0|3:0,3:3:0:0:
232,320,115065,6,0,B|183:308|183:308|110:343|110:343|56:326,1,188.999994232178,4|0,0:0|0:0,0:0:0:0:
156,146,115922,5,2,0:0:0:0:
72,180,116136,1,0,0:0:0:0:
38,96,116350,1,2,0:0:0:0:
121,62,116565,2,0,P|168:55|211:73,1,94.499997116089,2|0,0:0|0:0,0:0:0:0:
211,73,116993,6,0,L|243:70,2,31.4999990386963,0|0|0,0:3|0:0|0:0,0:0:0:0:
360,120,117636,2,0,L|391:124,3,31.4999990386963,0|0|0|0,0:0|0:0|3:0|3:0,3:3:0:0:
446,250,118493,6,0,P|448:305|413:347,1,110.249996635437,2|2,0:0|0:0,0:0:0:0:
60,146,119136,2,0,P|57:84|95:36,1,125.999996154785,2|2,0:0|0:0,0:0:0:0:
96,37,119778,2,0,L|167:41,1,62.9999980773926,2|0,0:0|0:0,0:0:0:0:
256,89,120207,6,0,P|307:92|377:60,1,125.999996154785,4|2,0:0|0:0,0:0:0:0:
450,132,120850,1,0,0:0:0:0:
376,256,121065,6,0,L|362:241,5,20.9999993591309,0|0|0|0|0|0,3:0|3:0|3:0|3:0|3:0|3:0,3:3:0:0:
284,280,121493,2,0,L|262:282,5,20.9999993591309,0|0|0|0|0|0,3:0|3:0|3:0|3:0|3:0|3:0,3:3:0:0:
276,368,121922,5,8,0:0:0:0:
456,192,122350,1,0,3:0:0:0:
452,176,122458,1,0,3:0:0:0:
448,160,122565,1,0,3:0:0:0:
456,192,122779,5,4,3:0:0:0:
228,48,123208,1,0,0:0:0:0:
228,48,123422,1,2,0:3:0:0:
228,48,123636,6,0,L|329:45,2,94.499997116089,4|2|2,3:0|0:0|0:3,0:0:0:0:
284,336,124493,2,0,L|184:340,2,94.499997116089,4|2|0,3:0|0:0|3:0,0:0:0:0:
374,295,125243,1,0,3:0:0:0:
374,295,125350,6,0,L|371:195,2,94.499997116089,4|2|2,3:0|0:0|0:0,0:0:0:0:
138,89,126208,2,0,L|142:190,2,94.499997116089,4|2|0,3:0|0:0|3:0,0:0:0:0:
190,247,127065,6,0,P|159:262|126:262,1,62.9999980773926,4|2,3:0|0:0,0:0:0:0:
141,184,127493,2,0,P|173:170|206:170,1,62.9999980773926,0|2,1:0|0:0,0:0:0:0:
321,265,127922,2,0,P|354:277|378:301,1,62.9999980773926,4|0,3:0|3:0,0:0:0:0:
448,132,128350,6,0,P|457:129|466:128,2,15.7499995193482,0|0|0,3:0|3:0|3:0,3:3:0:0:
449,252,128565,2,0,P|457:256|466:257,2,15.7499995193482,0|0|0,3:0|3:0|3:0,3:3:0:0:
333,189,128779,5,8,0:0:0:0:
321,265,128993,1,0,0:0:0:0:
309,341,129208,1,0,1:0:0:0:
309,341,129315,1,0,0:0:0:0:
309,341,129422,1,8,3:0:0:0:
63,252,129636,5,4,3:0:0:0:
51,176,129850,1,2,0:0:0:0:
39,100,130065,1,0,3:0:0:0:
40,94,130172,1,0,3:0:0:0:
42,88,130279,1,0,3:0:0:0:
43,82,130386,1,0,3:0:0:0:
45,76,130493,5,4,3:0:0:0:
316,184,130708,1,0,0:0:0:0:
328,108,130922,1,0,1:0:0:0:
45,308,131136,1,2,0:3:0:0:
258,131,131350,6,0,P|283:111|332:110,1,78.7499975967408,4|0,0:0|0:0,0:0:0:0:
328,108,131672,2,0,P|301:71|303:25,1,94.499997116089,2|4,0:0|3:0,3:3:0:0:
420,40,132208,6,0,L|424:60,2,15.7499995193482,0|0|0,1:0|1:0|1:0,1:1:0:0:
432,84,132636,2,0,L|436:100,2,15.7499995193482,0|0|0,1:0|1:0|1:0,1:1:0:0:
449,122,133065,6,0,L|457:154,1,31.4999990386963,0|0,3:0|3:0,0:0:0:0:
312,192,133279,2,0,L|320:224,1,31.4999990386963,0|0,3:0|3:0,0:0:0:0:
420,344,133493,6,0,L|424:324,2,15.7499995193482,0|0|0,3:0|3:0|3:0,3:3:0:0:
192,288,133708,2,0,L|196:272,2,15.7499995193482,0|0|0,3:0|3:0|3:0,0:0:0:0:
66,324,133922,5,2,0:0:0:0:
66,324,134136,1,0,0:0:0:0:
66,324,134350,1,0,0:0:0:0:
66,324,134565,1,0,0:0:0:0:
66,324,134779,6,0,L|57:286,1,20.9999993591309,2|0,0:0|0:0,0:0:0:0:
424,220,135208,2,0,L|433:182,1,20.9999993591309,2|0,0:0|0:0,0:0:0:0:
100,64,135636,6,0,B|116:198|116:198|99:249,1,188.999994232178,4|0,1:0|3:0,0:0:0:0:
99,249,136065,2,0,B|127:264|127:264|208:270,1,105,2|2,0:3|0:3,0:0:0:0:
312,77,136493,1,8,0:0:0:0:
412,98,136708,2,0,B|383:82|383:82|302:76,1,105,4|0,3:0|3:0,0:0:0:0:
98,67,137136,5,0,3:0:0:0:
98,67,137243,1,0,3:0:0:0:
98,67,137350,2,2,B|60:142|138:142|96:228,4,157.500006008148,2|2|2|2|6,3:2|3:2|3:2|3:2|3:2,0:2:0:0:
52,278,137993,6,0,P|99:297|147:280,1,105,2|12,0:3|0:0,0:0:0:0:
357,326,138422,5,2,3:1:0:0:
366,248,138636,2,0,L|357:327,1,78.7500030040742,4|2,3:0|3:1,0:0:0:0:
458,107,139065,6,2,B|421:78|421:78|272:99,1,196.875,6|0,1:1|3:0,0:0:0:0:
212,147,139493,2,0,P|193:98|212:51,1,105,2|2,0:3|0:3,0:0:0:0:
91,238,139922,1,8,0:0:0:0:
91,333,140136,2,0,P|109:284|90:237,1,105,0|0,3:0|3:0,0:0:0:0:
317,288,140565,6,0,L|310:322,2,26.25,0|0|0,3:0|3:0|3:0,3:3:0:0:
333,211,140779,1,0,1:0:0:0:
128,49,140993,1,4,3:0:0:0:
384,49,141208,1,0,3:0:0:0:
179,211,141422,1,0,3:0:0:0:
384,64,141636,6,0,L|351:75,1,35,2|0,0:0|0:0,0:0:0:0:
128,64,142065,2,0,L|161:75,1,35,2|0,0:0|0:0,0:0:0:0:
0,164,142279,6,0,L|5:193,2,26.25,2|0|0,0:0|0:0|0:0,0:0:0:0:
96,252,142493,6,0,P|178:297|257:246,1,196.875,4|0,1:0|3:0,0:0:0:0:
257,246,142922,2,0,P|240:196|257:148,1,105,2|2,0:3|0:3,0:0:0:0:
422,335,143350,1,8,0:0:0:0:
423,237,143565,2,0,P|439:286|422:334,1,105,4|0,3:0|3:0,0:0:0:0:
356,91,143993,5,0,3:0:0:0:
356,91,144100,1,0,3:0:0:0:
356,91,144208,2,2,L|533:109,4,157.500006008148,2|2|2|2|6,3:2|3:2|3:2|3:2|3:2,0:2:0:0:
237,36,144850,6,0,L|158:43,1,78.7500030040742,2|12,0:3|0:0,0:0:0:0:
89,147,145279,6,0,P|107:198|88:254,1,110.249996635437,2|0,3:1|3:0,3:3:0:0:
49,344,145493,2,0,P|54:290|95:247,1,110.249996635437,4|0,1:3|0:0,0:0:0:0:
134,156,145708,2,0,P|128:209|87:252,1,110.249996635437,0|0,3:1|0:0,0:0:0:0:
12,317,145922,6,2,P|79:251|165:286,1,196.875,6|0,1:1|3:0,0:0:0:0:
164,285,146350,2,0,B|244:297|244:297|267:289,1,105,2|2,0:3|0:3,0:0:0:0:
350,101,146779,1,8,0:0:0:0:
452,98,146993,6,0,B|428:90|428:90|349:101,1,105,0|0,3:0|3:0,0:0:0:0:
345,274,147422,6,0,L|357:272,2,13.125,0|0|0,3:0|3:0|3:0,3:3:0:0:
268,311,147636,6,0,L|221:304,1,39.375,2|0,0:0|0:0,0:0:0:0:
229,315,147850,2,0,L|190:320,1,39.375,4|0,3:0|0:0,0:0:0:0:
190,300,148065,2,0,L|151:294,1,39.375,2|0,0:0|0:0,0:0:0:0:
151,324,148279,2,0,L|112:329,1,39.375,2|0,0:3|0:0,0:0:0:0:
40,311,148493,1,0,1:0:0:0:
278,127,148922,6,0,L|280:158,1,26.25,0|0,0:0|0:0,0:0:0:0:
214,190,149136,2,0,L|213:203,2,13.125,0|0|0,3:0|3:0|3:0,3:3:0:0:
171,121,149350,6,0,P|129:147|60:115,1,94.499997116089,4|0,0:1|0:0,0:0:0:0:
114,69,149779,1,0,3:0:0:0:
114,69,149993,1,0,3:0:0:0:
274,51,150208,2,0,B|319:70|374:54|340:21|406:3|451:26,1,188.999994232178,2|0,0:0|3:0,0:0:0:0:
416,105,150850,1,0,0:0:0:0:
419,192,151065,6,0,B|435:149|435:149|415:104,1,94.499997116089,0|0,3:0|0:0,0:0:0:0:
248,159,151386,2,0,L|342:152,1,94.499997116089,0|0,3:0|0:0,0:0:0:0:
342,151,151708,1,0,3:0:0:0:
356,332,151922,6,0,L|350:238,1,94.499997116089,0|0,3:0|0:0,0:0:0:0:
260,247,152243,2,0,L|266:341,1,94.499997116089,2|0,3:2|0:0,0:0:0:0:
266,341,152565,1,2,3:2:0:0:
136,148,152779,6,0,B|159:170|166:202|163:232|139:255|117:267|117:267|57:245|57:245|94:190,1,252,4|0,0:0|3:0,0:0:0:0:
83,89,154279,1,0,3:0:0:0:
136,148,154493,2,0,B|159:126|166:94|163:64|139:41|117:29|117:29|57:51|57:51|94:106,1,252,0|0,3:0|3:0,0:0:0:0:
173,320,156208,6,0,P|131:346|62:314,1,94.499997116089,4|0,0:1|0:0,0:0:0:0:
116,268,156636,1,0,3:0:0:0:
116,268,156850,1,0,3:0:0:0:
267,381,157065,2,0,B|274:343|274:343|261:318|261:318|266:280|266:280|282:263|282:263|272:245|272:245|280:206,1,188.999994232178,2|0,0:0|3:0,0:0:0:0:
255,128,157708,1,0,0:0:0:0:
340,148,157922,6,0,P|298:122|229:154,1,94.499997116089,0|0,3:0|0:0,0:0:0:0:
195,184,158243,2,0,P|234:210|280:205,1,94.499997116089,0|0,3:0|0:0,0:0:0:0:
280,204,158565,1,0,3:0:0:0:
177,104,158779,6,0,L|171:10,1,94.499997116089,0|0,3:0|0:0,0:0:0:0:
81,19,159100,2,0,L|87:113,1,94.499997116089,2|0,3:2|0:0,0:0:0:0:
87,113,159422,1,2,3:2:0:0:
44,243,159636,6,0,B|105:269|181:247|134:201|225:177|286:208,1,252,4|0,0:0|3:0,0:0:0:0:
232,282,161136,1,0,3:0:0:0:
279,205,161350,1,0,3:0:0:0:
90,171,161565,6,0,L|84:100,1,52.5,2|2,0:0|0:0,0:0:0:0:
77,43,161779,1,2,3:2:0:0:
184,188,161993,6,0,L|178:117,1,52.5,2|2,0:0|0:0,0:0:0:0:
170,32,162208,1,2,3:2:0:0:
279,205,162422,6,0,L|273:134,1,52.5,2|2,0:0|0:0,0:0:0:0:
264,22,162636,1,2,3:2:0:0:
264,22,162850,1,0,3:0:0:0:
374,222,163065,6,0,B|364:86|364:86|374:78|374:78|363:69|363:69|358:2,1,220.499993270874,4|0,1:0|3:0,0:0:0:0:
457,76,163708,1,0,3:0:0:0:
467,197,163922,6,0,B|464:155,1,42,4|8,3:0|0:0,0:0:0:0:
305,360,164565,5,0,3:0:0:0:
305,360,164672,1,0,3:0:0:0:
305,360,164779,1,0,1:0:0:0:
377,197,164993,1,2,0:1:0:0:
422,314,165208,1,0,3:0:0:0:
259,242,165422,1,2,0:1:0:0:
342,285,165636,5,4,0:3:0:0:
342,285,166065,1,8,0:0:0:0:
141,91,166279,5,0,3:0:0:0:
141,91,166386,1,0,3:0:0:0:
141,91,166493,1,0,1:0:0:0:
69,254,166708,1,2,0:1:0:0:
23,136,166922,1,0,3:0:0:0:
186,208,167136,1,2,0:1:0:0:
106,179,167350,5,4,0:3:0:0:
106,179,167779,1,8,0:0:0:0:
106,179,168208,1,0,1:0:0:0:
276,325,168422,6,0,L|281:273,1,52.5,2|2,0:0|0:0,0:0:0:0:
287,197,168636,1,2,3:2:0:0:
186,336,168850,6,0,L|190:283,1,52.5,2|2,0:0|0:0,0:0:0:0:
197,186,169065,1,2,3:2:0:0:
96,347,169279,6,0,L|100:294,1,52.5,2|2,0:0|0:0,0:0:0:0:
107,175,169493,6,0,L|104:218,2,31.4999990386963,0|0|0,3:0|0:0|0:0,0:0:0:0:
17,164,169708,2,0,L|14:207,2,31.4999990386963,0|0|0,3:0|0:0|0:0,0:0:0:0:
6,358,169922,5,4,1:0:0:0:
17,164,170136,1,0,0:0:0:0:
96,347,170350,5,0,3:0:0:0:
107,175,170565,1,2,0:3:0:0:
186,336,170779,5,2,0:3:0:0:
197,186,170993,1,0,3:0:0:0:
276,325,171208,5,8,0:0:0:0:
287,197,171422,1,0,3:0:0:0:
287,197,171529,1,0,3:0:0:0:
287,197,171636,5,0,1:0:0:0:
276,325,171850,1,2,0:1:0:0:
197,186,172065,5,0,3:0:0:0:
186,336,172279,1,2,0:1:0:0:
107,175,172493,5,4,3:0:0:0:
96,347,172708,1,8,0:3:0:0:
17,164,172922,5,8,0:0:0:0:
6,358,173136,1,0,3:3:0:0:
6,358,173243,1,0,3:0:0:0:
6,358,173350,5,0,3:0:0:0:
4,331,173458,1,0,3:0:0:0:
12,306,173565,1,0,3:0:0:0:
28,286,173672,1,0,3:0:0:0:
50,272,173779,1,0,3:0:0:0:
72,258,173886,1,0,3:0:0:0:
88,238,173993,1,0,3:0:0:0:
96,213,174100,1,0,3:0:0:0:
96,187,174208,5,0,3:0:0:0:
122,211,174315,1,0,3:0:0:0:
157,219,174422,1,0,3:0:0:0:
192,207,174529,1,0,3:0:0:0:
215,179,174636,1,0,3:0:0:0:
238,151,174743,1,0,3:0:0:0:
273,139,174850,1,0,3:0:0:0:
308,147,174958,1,0,3:0:0:0:
335,172,175065,6,0,B|292:167,1,42,2|4,0:1|0:1,0:0:0:0:
435,60,176136,6,0,B|430:126|486:153|486:153|407:148|372:250,1,194.249999258995,4|0,1:2|0:0,0:0:0:0:
335,172,176350,6,0,B|420:181,1,78.75,4|0,0:0|0:0,0:0:0:0:
479,384,176779,6,0,B|416:307|481:240|481:240|435:295|358:262,1,267.750005106926,4|0,1:0|0:0,0:0:0:0:
343,93,177208,6,0,B|334:178,1,78.7500030040742,2|0,0:3|0:0,0:0:0:0:
264,84,177422,2,0,B|349:93,1,78.7500030040742,2|0,0:3|0:0,0:0:0:0:
217,272,177636,6,0,B|252:206|223:128|177:175|153:84|184:23,1,267.750005106926,0|0,1:0|0:0,0:0:0:0:
269,5,178065,1,0,3:0:0:0:
106,188,178279,2,0,B|117:170|117:170|86:134|86:134|88:74|88:74|-7:63|0:181,1,267.750005106926,4|0,3:0|0:0,0:0:0:0:
19,238,178708,1,0,3:0:0:0:
202,346,178922,6,0,P|160:329|99:346,1,78.7500030040742,4|2,3:0|0:0,0:0:0:0:
216,271,179136,2,0,P|199:313|216:374,1,78.7500030040742,2|0,0:3|0:0,0:0:0:0:
371,120,179350,6,0,B|318:146|299:262|339:338|380:245|299:174,1,267.750005106926,0|0,1:0|3:0,0:0:0:0:
229,164,179779,6,0,P|267:162|303:178,1,78.75,6|0,1:2|0:0,0:0:0:0:
298,341,180208,6,0,B|283:383|283:383|448:340|448:340|406:309,1,267.750005106926,4|0,1:0|0:0,0:0:0:0:
435,155,180636,6,0,B|418:231,1,78.7500030040742,2|0,0:3|0:0,0:0:0:0:
512,173,180850,2,0,B|436:156,1,78.7500030040742,2|0,0:3|0:0,0:0:0:0:
212,68,181065,6,0,B|275:145|210:212|210:212|256:157|333:190,1,267.750005106926,0|0,1:0|0:0,0:0:0:0:
317,99,181493,1,2,3:0:0:0:
81,134,181708,6,0,L|162:143,2,80.5000015354157,4|0|0,1:3|0:0|0:0,0:0:0:0:
72,212,181922,6,0,L|81:131,1,78.7500030040742,0|0,1:0|0:0,0:0:0:0:
2,125,182136,2,0,L|83:134,1,78.7500030040742,2|0,0:1|0:0,0:0:0:0:
240,88,182350,2,0,L|231:7,1,78.7500030040742,4|0,3:0|0:0,0:0:0:0:
309,1,182565,2,0,L|228:10,1,78.7500030040742,2|0,0:1|0:0,0:0:0:0:
67,259,182779,6,0,L|76:178,4,44.6250008511543,8|0|0|0|2,1:2|3:0|3:0|3:0|3:1,0:0:0:0:
317,127,183208,1,0,3:0:0:0:
201,183,183422,2,0,L|246:179,2,44.6250008511543,2|0|0,3:1|3:0|3:0,0:0:0:0:
331,215,183636,6,0,B|445:181|409:311|533:255|533:220|533:220|537:179|487:179|469:213,1,315.000012016297,4|0,1:0|1:0,0:0:0:0:
497,22,184279,2,0,B|437:47|437:47|461:138|461:138|469:142|469:142|461:146|461:146|475:204,1,236.250009012223,4|0,3:0|3:0,0:0:0:0:
326,232,184708,6,0,L|331:214,1,18.3749994392395,0|0,1:0|0:0,0:0:0:0:
364,315,184922,6,0,B|386:350|386:350|233:324|233:324|268:293,1,241.500004606247,4|0,1:2|3:0,0:0:0:0:
129,312,185243,1,0,3:0:0:0:
120,316,185350,6,0,B|160:337|207:319|182:293|234:277|266:293,1,157.500006008148,4|2,1:0|3:2,0:0:0:0:
145,215,185672,1,0,3:0:0:0:
149,227,185779,6,0,L|131:141,1,84,0|4,1:0|3:0,0:0:0:0:
247,151,186100,1,0,0:0:0:0:
253,173,186208,6,0,L|229:65,1,105,0|0,1:0|3:0,0:0:0:0:
351,94,186529,1,0,0:0:0:0:
357,119,186636,6,0,L|339:12,1,105,4|0,1:2|0:0,0:0:0:0:
500,44,186850,6,0,L|457:53,3,44.6250008511543,0|0|0|0,3:0|3:0|3:0|0:0,0:0:0:0:
494,172,187065,6,0,B|455:169|443:142|443:142|456:201|423:218|423:218|433:237|433:237|397:254|398:302|398:302|386:261|312:262,1,315.000012016297,4|0,1:0|1:0,0:0:0:0:
141,132,187708,2,0,B|210:119|210:119|227:214|227:214|133:230,1,236.250009012223,4|0,3:0|3:0,0:0:0:0:
206,27,188136,6,0,L|208:45,1,18.3749994392395,0|0,1:0|0:0,0:0:0:0:
128,37,188350,6,0,B|54:49|54:49|71:144|71:144|141:132,1,241.500004606247,4|0,1:2|3:0,0:0:0:0:
154,301,188672,1,0,3:0:0:0:
160,307,188779,6,0,B|115:313|77:280|109:264|66:231|30:235,1,157.500006008148,4|0,3:0|3:0,0:0:0:0:
250,366,189100,1,0,3:0:0:0:
247,354,189208,2,0,P|265:284|298:250,1,78.7500030040742,0|0,3:0|0:0,0:0:0:0:
390,216,189422,6,0,P|398:178|402:146,1,47.2499985580445,0|0,3:0|3:0,0:0:0:0:
390,216,189529,2,0,P|405:240|430:260,1,47.2499985580445,0|0,3:0|3:0,0:0:0:0:
390,216,189636,2,0,P|356:218|326:230,1,47.2499985580445,0|0,3:0|3:0,0:0:0:0:
247,100,189851,6,0,P|274:90|304:78,1,47.2499985580445,0|0,3:0|3:0,0:0:0:0:
247,100,189958,2,0,P|229:126|224:158,1,47.2499985580445,0|0,3:0|3:0,0:0:0:0:
247,100,190065,2,0,P|229:71|203:51,1,47.2499985580445,0|0,3:0|3:0,0:0:0:0:
400,3,190279,1,0,3:0:0:0:
447,279,190493,6,0,B|422:228|312:210|240:248|328:287|395:210,1,251.999992309571,4|0,1:0|3:0,0:0:0:0:
378,323,191136,1,2,3:1:0:0:
394,174,191350,6,0,L|388:224,1,42,2|0,1:0|1:0,0:0:0:0:
165,282,191993,6,0,B|174:367,1,78.7500030040742,4|0,3:0|3:0,0:0:0:0:
87,290,192208,2,0,B|166:282,1,78.7500030040742,2|0,3:0|0:0,0:0:0:0:
280,104,192422,6,0,P|263:146|284:205,1,78.7500030040742,0|0,3:0|0:0,0:0:0:0:
292,29,192636,2,0,P|295:67|279:103,1,78.7500030040742,4|2,3:0|0:0,0:0:0:0:
210,52,192850,1,2,3:0:0:0:
260,280,193065,6,0,B|323:269|323:269|340:229|340:229|382:222|382:222|399:239|399:239|437:232|437:232|447:212|447:212|491:202,1,267.750005106926,0|0,1:0|3:0,0:0:0:0:
476,307,193493,6,0,L|386:325,1,78.75,4|0,1:2|0:0,0:0:0:0:
231,371,193922,6,0,B|145:320|183:235|183:235|159:302|75:297,1,267.750005106926,4|0,1:0|0:0,0:0:0:0:
222,80,194350,6,0,L|201:180,1,78.7500030040742,2|0,0:3|0:0,0:0:0:0:
144,63,194565,2,0,L|222:80,1,78.7500030040742,2|0,0:3|0:0,0:0:0:0:
404,18,194779,6,0,B|394:73|394:73|407:97|407:97|385:120|385:120|379:173|379:173|397:207|397:207|385:272,1,267.750005106926,0|0,1:0|0:0,0:0:0:0:
451,376,195208,1,0,1:0:0:0:
294,360,195422,2,0,B|364:334|386:267|386:267|390:337|460:382,1,267.750005106926,4|0,3:0|0:0,0:0:0:0:
512,176,195850,6,0,P|473:194|391:158,1,78.7500030040742,2|2,3:2|3:2,0:0:0:0:
459,115,196065,1,4,3:0:0:0:
218,103,196279,6,0,P|257:121|339:85,1,78.7500030040742,2|2,3:2|3:2,0:0:0:0:
271,42,196493,2,0,L|266:-1,4,39.3750015020371,0|0|0|0|2,1:0|3:0|3:0|3:0|3:2,0:0:0:0:
433,231,196922,5,2,3:2:0:0:
433,231,197029,1,0,3:0:0:0:
433,231,197136,2,0,L|438:188,3,39.3750015020371,4|0|0|0,3:2|0:0|0:0|0:0,0:0:0:0:
239,267,197350,6,0,B|353:252|353:252|370:347|370:347|138:381,1,393.750015020371,4|0,1:0|0:0,0:0:0:0:
267,181,197993,6,0,L|313:174,1,47.2499985580445,4|0,3:0|3:0,0:0:0:0:
293,94,198422,6,0,L|275:96,1,18.3749994392395,0|0,1:0|0:0,0:0:0:0:
123,168,198636,6,0,B|187:157|187:157|151:44|151:44|207:37,1,241.500004606247,4|0,1:2|3:0,0:0:0:0:
123,297,198958,1,0,3:0:0:0:
122,297,199065,6,0,B|65:228|123:168|123:168|76:211|12:172,2,236.250009012223,4|0|4,3:0|3:0|3:0,0:0:0:0:
407,229,200136,6,0,L|402:247,1,18.3749994392395,0|0,1:0|0:0,0:0:0:0:
376,345,200350,6,0,L|407:228,1,120.750002303124,4|0,0:0|0:0,0:0:0:0:
473,295,200565,6,0,L|462:333,3,39.3750015020371,0|0|0|0,3:0|3:0|3:0|0:0,0:0:0:0:
434,140,200779,6,0,B|320:106|356:236|232:180|232:145|232:145|228:104|278:104|296:138,1,315.000012016297,4|0,1:0|1:0,0:0:0:0:
260,348,201422,2,0,B|229:289|254:220|295:262|316:181|289:128,1,236.250009012223,4|0,3:0|3:0,0:0:0:0:
151,237,201850,6,0,L|156:255,1,18.3749994392395,0|0,1:0|0:0,0:0:0:0:
74,192,202065,6,0,B|133:152|136:92|136:92|156:149|218:173,1,241.500004606247,4|0,1:2|3:0,0:0:0:0:
374,66,202386,1,0,3:0:0:0:
372,78,202493,6,0,L|395:-44,1,62.9999980773926,4|0,3:0|0:0,0:0:0:0:
474,183,202708,6,0,L|453:86,1,70.8750002703667,0|0,3:0|0:0,0:0:0:0:
334,263,202922,6,0,L|360:132,1,78.7500030040742,0|0,1:0|0:0,0:0:0:0:
512,372,203136,6,0,L|482:237,1,86.6250008261204,4|0,3:0|0:0,0:0:0:0:
319,353,203350,6,0,L|312:378,3,26.25,0|0|0|0,1:0|0:0|1:0|0:0,0:0:0:0:
474,183,203779,2,0,L|480:208,3,26.25,0|0|0|0,1:0|0:0|1:0|0:0,0:0:0:0:
383,16,204208,6,0,L|372:78,1,62.9999980773926,2|0,0:1|0:0,0:0:0:0:
