osu file format v14

[General]
AudioFilename: audio.mp3
AudioLeadIn: 0
PreviewTime: 75529
Countdown: 0
SampleSet: Soft
StackLeniency: 0.4
Mode: 0
LetterboxInBreaks: 0
WidescreenStoryboard: 1

[Editor]
Bookmarks: 10474,24189,37903
DistanceSpacing: 1.1
BeatDivisor: 6
GridSize: 4
TimelineZoom: 1.9

[Metadata]
Title:DDU-DU DDU-DU
TitleUnicode:뚜두뚜두
Artist:BLACKPINK
ArtistUnicode:BLACKPINK
Creator:Irreversible
Version:Stjpa's Normal feat. Irre
Source:
Tags:CharmCaster Stjpa Marianna Zetera Basti Sala- fanzhen fanzhen0019 -M4x Nhawak Voli Team Rocket Dissie Dimes Sing Daoski Collab Collaboration Lisa Rap Dance Thai Jisoo Jennie Badass Girl Inka Bird Hit You With That Rose Glitter Tank With Popcorn Scene d4
BeatmapID:1677137
BeatmapSetID:798691

[Difficulty]
HPDrainRate:4
CircleSize:3
OverallDifficulty:4
ApproachRate:5
SliderMultiplier:1.5
SliderTickRate:1

[Events]
//Background and Video events
0,0,"16ab049459.jpg",0,0
Video,-1710,"video.mp4"
//Break Periods
2,149122,161865
//Storyboard Layer 0 (Background)
//Storyboard Layer 1 (Fail)
//Storyboard Layer 2 (Pass)
//Storyboard Layer 3 (Foreground)
//Storyboard Sound Samples

[TimingPoints]
208,428.571428571429,4,2,0,60,1,0
49922,-100,4,2,0,40,0,0
55065,-100,4,2,0,50,0,0
56565,-100,4,2,0,60,0,0
57208,-100,4,2,0,40,0,0
61922,-100,4,2,0,50,0,0
62565,-100,4,2,0,60,0,0
63636,-100,4,2,0,50,0,0
75636,-100,4,2,0,40,0,0
76493,-100,4,2,0,45,0,0
76600,-100,4,2,0,40,0,0
76922,-100,4,2,0,45,0,0
77029,-100,4,2,0,40,0,0
77350,-90.9090909090909,4,2,0,70,0,1
89136,-90.9090909090909,4,2,0,60,0,1
89350,-90.9090909090909,4,2,0,45,0,1
89565,-90.9090909090909,4,2,0,40,0,1
89779,-90.9090909090909,4,2,0,35,0,1
89993,-90.9090909090909,4,2,0,30,0,1
90208,-90.9090909090909,4,2,0,20,0,1
90636,-90.9090909090909,4,2,0,10,0,0
94493,-100,4,2,0,70,0,0
94922,-100,4,2,0,60,0,0
107350,-100,4,2,0,40,0,0
107779,-100,4,2,0,50,0,0
108208,-100,4,2,0,40,0,0
113350,-100,4,2,0,50,0,0
114850,-100,4,2,0,60,0,0
115493,-100,4,2,0,40,0,0
120208,-100,4,2,0,50,0,0
120850,-100,4,2,0,60,0,0
121922,-100,4,2,0,50,0,0
133922,-100,4,2,0,40,0,0
134779,-100,4,2,0,45,0,0
134886,-100,4,2,0,40,0,0
135208,-100,4,2,0,45,0,0
135315,-100,4,2,0,40,0,0
135636,-90.9090909090909,4,2,0,70,0,1
147422,-90.9090909090909,4,2,0,60,0,1
147636,-90.9090909090909,4,2,0,45,0,1
147850,-90.9090909090909,4,2,0,40,0,1
148065,-90.9090909090909,4,2,0,35,0,1
148279,-90.9090909090909,4,2,0,30,0,1
148493,-90.9090909090909,4,2,0,20,0,1
148922,-90.9090909090909,4,2,0,10,0,1
149350,-100,4,2,0,60,0,0
176779,-100,4,2,0,80,0,1
176886,-100,4,2,0,70,0,1
188779,-100,4,2,0,60,0,1
190065,-100,4,2,0,50,0,1
190493,-100,4,2,0,80,0,1
190600,-100,4,2,0,70,0,1
203350,-100,4,2,0,60,0,1
203779,-100,4,2,0,50,0,1
204208,-100,4,2,0,40,0,0

[Colours]
Combo1 : 255,117,145
Combo2 : 184,236,241
Combo3 : 143,165,252
Combo4 : 255,140,243

[HitObjects]
47,126,8779,5,4,1:0:0:0:
184,34,9208,2,0,P|215:23|260:24,1,75,2|2,0:3|0:3,0:0:0:0:
334,51,9636,1,8,0:0:0:0:
492,241,10279,1,0,3:0:0:0:
492,241,10494,6,0,P|496:281|486:318,1,75,0|0,3:0|3:0,0:0:0:0:
408,338,10922,2,0,P|375:361|340:371,1,75,4|2,3:0|0:3,0:0:0:0:
265,340,11351,1,8,0:0:0:0:
188,308,11565,1,2,3:1:0:0:
188,308,11779,2,0,P|145:304|110:317,1,75,4|2,1:2|3:1,0:0:0:0:
56,371,12208,6,0,L|68:211,1,150,6|2,1:0|0:0,0:0:0:0:
37,144,12851,1,2,0:0:0:0:
95,85,13065,1,8,0:0:0:0:
219,266,13708,1,0,3:0:0:0:
219,266,13922,6,0,P|215:306|225:343,1,75,2|4,0:0|3:0,0:0:0:0:
305,349,14350,2,0,P|337:372|373:382,1,75,2|2,0:0|0:3,0:0:0:0:
442,340,14779,1,8,0:0:0:0:
473,263,14994,1,4,1:2:0:0:
473,263,15208,2,0,L|469:181,1,75,4|0,0:0|3:0,3:3:0:0:
493,109,15636,5,4,1:0:0:0:
342,164,16065,2,0,P|298:167|251:154,1,75,2|2,0:3|0:3,0:0:0:0:
200,113,16494,1,8,0:0:0:0:
51,310,17136,1,0,3:0:0:0:
30,229,17351,6,0,L|21:137,1,75,0|0,3:0|3:0,0:0:0:0:
109,170,17779,2,0,L|124:78,1,75,4|2,3:0|0:3,0:0:0:0:
165,26,18208,1,8,0:0:0:0:
241,76,18422,1,2,3:1:0:0:
241,76,18636,2,0,L|256:167,1,75,4|2,1:2|3:1,0:0:0:0:
216,224,19065,6,0,P|251:201|363:219,1,150,6|2,1:0|0:3,0:0:0:0:
416,266,19708,1,2,0:3:0:0:
496,250,19922,1,8,0:0:0:0:
380,31,20565,1,0,3:0:0:0:
326,94,20780,6,0,L|317:186,1,75,2|4,0:0|3:0,0:0:0:0:
236,160,21208,2,0,L|251:252,1,75,2|2,0:0|0:3,0:0:0:0:
240,316,21636,1,8,0:0:0:0:
134,195,22065,2,2,L|149:103,1,75,2|0,0:1|0:0,0:0:0:0:
113,44,22494,5,4,3:1:0:0:
273,5,22922,1,0,3:0:0:0:
354,13,23136,1,0,0:0:0:0:
436,21,23351,2,0,L|510:13,2,75,8|0|0,0:0|0:0|3:0,0:0:0:0:
388,88,23994,1,0,3:0:0:0:
424,161,24208,6,0,L|433:245,1,75,0|0,3:0|3:0,0:0:0:0:
458,313,24636,2,0,L|374:322,1,75,4|0,3:0|3:0,0:0:0:0:
307,354,25065,2,0,L|298:270,1,75,8|0,0:0|3:0,3:3:0:0:
234,40,25922,6,0,P|192:27|152:31,1,75,4|0,3:0|0:0,0:0:0:0:
113,96,26351,2,0,P|74:116|48:147,1,75,0|0,0:0|0:0,0:0:0:0:
42,220,26779,1,8,0:0:0:0:
113,368,27208,1,0,3:0:0:0:
232,254,27636,6,0,P|219:212|223:172,1,75,0|4,3:0|3:0,0:0:0:0:
285,130,28065,2,0,P|305:91|336:65,1,75,0|0,3:0|3:0,0:0:0:0:
410,67,28493,2,0,P|452:53|492:58,1,75,8|0,0:0|1:0,0:0:0:0:
459,137,28922,1,0,3:0:0:0:
385,332,29351,6,0,L|284:320,1,75,4|0,3:0|0:0,0:0:0:0:
240,367,29779,2,0,L|164:299,1,75,0|0,0:0|0:0,0:0:0:0:
103,299,30208,1,8,0:0:0:0:
4,167,30636,1,0,1:0:0:0:
96,30,31065,6,0,P|137:30|174:51,1,75,4|2,0:1|0:0,0:0:0:0:
215,111,31494,2,0,P|255:118|295:103,1,75,4|2,3:0|0:0,0:0:0:0:
367,129,31922,2,0,P|406:117|436:88,1,75,0|0,1:0|3:0,3:3:0:0:
396,20,32351,1,2,0:1:0:0:
231,9,32779,5,4,3:1:0:0:
91,98,33208,2,0,L|85:190,1,75,0|0,1:0|3:0,0:0:0:0:
42,242,33636,1,4,3:2:0:0:
152,359,34065,6,0,L|236:351,1,75,0|0,1:0|3:0,3:3:0:0:
228,269,34494,2,0,L|144:261,1,75,0|4,3:0|3:0,0:0:0:0:
150,179,34922,2,0,L|234:171,1,75,2|0,0:0|3:0,0:0:0:0:
296,130,35351,1,0,1:0:0:0:
376,171,35565,1,0,0:0:0:0:
376,171,35779,2,0,L|371:256,1,75,0|0,1:0|0:0,3:3:0:0:
400,323,36208,5,4,0:1:0:0:
237,352,36636,2,0,B|186:334|186:334|60:351,2,150,0|0|0,1:0|1:0|0:0,0:0:0:0:
400,323,37922,1,2,0:0:0:0:
483,180,38350,2,0,B|501:129|501:129|484:3,2,150,0|0|4,1:0|1:0|0:0,0:0:0:0:
400,323,39636,5,6,0:1:0:0:
314,181,40065,2,0,P|282:129|168:109,1,150,0|0,1:0|1:0,0:0:0:0:
139,40,40708,1,0,0:0:0:0:
53,26,40922,2,0,L|62:193,1,150,0|0,3:0|3:0,0:0:0:0:
200,101,41779,2,0,L|191:268,1,150,0|0,1:0|1:0,0:0:0:0:
77,369,42636,1,4,0:0:0:0:
23,212,43065,5,4,0:1:0:0:
76,55,43494,2,0,P|111:30|151:24,1,75,0|0,1:0|0:0,0:0:0:0:
219,50,43922,1,8,0:0:0:0:
378,5,44351,2,0,P|363:40|380:157,1,150,4|2,0:0|0:3,0:0:0:0:
473,280,45208,2,0,P|468:325|438:361,1,75,4|0,3:0|0:0,0:0:0:0:
372,371,45636,1,8,0:0:0:0:
274,239,46065,2,0,P|279:194|309:158,1,75,4|0,0:0|0:0,0:0:0:0:
375,148,46493,5,4,0:1:0:0:
255,33,46922,2,0,L|153:28,1,75,2|0,0:0|0:0,0:0:0:0:
103,60,47351,1,8,0:0:0:0:
20,202,47779,2,0,L|197:192,1,150,2|0,0:0|0:0,0:0:0:0:
396,365,49922,5,4,0:1:0:0:
477,45,50779,2,0,L|375:39,1,75,2|0,0:0|0:0,0:0:0:0:
327,76,51208,1,2,0:0:0:0:
327,76,51422,1,2,0:0:0:0:
373,144,51636,2,0,B|382:210|382:210|350:286|350:286|359:365,1,225,4|0,0:0|0:0,0:0:0:0:
175,194,52922,2,0,L|96:188,1,75,0|0,3:0|3:0,3:3:0:0:
33,132,53351,6,0,P|13:184|32:244,2,112.5,2|2|2,0:0|0:0|0:0,0:0:0:0:
158,24,54422,1,0,0:0:0:0:
158,24,54636,2,0,L|239:18,1,75,2|2,0:0|0:0,0:0:0:0:
288,79,55065,6,0,L|285:204,2,112.5,4|0|2,0:0|0:0|0:0,0:0:0:0:
341,16,55922,1,4,0:0:0:0:
472,120,56351,1,0,3:0:0:0:
472,120,56565,2,0,P|466:194|339:250,1,225,0|0,3:0|0:0,3:3:0:0:
236,122,57636,6,0,P|202:95|148:95,1,75,2|0,0:0|0:0,0:0:0:0:
119,25,58065,2,0,P|92:59|92:113,1,75,2|2,0:0|0:0,0:0:0:0:
117,166,58494,2,0,P|132:231|103:321,1,150,2|0,0:3|0:0,0:0:0:0:
21,41,59779,5,0,3:0:0:0:
21,41,59994,1,0,3:0:0:0:
89,87,60208,2,0,L|248:80,1,150,2|0,0:0|0:0,0:0:0:0:
297,22,60850,2,0,L|456:29,1,150,2|0,0:0|0:0,0:0:0:0:
472,108,61494,1,2,0:0:0:0:
316,164,61922,6,0,L|157:171,1,150,4|0,0:0|0:0,0:0:0:0:
107,229,62565,2,0,P|86:282|141:365,1,150,2|0,0:0|3:0,0:0:0:0:
209,378,63208,1,0,3:0:0:0:
364,324,63636,5,8,0:0:0:0:
95,135,64493,1,4,3:0:0:0:
415,135,65351,1,4,3:0:0:0:
146,324,66208,1,4,3:0:0:0:
255,199,66636,1,0,3:0:0:0:
146,324,67065,5,4,3:0:0:0:
415,135,67922,1,4,3:0:0:0:
95,135,68780,1,4,3:0:0:0:
364,324,69637,1,4,3:0:0:0:
255,199,70065,1,0,3:0:0:0:
364,324,70493,6,0,P|434:357|505:332,1,150,8|0,0:0|1:0,0:0:0:0:
459,179,71350,2,0,P|393:146|322:165,1,150,4|0,3:0|3:0,0:0:0:0:
205,48,72208,2,0,L|223:211,1,150,4|0,3:0|1:0,0:0:0:0:
99,307,73065,2,0,L|81:144,2,150,4|0|0,0:0|3:0|1:0,0:0:0:0:
254,365,74350,1,0,1:0:0:0:
411,307,74779,2,0,L|429:144,1,150,0|0,1:0|3:0,3:3:0:0:
310,41,75636,2,0,L|147:59,1,150,0|0,0:0|0:0,0:0:0:0:
277,174,76494,6,0,L|271:216,1,25
171,279,76922,2,0,L|165:321,1,25
43,299,77350,5,4,1:0:0:0:
43,299,77779,1,0,1:0:0:0:
44,300,78208,2,0,P|3:230|15:150,1,165.000005035401,8|0,0:0|3:0,0:0:0:0:
0,60,78851,1,0,3:0:0:0:
84,24,79065,6,0,L|177:17,1,82.5000025177003,0|0,3:0|3:0,0:0:0:0:
250,58,79493,2,0,L|434:69,1,165.000005035401,4|8,3:0|0:0,0:0:0:0:
487,122,80136,1,2,3:1:0:0:
487,122,80351,1,4,1:2:0:0:
418,181,80565,1,2,3:1:0:0:
418,181,80779,5,6,1:0:0:0:
146,194,81422,1,2,0:3:0:0:
91,121,81636,2,0,L|102:291,1,165.000005035401,8|0,0:0|3:0,0:0:0:0:
166,350,82279,1,0,3:0:0:0:
252,320,82494,6,0,P|295:334|342:323,1,82.5000025177003,0|4,1:0|3:0,0:0:0:0:
421,332,82922,2,0,P|451:298|461:251,1,82.5000025177003,0|0,3:0|3:0,0:0:0:0:
502,181,83351,2,0,L|494:129,1,27.5000008392334,2|2,3:0|3:0,0:0:0:0:
400,44,83779,2,0,L|394:84,1,27.5000008392334,2|2,3:0|3:0,0:0:0:0:
308,192,84208,5,4,1:0:0:0:
54,92,84851,1,2,0:3:0:0:
21,11,85065,2,0,L|37:180,1,165.000005035401,8|0,0:0|3:0,0:0:0:0:
92,247,85708,1,0,3:0:0:0:
167,197,85922,6,0,P|160:153|169:110,1,82.5000025177003,0|0,3:0|3:0,0:0:0:0:
141,29,86350,2,0,P|196:68|295:66,1,165.000005035401,4|8,3:0|0:0,0:0:0:0:
373,28,86994,1,2,3:1:0:0:
373,28,87208,1,4,1:2:0:0:
439,99,87422,1,2,3:1:0:0:
439,99,87636,5,6,1:0:0:0:
298,332,88279,1,2,0:3:0:0:
372,384,88494,2,0,L|176:372,1,165.000005035401,8|0,0:0|0:0,0:0:0:0:
135,318,89136,1,0,0:0:0:0:
62,262,89351,6,0,L|70:173,1,82.5000025177003,2|2,0:0|0:3,0:0:0:0:
157,202,89779,2,0,L|149:113,1,82.5000025177003,2|0,0:0|3:0,0:0:0:0:
70,73,90208,2,0,P|108:90|105:2,1,165.000005035401,0|0,0:0|0:0,0:0:0:0:
69,74,94494,5,4,1:0:0:0:
19,231,94922,2,0,L|116:220,1,75,0|0,3:0|3:0,0:0:0:0:
167,259,95351,5,0,1:0:0:0:
249,264,95565,1,4,1:3:0:0:
331,269,95779,1,4,1:3:0:0:
422,39,96422,5,0,1:0:0:0:
422,39,96636,2,0,L|317:28,1,75,0|0,3:0|1:0,0:0:0:0:
272,65,97065,2,0,L|190:71,2,75,8|0|0,3:2|3:0|1:0,0:0:0:0:
422,133,97922,5,4,1:0:0:0:
476,212,98136,1,0,3:0:0:0:
476,212,98351,2,0,L|482:313,1,75,0|0,3:0|3:0,0:0:0:0:
396,277,98779,2,0,L|390:378,1,75,0|0,1:0|3:0,0:0:0:0:
304,348,99208,2,0,L|298:247,1,75,4|0,3:0|3:0,3:3:0:0:
211,290,99636,2,0,L|217:189,1,75,0|0,3:0|1:0,0:0:0:0:
152,161,100065,2,0,L|329:145,2,150,0|8|0,3:0|0:0|1:0,0:0:0:0:
43,46,101351,5,4,1:0:0:0:
126,78,101565,1,0,3:0:0:0:
126,78,101779,2,0,P|165:64|212:67,1,75,0|0,3:0|3:0,0:0:0:0:
275,35,102208,2,0,P|313:49|347:81,1,75,0|4,1:0|3:0,0:0:0:0:
415,102,102636,2,0,P|435:137|440:184,1,75,4|0,3:0|3:0,0:0:0:0:
478,244,103065,2,0,P|470:284|444:323,1,75,0|4,1:0|3:0,0:0:0:0:
383,356,103494,2,0,L|276:347,1,75,0|0,3:0|3:0,0:0:0:0:
227,363,103922,2,0,L|238:214,1,150,2|2,1:0|1:0,0:0:0:0:
308,64,104779,5,4,1:0:0:0:
230,36,104994,1,0,3:0:0:0:
230,36,105208,2,0,P|178:27|137:43,1,75,0|0,1:0|3:0,0:0:0:0:
120,105,105636,2,0,P|74:131|53:170,1,75,8|0,0:0|3:0,0:0:0:0:
77,230,106065,2,0,P|59:279|67:322,1,75,4|0,3:0|3:0,0:0:0:0:
117,361,106494,1,4,1:2:0:0:
280,337,106922,2,0,L|364:341,1,75,2|2,0:0|0:0,0:0:0:0:
437,344,107351,2,0,B|423:288|423:288|439:183,1,150,0|4,0:0|0:1,0:0:0:0:
475,36,108208,5,4,0:1:0:0:
157,126,109065,2,0,L|164:219,1,75,2|0,0:0|0:0,0:0:0:0:
211,275,109494,1,2,0:0:0:0:
211,275,109708,1,2,0:0:0:0:
167,344,109922,2,0,P|92:318|51:165,1,225,4|0,0:0|0:0,0:0:0:0:
267,79,111208,2,0,L|370:85,1,75,0|0,3:0|3:0,3:3:0:0:
421,103,111636,6,0,P|422:59|363:1,2,112.5,2|2|2,0:0|0:0|0:0,0:0:0:0:
434,267,112708,1,0,0:0:0:0:
434,267,112922,2,0,P|386:250|347:257,1,75,2|2,0:0|0:0,0:0:0:0:
311,316,113351,6,0,P|285:279|305:193,2,112.5,4|0|2,0:0|0:0|0:0,0:0:0:0:
380,360,114208,1,4,0:0:0:0:
485,233,114636,1,0,3:0:0:0:
485,233,114851,2,0,P|478:164|331:66,1,225,0|0,3:0|0:0,3:3:0:0:
203,37,115922,6,0,P|190:77|197:124,1,75,2|0,0:0|0:0,0:0:0:0:
238,177,116351,2,0,P|251:217|244:264,1,75,2|2,0:0|0:0,0:0:0:0:
129,364,116994,2,0,L|303:373,1,150,2|0,0:3|0:0,0:0:0:0:
482,230,118065,2,0,L|473:138,1,75,0|0,3:0|3:0,3:3:0:0:
426,87,118494,6,0,P|361:68|261:97,1,150,2|0,0:0|0:0,0:0:0:0:
223,26,119136,2,0,P|199:69|236:156,1,150,2|0,0:0|0:0,0:0:0:0:
310,190,119779,2,0,P|321:231|315:274,1,75,2|2,0:0|0:0,0:0:0:0:
253,315,120208,6,0,P|188:334|88:305,1,150,4|0,0:0|0:0,0:0:0:0:
50,376,120850,2,0,P|26:333|63:246,1,150,0|0,0:0|3:0,0:0:0:0:
144,224,121494,1,0,3:0:0:0:
148,60,121922,5,8,0:0:0:0:
416,248,122779,1,4,3:0:0:0:
96,248,123637,1,4,3:0:0:0:
365,59,124494,1,4,3:0:0:0:
256,184,124922,1,0,3:0:0:0:
365,59,125351,5,4,3:0:0:0:
96,248,126208,1,4,3:0:0:0:
416,248,127066,1,4,3:0:0:0:
147,59,127923,1,4,3:0:0:0:
256,184,128351,1,0,3:0:0:0:
147,59,128779,6,0,P|77:26|5:50,1,150,8|0,0:0|1:0,0:0:0:0:
52,204,129636,2,0,P|117:236|188:217,1,150,4|0,3:0|3:0,0:0:0:0:
306,335,130494,2,0,L|288:172,1,150,4|0,3:0|1:0,0:0:0:0:
412,76,131351,2,0,L|430:239,2,150,4|0|0,0:0|3:0|1:0,1:1:0:0:
257,18,132636,5,0,1:0:0:0:
100,76,133065,2,0,L|89:170,1,75,0|0,1:0|1:0,0:0:0:0:
33,208,133493,1,2,0:0:0:0:
149,324,133922,6,0,L|312:306,1,150,0|0,0:0|0:0,0:0:0:0:
460,348,134780,6,0,L|466:306,1,25
388,216,135208,2,0,L|382:174,1,25
288,272,135636,5,4,1:0:0:0:
288,272,136065,1,2,0:3:0:0:
288,272,136494,2,0,P|242:301|132:279,1,165.000005035401,8|0,0:0|3:0,0:0:0:0:
56,324,137136,1,0,3:0:0:0:
8,248,137351,6,0,L|20:136,1,82.5000025177003,0|0,3:0|3:0,0:0:0:0:
80,101,137779,2,0,P|157:78|230:112,1,165.000005035401,4|8,3:0|0:0,0:0:0:0:
320,124,138422,1,2,3:1:0:0:
320,124,138636,1,4,1:2:0:0:
367,48,138851,1,2,3:1:0:0:
367,48,139065,5,6,1:1:0:0:
101,106,139708,1,2,0:3:0:0:
62,23,139922,2,0,L|65:200,1,165.000005035401,8|0,0:0|3:0,0:0:0:0:
33,273,140565,1,0,3:0:0:0:
101,332,140779,6,0,L|182:374,1,82.5000025177003,0|4,1:0|3:0,0:0:0:0:
261,344,141208,2,0,L|352:339,1,82.5000025177003,0|0,3:0|3:0,0:0:0:0:
434,339,141636,2,0,L|439:382,1,27.5000008392334,2|2,3:0|3:0,0:0:0:0:
495,256,142065,2,0,L|500:213,1,27.5000008392334,2|2,3:0|3:0,0:0:0:0:
392,132,142493,5,4,1:0:0:0:
121,169,143136,1,2,0:3:0:0:
47,114,143351,2,0,P|75:158|52:271,1,165.000005035401,8|0,0:0|3:0,0:0:0:0:
94,350,143994,1,0,3:0:0:0:
180,378,144208,6,0,P|225:371|255:342,1,82.5000025177003,0|0,3:0|3:0,0:0:0:0:
202,270,144636,2,0,P|257:294|358:274,1,165.000005035401,4|8,3:0|0:0,0:0:0:0:
435,229,145279,1,2,3:1:0:0:
435,229,145494,1,4,1:2:0:0:
367,168,145708,1,2,3:1:0:0:
367,168,145922,5,6,1:1:0:0:
96,202,146565,1,2,0:3:0:0:
48,281,146779,2,0,L|41:96,1,165.000005035401,8|0,0:0|3:0,0:0:0:0:
92,40,147422,1,0,3:0:0:0:
173,79,147636,6,0,P|219:88|274:72,1,82.5000025177003,2|4,0:0|3:0,0:0:0:0:
337,45,148065,2,0,P|383:36|438:52,1,82.5000025177003,2|2,0:0|0:3,0:0:0:0:
478,109,148494,2,0,P|481:165|416:114,1,165.000005035401,0|0,1:0|0:0,0:0:0:0:
67,99,163065,6,0,L|246:104,1,150,4|0,1:0|3:0,0:0:0:0:
298,87,163708,6,0,P|263:118|269:241,1,150,0|0,3:0|0:0,0:0:0:0:
376,326,164565,1,0,3:0:0:0:
376,326,164779,6,0,L|362:152,2,150,0|0|4,1:0|3:0|0:3,0:0:0:0:
130,360,166279,1,0,3:0:0:0:
130,360,166494,2,0,L|144:186,2,150,0|0|4,1:0|3:0|0:3,0:0:0:0:
317,45,168422,6,0,B|250:40|250:40|227:51|227:51|159:46,2,150,2|2|2,0:0|0:0|0:0,0:0:0:0:
398,30,169494,2,0,P|441:57|467:105,1,75,0|0,3:0|3:0,0:0:0:0:
495,147,169922,6,0,B|450:124|450:124|334:134,1,150,4|0,1:0|3:0,0:0:0:0:
272,107,170565,2,0,P|306:139|314:249,1,150,2|0,0:3|3:0,0:0:0:0:
179,326,171422,1,0,3:0:0:0:
179,326,171636,6,0,L|26:310,2,150,0|0|4,1:0|3:0|3:0,0:0:0:0:
327,127,173136,1,0,3:3:0:0:
327,127,173350,2,0,L|480:111,2,150,0|0|0,3:0|3:0|3:0,0:0:0:0:
175,60,174636,6,2,B|64:44|64:44|91:70,1,150,0|2,3:0|0:1,0:0:0:0:
24,316,176779,6,0,P|81:360|153:347,1,150,4|2,1:0|0:3,0:0:0:0:
196,276,177422,1,2,0:3:0:0:
272,304,177636,2,0,B|356:308|356:308|405:284|405:284|490:291,2,225,0|4|4,1:0|3:0|3:0,0:0:0:0:
115,357,179351,6,0,B|75:277|75:277|87:217,1,150,0|6,1:0|1:2,0:0:0:0:
220,124,180208,6,0,P|284:144|364:84,1,150,4|2,1:0|0:3,0:0:0:0:
396,36,180851,1,2,0:3:0:0:
472,68,181065,2,0,B|496:104|496:104|460:220,1,150,0|2,1:0|3:0,0:0:0:0:
492,284,181708,1,4,1:3:0:0:
436,344,181922,6,0,L|344:336,1,75,0|2,1:0|0:1,0:0:0:0:
302,278,182351,2,0,L|210:286,1,75,4|2,3:0|0:1,0:0:0:0:
160,328,182779,6,0,L|68:320,1,75,8|2,1:2|3:1,0:0:0:0:
108,240,183208,2,0,L|16:232,1,75,0|2,3:0|3:1,0:0:0:0:
59,155,183636,6,0,P|161:19|300:116,1,375,4|0,1:0|1:0,0:0:0:0:
380,96,184922,1,4,1:2:0:0:
452,228,185351,2,0,P|350:364|211:267,1,375,4|0,1:0|3:0,0:0:0:0:
132,288,186636,1,4,1:2:0:0:
76,132,187065,6,0,B|244:116|244:116|268:132|268:132|456:112,1,375,4|0,1:0|1:0,0:0:0:0:
502,171,188351,1,4,1:2:0:0:
423,315,188779,6,0,P|375:346|396:293,1,150,4|0,3:0|3:0,0:0:0:0:
251,214,189636,2,0,P|272:266|223:236,1,150,4|0,3:0|3:0,0:0:0:0:
104,352,190494,6,0,B|54:211|54:211|88:108,1,225,4|2,1:0|3:1,0:0:0:0:
77,56,191351,2,0,L|336:44,2,225,2|4|4,1:0|3:0|3:0,0:0:0:0:
208,156,193065,2,0,B|316:150|316:150|372:184,1,150,0|4,1:0|1:2,0:0:0:0:
464,48,193922,6,0,L|444:280,1,225,4|2,1:0|0:3,0:0:0:0:
388,331,194779,2,0,P|323:368|250:359,1,150,0|0,1:0|1:0,0:0:0:0:
192,300,195422,2,0,P|155:235|164:162,1,150,4|2,3:0|3:2,0:0:0:0:
223,104,196065,2,0,L|316:112,1,75,4|2,3:0|3:2,0:0:0:0:
356,168,196494,2,0,L|449:160,2,75,0|2|2,1:0|3:2|3:2,0:0:0:0:
436,312,197351,6,0,B|268:296|268:296|244:312|244:312|56:292,1,375,4|0,1:0|1:0,0:0:0:0:
0,244,198636,1,4,1:2:0:0:
67,90,199065,6,0,B|244:72|244:72|268:88|268:88|436:72,1,375,4|0,3:0|1:0,0:0:0:0:
504,120,200351,1,4,0:0:0:0:
452,276,200779,6,0,P|292:345|183:208,1,375,4|0,1:0|1:0,0:0:0:0:
256,164,202065,1,4,1:2:0:0:
132,56,202494,6,0,L|120:160,1,75,4|0,3:0|3:0,0:0:0:0:
65,188,202922,2,0,L|77:292,1,75,0|4,1:0|3:0,0:0:0:0:
128,324,203351,2,0,L|184:332,1,37.5,0|0,1:0|1:0,0:0:0:0:
252,241,203779,2,0,L|308:233,1,37.5,0|0,1:0|1:0,0:0:0:0:
376,323,204208,5,2,0:1:0:0:
