osu file format v14

[General]
AudioFilename: audio.mp3
AudioLeadIn: 0
PreviewTime: 75529
Countdown: 0
SampleSet: Soft
StackLeniency: 0.4
Mode: 0
LetterboxInBreaks: 0
WidescreenStoryboard: 1

[Editor]
Bookmarks: 24203,37903,51510,51617,96188,109903
DistanceSpacing: 3.2
BeatDivisor: 4
GridSize: 4
TimelineZoom: 3.499999

[Metadata]
Title:DDU-DU DDU-DU
TitleUnicode:뚜두뚜두
Artist:BLACKPINK
ArtistUnicode:BLACKPINK
Creator:Irreversible
Version:Sing, Daoski & Irre's BANGER
Source:
Tags:CharmCaster Stjpa Marianna Zetera Basti Sala- fanzhen fanzhen0019 -M4x Nhawak Voli Team Rocket Dissie Dimes Sing Daoski Collab Collaboration Lisa Rap Dance Thai Jisoo Jennie Badass Girl Inka Bird Hit You With That Rose Glitter Tank With Popcorn Scene d4
BeatmapID:1678000
BeatmapSetID:798691

[Difficulty]
HPDrainRate:6
CircleSize:3.8
OverallDifficulty:8.6
ApproachRate:9.4
SliderMultiplier:2.2
SliderTickRate:1

[Events]
//Background and Video events
0,0,"16ab049459.jpg",0,0
Video,-1710,"video.mp4"
//Break Periods
//Storyboard Layer 0 (Background)
//Storyboard Layer 1 (Fail)
//Storyboard Layer 2 (Pass)
//Storyboard Layer 3 (Foreground)
Sprite,Foreground,Centre,"Sing.png",320,240 M,0,208,,500,400 S,0,208,,0.22 F,0,208,1922,0,1 F,0,1922,35779,1 F,0,35779,36208,1,0
Sprite,Foreground,Centre,"Sing.png",320,240 M,0,208,,500,400 S,0,208,,0.22 F,0,208,1922,0,1 P,0,208,36208,A F,0,1922,35779,1 F,0,35779,36208,1,0
Sprite,Foreground,Centre,"Irre.png",320,240 M,0,36208,,500,400 S,0,36208,,0.22 F,0,36208,36636,0,1 F,0,36636,49493,1 F,0,49493,49922,1,0
Sprite,Foreground,Centre,"Irre.png",320,240 M,0,36208,,500,400 S,0,36208,,0.22 F,0,36208,36636,0,1 P,0,36208,49922,A F,0,36636,49493,1 F,0,49493,49922,1,0
Sprite,Foreground,Centre,"Sing.png",320,240 M,0,49922,,500,400 S,0,49922,,0.22 F,0,49922,50350,0,1 F,0,50350,148922,1 F,0,148922,149350,1,0
Sprite,Foreground,Centre,"Sing.png",320,240 P,0,36208,149350,A M,0,49922,,500,400 S,0,49922,,0.22 F,0,49922,50350,0,1 F,0,50350,148922,1 F,0,148922,149350,1,0
Sprite,Foreground,Centre,"Daoski.png",320,240 M,0,149350,,500,400 S,0,149350,,0.18 F,0,149350,149779,0,1 F,0,149779,176350,1 F,0,176350,176779,1,0
Sprite,Foreground,Centre,"Daoski.png",320,240 M,0,149350,,500,400 S,0,149350,,0.18 F,0,149350,149779,0,1 P,0,149350,178489,A F,0,149779,176350,1 F,0,176350,176779,1,0
Sprite,Foreground,Centre,"Sing.png",320,240 M,0,176779,,500,400 S,0,176779,,0.22 F,0,176779,177208,0,1 F,0,177208,203779,1 F,0,203779,204208,1,0
Sprite,Foreground,Centre,"Sing.png",320,240 M,0,176779,,500,400 S,0,176779,,0.22 F,0,176779,177208,0,1 P,0,176779,205918,A F,0,177208,203779,1 F,0,203779,204208,1,0
//Storyboard Sound Samples

[TimingPoints]
208,428.571428571429,4,2,1,10,1,0
208,-1000,4,2,1,10,0,0
2350,-333.333333333333,4,2,1,10,0,0
5350,-333.333333333333,4,2,1,20,0,0
8136,-57.1428571428571,4,2,1,40,0,0
8243,-57.1428571428571,4,2,1,5,0,0
8350,-57.1428571428571,4,2,1,40,0,0
8458,-57.1428571428571,4,2,1,5,0,0
8779,-66.6666666666667,4,2,1,60,0,0
9315,-66.6666666666667,4,2,1,5,0,0
9422,-66.6666666666667,4,2,1,60,0,0
9529,-66.6666666666667,4,2,1,5,0,0
9636,-66.6666666666667,4,2,1,60,0,0
11029,-66.6666666666667,4,2,1,5,0,0
11136,-66.6666666666667,4,2,1,60,0,0
11243,-66.6666666666667,4,2,1,5,0,0
11350,-66.6666666666667,4,2,1,60,0,0
11565,-66.6666666666667,4,2,1,40,0,0
11618,-66.6666666666667,4,2,1,45,0,0
11672,-66.6666666666667,4,2,1,50,0,0
11725,-66.6666666666667,4,2,1,55,0,0
11779,-66.6666666666667,4,2,1,60,0,0
12743,-66.6666666666667,4,2,1,5,0,0
12850,-66.6666666666667,4,2,1,60,0,0
12958,-66.6666666666667,4,2,1,5,0,0
13065,-66.6666666666667,4,2,1,60,0,0
14243,-66.6666666666667,4,2,1,5,0,0
14350,-66.6666666666667,4,2,1,60,0,0
14993,-57.1428571428571,4,2,1,60,0,0
15100,-57.1428571428571,4,2,1,5,0,0
15208,-57.1428571428571,4,2,1,60,0,0
15315,-57.1428571428571,4,2,1,5,0,0
15422,-57.1428571428571,4,2,1,60,0,0
15636,-66.6666666666667,4,2,1,60,0,0
16172,-66.6666666666667,4,2,1,5,0,0
16279,-66.6666666666667,4,2,1,60,0,0
16386,-66.6666666666667,4,2,1,5,0,0
16493,-66.6666666666667,4,2,1,60,0,0
17886,-66.6666666666667,4,2,1,5,0,0
17993,-66.6666666666667,4,2,1,60,0,0
18100,-66.6666666666667,4,2,1,5,0,0
18208,-66.6666666666667,4,2,1,60,0,0
18422,-66.6666666666667,4,2,1,40,0,0
18475,-66.6666666666667,4,2,1,45,0,0
18529,-66.6666666666667,4,2,1,50,0,0
18583,-66.6666666666667,4,2,1,55,0,0
18636,-66.6666666666667,4,2,1,60,0,0
19600,-66.6666666666667,4,2,1,5,0,0
19708,-66.6666666666667,4,2,1,60,0,0
19815,-66.6666666666667,4,2,1,5,0,0
19922,-66.6666666666667,4,2,1,60,0,0
20458,-66.6666666666667,4,2,1,5,0,0
20565,-66.6666666666667,4,2,1,60,0,0
21100,-66.6666666666667,4,2,1,5,0,0
21208,-66.6666666666667,4,2,1,60,0,0
22065,-133.333333333333,4,2,1,60,0,0
22279,-133.333333333333,4,2,1,60,0,0
22333,-133.333333333333,4,2,1,50,0,0
22386,-133.333333333333,4,2,1,40,0,0
22440,-133.333333333333,4,2,1,30,0,0
22493,-133.333333333333,4,2,1,60,0,0
22922,-200,4,2,1,60,0,0
23993,-133.333333333333,4,2,1,40,0,0
24047,-133.333333333333,4,2,1,45,0,0
24100,-133.333333333333,4,2,1,50,0,0
24154,-133.333333333333,4,2,1,55,0,0
24208,-133.333333333333,4,2,1,60,0,0
25922,-200,4,2,1,60,0,0
27422,-133.333333333333,4,2,1,40,0,0
27475,-133.333333333333,4,2,1,45,0,0
27529,-133.333333333333,4,2,1,50,0,0
27583,-133.333333333333,4,2,1,55,0,0
27636,-133.333333333333,4,2,1,60,0,0
30743,-133.333333333333,4,2,1,5,0,0
30850,-133.333333333333,4,2,1,60,0,0
32672,-133.333333333333,4,2,1,5,0,0
32779,-133.333333333333,4,2,1,60,0,0
33100,-133.333333333333,4,2,1,5,0,0
33208,-133.333333333333,4,2,1,60,0,0
34279,-133.333333333333,4,2,1,40,0,0
34333,-133.333333333333,4,2,1,45,0,0
34386,-133.333333333333,4,2,1,50,0,0
34440,-133.333333333333,4,2,1,55,0,0
34493,-133.333333333333,4,2,1,60,0,0
35350,-100,4,2,1,60,0,0
35779,-100,4,2,1,65,0,0
35993,-100,4,2,1,70,0,0
36208,-90.9090909090909,4,2,1,80,0,0
36261,-90.9090909090909,4,2,1,60,0,0
36636,-1000,4,2,1,70,0,0
36779,-1000,4,2,1,60,0,0
37065,-1000,4,2,1,70,0,0
37208,-1000,4,2,1,60,0,0
37708,-1000,4,2,1,5,0,0
37922,-400,4,2,1,60,0,0
37975,-400,4,2,1,5,0,0
38190,-400,4,2,1,60,0,0
38350,-222.222222222222,4,2,1,70,0,0
38493,-222.222222222222,4,2,1,60,0,0
38779,-222.222222222222,4,2,1,70,0,0
38922,-222.222222222222,4,2,1,60,0,0
39208,-1000,4,2,1,60,0,0
39529,-1000,4,2,1,5,0,0
39636,-400,4,2,1,80,0,0
39690,-400,4,2,1,5,0,0
40065,-222.222222222222,4,2,1,70,0,0
40208,-222.222222222222,4,2,1,60,0,0
40493,-222.222222222222,4,2,1,70,0,0
40636,-222.222222222222,4,2,1,60,0,0
41136,-144.927536231884,4,2,1,60,0,0
41243,-227.272727272727,4,2,1,60,0,0
41779,-100,4,2,1,70,0,0
41922,-100,4,2,1,60,0,0
42208,-100,4,2,1,70,0,0
42350,-100,4,2,1,60,0,0
42636,-222.222222222222,4,2,1,60,0,0
42958,-222.222222222222,4,2,1,5,0,0
43065,-144.927536231884,4,2,1,60,0,0
44672,-144.927536231884,4,2,1,5,0,0
44779,-144.927536231884,4,2,1,60,0,0
46386,-144.927536231884,4,2,1,5,0,0
46493,-66.6666666666667,4,2,1,60,0,0
46708,-144.927536231884,4,2,1,60,0,0
47779,-204.081632653061,4,2,1,60,0,0
48636,-344.827586206895,4,2,1,60,0,0
49493,-1000,4,2,1,60,0,0
49815,-1000,4,2,1,5,0,0
49922,-133.333333333333,4,2,1,60,0,0
50029,-133.333333333333,4,2,1,40,0,0
52922,-133.333333333333,4,2,1,30,0,0
53350,-133.333333333333,4,2,1,50,0,0
55065,-133.333333333333,4,2,1,60,0,0
56243,-133.333333333333,4,2,1,5,0,0
56350,-133.333333333333,4,2,1,40,0,0
56779,-133.333333333333,4,2,1,69,0,0
57636,-133.333333333333,4,2,1,40,0,0
59779,-133.333333333333,4,2,1,30,0,0
60208,-133.333333333333,4,2,1,50,0,0
61922,-133.333333333333,4,2,1,60,0,0
62779,-133.333333333333,4,2,1,30,0,0
62922,-133.333333333333,4,2,1,35,0,0
63065,-133.333333333333,4,2,1,40,0,0
63208,-133.333333333333,4,2,1,45,0,0
63350,-133.333333333333,4,2,1,50,0,0
63493,-133.333333333333,4,2,1,55,0,0
63636,-100,4,2,1,60,0,0
63743,-100,4,2,1,50,0,0
70493,-90.9090909090909,4,2,1,55,0,0
73065,-90.9090909090909,4,2,1,60,0,0
73493,-90.9090909090909,4,2,1,50,0,0
75636,-200,4,2,1,40,0,0
76493,-200,4,2,1,45,0,0
76565,-333.333333333333,4,2,1,40,0,0
76708,-333.333333333333,4,2,1,5,0,0
76815,-333.333333333333,4,2,1,5,0,0
76922,-333.333333333333,4,2,1,45,0,0
77029,-333.333333333333,4,2,1,40,0,0
77136,-333.333333333333,4,2,1,5,0,0
77243,-333.333333333333,4,2,1,5,0,0
77350,-66.6666666666667,4,2,1,80,0,0
77458,-66.6666666666667,4,2,1,70,0,0
77886,-66.6666666666667,4,2,1,5,0,0
77993,-66.6666666666667,4,2,1,70,0,0
78100,-66.6666666666667,4,2,1,5,0,0
78208,-66.6666666666667,4,2,1,70,0,0
79600,-66.6666666666667,4,2,1,5,0,0
79708,-66.6666666666667,4,2,1,70,0,0
79815,-66.6666666666667,4,2,1,5,0,0
79922,-66.6666666666667,4,2,1,70,0,0
80136,-66.6666666666667,4,2,1,50,0,0
80190,-66.6666666666667,4,2,1,55,0,0
80243,-66.6666666666667,4,2,1,60,0,0
80297,-66.6666666666667,4,2,1,65,0,0
80350,-66.6666666666667,4,2,1,70,0,0
81315,-66.6666666666667,4,2,1,5,0,0
81422,-66.6666666666667,4,2,1,70,0,0
81529,-66.6666666666667,4,2,1,5,0,0
81636,-66.6666666666667,4,2,1,70,0,0
83350,-66.6666666666667,4,2,1,60,0,0
83779,-66.6666666666667,4,2,1,50,0,0
84208,-66.6666666666667,4,2,1,70,0,0
84743,-66.6666666666667,4,2,1,5,0,0
84850,-66.6666666666667,4,2,1,70,0,0
84958,-66.6666666666667,4,2,1,5,0,0
85065,-66.6666666666667,4,2,1,70,0,0
86458,-66.6666666666667,4,2,1,5,0,0
86565,-66.6666666666667,4,2,1,70,0,0
86672,-66.6666666666667,4,2,1,5,0,0
86779,-66.6666666666667,4,2,1,70,0,0
86993,-66.6666666666667,4,2,1,50,0,0
87047,-66.6666666666667,4,2,1,55,0,0
87100,-66.6666666666667,4,2,1,60,0,0
87154,-66.6666666666667,4,2,1,65,0,0
87208,-66.6666666666667,4,2,1,70,0,0
88172,-66.6666666666667,4,2,1,5,0,0
88279,-66.6666666666667,4,2,1,70,0,0
88386,-66.6666666666667,4,2,1,5,0,0
88493,-66.6666666666667,4,2,1,70,0,0
89136,-66.6666666666667,4,2,1,70,0,0
89243,-66.6666666666667,4,2,1,60,0,0
89350,-66.6666666666667,4,2,1,50,0,0
89565,-66.6666666666667,4,2,1,45,0,0
89779,-66.6666666666667,4,2,1,40,0,0
89993,-66.6666666666667,4,2,1,35,0,0
90208,-66.6666666666667,4,2,1,30,0,0
90636,-500,4,2,1,10,0,0
91279,-250,4,2,1,15,0,0
91922,-250,4,2,1,20,0,0
92136,-166.666666666667,4,2,1,25,0,0
92779,-166.666666666667,4,2,1,30,0,0
92993,-125,4,2,1,35,0,0
93850,-57.1428571428571,4,2,1,60,0,0
93958,-57.1428571428571,4,2,1,5,0,0
94065,-57.1428571428571,4,2,1,60,0,0
94172,-57.1428571428571,4,2,1,5,0,0
94493,-76.9230769230769,4,2,1,80,0,1
94547,-76.9230769230769,4,2,1,60,0,1
94815,-76.9230769230769,4,2,1,5,0,1
94922,-76.9230769230769,4,2,1,60,0,1
96422,-76.9230769230769,4,2,1,60,0,1
96529,-76.9230769230769,4,2,1,5,0,1
96636,-76.9230769230769,4,2,1,60,0,1
97065,-133.333333333333,4,2,1,60,0,1
97600,-100,4,2,1,60,0,1
97922,-76.9230769230769,4,2,1,80,0,1
97975,-76.9230769230769,4,2,1,60,0,1
99958,-76.9230769230769,4,2,1,5,0,1
100065,-76.9230769230769,4,2,1,60,0,1
100493,-133.333333333333,4,2,1,60,0,1
100815,-133.333333333333,4,2,1,5,0,1
100922,-133.333333333333,4,2,1,60,0,1
101029,-100,4,2,1,60,0,1
101350,-71.4285714285714,4,2,1,80,0,1
101404,-71.4285714285714,4,2,1,60,0,1
101458,-71.4285714285714,4,2,1,5,0,1
101565,-71.4285714285714,4,2,1,60,0,1
101672,-71.4285714285714,4,2,1,5,0,1
101779,-71.4285714285714,4,2,1,60,0,1
102529,-71.4285714285714,4,2,1,5,0,1
102636,-71.4285714285714,4,2,1,60,0,1
103172,-71.4285714285714,4,2,1,5,0,1
103279,-71.4285714285714,4,2,1,60,0,1
103386,-71.4285714285714,4,2,1,5,0,1
103493,-71.4285714285714,4,2,1,60,0,1
104886,-71.4285714285714,4,2,1,5,0,1
104993,-71.4285714285714,4,2,1,60,0,1
105100,-71.4285714285714,4,2,1,5,0,1
105208,-71.4285714285714,4,2,1,60,0,1
106600,-71.4285714285714,4,2,1,5,0,1
106708,-71.4285714285714,4,2,1,60,0,1
107350,-133.333333333333,4,2,1,40,0,0
108208,-133.333333333333,4,2,1,60,0,0
108315,-133.333333333333,4,2,1,40,0,0
111208,-133.333333333333,4,2,1,30,0,0
111636,-133.333333333333,4,2,1,50,0,0
113350,-133.333333333333,4,2,1,60,0,0
114529,-133.333333333333,4,2,1,5,0,0
114636,-133.333333333333,4,2,1,40,0,0
115065,-133.333333333333,4,2,1,69,0,0
115922,-133.333333333333,4,2,1,40,0,0
118065,-133.333333333333,4,2,1,30,0,0
118493,-133.333333333333,4,2,1,50,0,0
120208,-133.333333333333,4,2,1,60,0,0
121065,-133.333333333333,4,2,1,30,0,0
121208,-133.333333333333,4,2,1,35,0,0
121350,-133.333333333333,4,2,1,40,0,0
121493,-133.333333333333,4,2,1,45,0,0
121636,-133.333333333333,4,2,1,50,0,0
121779,-133.333333333333,4,2,1,55,0,0
121922,-100,4,2,1,60,0,0
122029,-100,4,2,1,50,0,0
128779,-90.9090909090909,4,2,1,55,0,0
131350,-90.9090909090909,4,2,1,60,0,0
131779,-90.9090909090909,4,2,1,50,0,0
132208,-41.6666666666667,4,2,1,50,0,0
133493,-90.9090909090909,4,2,1,60,0,0
133922,-200,4,2,1,40,0,0
134779,-200,4,2,1,45,0,0
134850,-333.333333333333,4,2,1,40,0,0
134993,-333.333333333333,4,2,1,5,0,0
135100,-333.333333333333,4,2,1,5,0,0
135208,-333.333333333333,4,2,1,45,0,0
135279,-333.333333333333,4,2,1,40,0,0
135422,-333.333333333333,4,2,1,5,0,0
135636,-66.6666666666667,4,2,1,80,0,0
135743,-66.6666666666667,4,2,1,70,0,0
136172,-66.6666666666667,4,2,1,5,0,0
136279,-66.6666666666667,4,2,1,70,0,0
136386,-66.6666666666667,4,2,1,5,0,0
136493,-66.6666666666667,4,2,1,70,0,0
137886,-66.6666666666667,4,2,1,5,0,0
137993,-66.6666666666667,4,2,1,70,0,0
138100,-66.6666666666667,4,2,1,5,0,0
138208,-66.6666666666667,4,2,1,70,0,0
138422,-66.6666666666667,4,2,1,50,0,0
138475,-66.6666666666667,4,2,1,55,0,0
138529,-66.6666666666667,4,2,1,60,0,0
138583,-66.6666666666667,4,2,1,65,0,0
138636,-66.6666666666667,4,2,1,70,0,0
139600,-66.6666666666667,4,2,1,5,0,0
139708,-66.6666666666667,4,2,1,70,0,0
139815,-66.6666666666667,4,2,1,5,0,0
139922,-66.6666666666667,4,2,1,70,0,0
141636,-66.6666666666667,4,2,1,60,0,0
142065,-66.6666666666667,4,2,1,50,0,0
142493,-66.6666666666667,4,2,1,70,0,0
143029,-66.6666666666667,4,2,1,5,0,0
143136,-66.6666666666667,4,2,1,70,0,0
143243,-66.6666666666667,4,2,1,5,0,0
143350,-66.6666666666667,4,2,1,70,0,0
144743,-66.6666666666667,4,2,1,5,0,0
144850,-66.6666666666667,4,2,1,70,0,0
144958,-66.6666666666667,4,2,1,5,0,0
145065,-66.6666666666667,4,2,1,70,0,0
145279,-66.6666666666667,4,2,1,50,0,0
145333,-66.6666666666667,4,2,1,55,0,0
145386,-66.6666666666667,4,2,1,60,0,0
145440,-66.6666666666667,4,2,1,65,0,0
145493,-66.6666666666667,4,2,1,70,0,0
146458,-66.6666666666667,4,2,1,5,0,0
146565,-66.6666666666667,4,2,1,70,0,0
146672,-66.6666666666667,4,2,1,5,0,0
146779,-66.6666666666667,4,2,1,70,0,0
147315,-66.6666666666667,4,2,1,5,0,0
147422,-66.6666666666667,4,2,1,70,0,0
147636,-66.6666666666667,4,2,1,50,0,0
147850,-66.6666666666667,4,2,1,45,0,0
147958,-66.6666666666667,4,2,1,5,0,0
148065,-66.6666666666667,4,2,1,40,0,0
148279,-66.6666666666667,4,2,1,35,0,0
148493,-100,4,2,1,30,0,0
148922,-100,4,2,1,35,0,0
149029,-100,4,2,1,40,0,0
149136,-100,4,2,1,45,0,0
149350,-133.333333333333,4,2,1,60,0,0
150529,-133.333333333333,4,2,1,5,0,0
150636,-133.333333333333,4,2,1,60,0,0
151065,-100,4,2,1,60,0,0
151279,-100,4,2,1,5,0,0
151386,-100,4,2,1,60,0,0
151600,-100,4,2,1,5,0,0
151708,-100,4,2,1,60,0,0
152136,-100,4,2,1,5,0,0
152243,-100,4,2,1,60,0,0
152458,-100,4,2,1,5,0,0
152565,-100,4,2,1,60,0,0
152779,-133.333333333333,4,2,1,65,0,0
152886,-133.333333333333,4,2,1,60,0,0
154493,-133.333333333333,4,2,1,65,0,0
154600,-133.333333333333,4,2,1,60,0,0
155993,-100,4,2,1,60,0,0
156208,-133.333333333333,4,2,1,60,0,0
157386,-133.333333333333,4,2,1,5,0,0
157493,-133.333333333333,4,2,1,60,0,0
157922,-100,4,2,1,60,0,0
158136,-100,4,2,1,5,0,0
158243,-100,4,2,1,60,0,0
158458,-100,4,2,1,5,0,0
158565,-100,4,2,1,60,0,0
158993,-100,4,2,1,5,0,0
159100,-100,4,2,1,60,0,0
159315,-100,4,2,1,5,0,0
159422,-100,4,2,1,60,0,0
159636,-133.333333333333,4,2,1,65,0,0
159743,-133.333333333333,4,2,1,60,0,0
161136,-76.9230769230769,4,2,1,60,0,0
161350,-76.9230769230769,4,2,1,65,0,0
161458,-76.9230769230769,4,2,1,60,0,0
162636,-71.4285714285714,4,2,1,50,0,0
162743,-71.4285714285714,4,2,1,5,0,0
162850,-71.4285714285714,4,2,1,40,0,0
162958,-71.4285714285714,4,2,1,5,0,0
163065,-100,4,2,1,60,0,0
164779,-95.2380952380952,4,2,1,60,0,0
166493,-73.5294117647059,4,2,1,60,0,0
168208,-76.9230769230769,4,2,1,60,0,0
169493,-71.4285714285714,4,2,1,50,0,0
169600,-71.4285714285714,4,2,1,5,0,0
169708,-71.4285714285714,4,2,1,40,0,0
169815,-71.4285714285714,4,2,1,5,0,0
169922,-71.4285714285714,4,2,1,60,0,0
173136,-71.4285714285714,4,2,1,45,0,0
173350,-100,4,2,1,60,0,0
175065,-344.827586206897,4,2,1,30,0,0
175172,-344.827586206897,4,2,1,32,0,0
175279,-344.827586206897,4,2,1,36,0,0
175386,-344.827586206897,4,2,1,42,0,0
175493,-344.827586206897,4,2,1,50,0,0
175600,-344.827586206897,4,2,1,60,0,0
175708,-344.827586206897,4,2,1,50,0,0
175815,-344.827586206897,4,2,1,62,0,0
175922,-50,4,2,1,60,0,0
176029,-50,4,2,1,5,0,0
176136,-57.1428571428571,4,2,1,60,0,0
176243,-57.1428571428571,4,2,1,5,0,0
176350,-57.1428571428571,4,2,1,60,0,0
176458,-57.1428571428571,4,2,1,5,0,0
176779,-57.1428571428571,4,2,1,80,0,1
177100,-57.1428571428571,4,2,1,5,0,1
177208,-57.1428571428571,4,2,1,75,0,1
177315,-57.1428571428571,4,2,1,5,0,1
177422,-57.1428571428571,4,2,1,75,0,1
177529,-57.1428571428571,4,2,1,5,0,1
177636,-57.1428571428571,4,2,1,75,0,1
178279,-57.1428571428571,4,2,1,55,0,1
178333,-57.1428571428571,4,2,1,60,0,1
178386,-57.1428571428571,4,2,1,65,0,1
178440,-57.1428571428571,4,2,1,70,0,1
178493,-57.1428571428571,4,2,1,75,0,1
179565,-57.1428571428571,4,2,1,55,0,1
179618,-57.1428571428571,4,2,1,60,0,1
179672,-57.1428571428571,4,2,1,65,0,1
179725,-57.1428571428571,4,2,1,70,0,1
179779,-57.1428571428571,4,2,1,75,0,1
180315,-57.1428571428571,4,2,1,5,0,1
180422,-57.1428571428571,4,2,1,75,0,1
180529,-57.1428571428571,4,2,1,5,0,1
180636,-57.1428571428571,4,2,1,75,0,1
180743,-57.1428571428571,4,2,1,5,0,1
180850,-57.1428571428571,4,2,1,75,0,1
180958,-57.1428571428571,4,2,1,5,0,1
181065,-57.1428571428571,4,2,1,75,0,1
181708,-57.1428571428571,4,2,1,55,0,1
181761,-57.1428571428571,4,2,1,60,0,1
181815,-57.1428571428571,4,2,1,65,0,1
181868,-57.1428571428571,4,2,1,70,0,1
181922,-57.1428571428571,4,2,1,75,0,1
182779,-57.1428571428571,4,2,1,55,0,1
182833,-57.1428571428571,4,2,1,60,0,1
182886,-57.1428571428571,4,2,1,65,0,1
182940,-57.1428571428571,4,2,1,70,0,1
182993,-57.1428571428571,4,2,1,75,0,1
183636,-57.1428571428571,4,2,1,80,0,1
183850,-57.1428571428571,4,2,1,75,0,1
184815,-57.1428571428571,4,2,1,5,0,1
184922,-57.1428571428571,4,2,1,75,0,1
185886,-57.1428571428571,4,2,1,5,0,1
185993,-57.1428571428571,4,2,1,75,0,1
186100,-57.1428571428571,4,2,1,5,0,1
186208,-57.1428571428571,4,2,1,75,0,1
186315,-57.1428571428571,4,2,1,5,0,1
186422,-57.1428571428571,4,2,1,75,0,1
186529,-57.1428571428571,4,2,1,5,0,1
186636,-57.1428571428571,4,2,1,75,0,1
186743,-57.1428571428571,4,2,1,5,0,1
186850,-57.1428571428571,4,2,1,75,0,1
187065,-57.1428571428571,4,2,1,80,0,1
187279,-57.1428571428571,4,2,1,75,0,1
188243,-57.1428571428571,4,2,1,5,0,1
188350,-57.1428571428571,4,2,1,75,0,1
188886,-57.1428571428571,4,2,1,5,0,1
188993,-57.1428571428571,4,2,1,75,0,1
189100,-57.1428571428571,4,2,1,70,0,1
189208,-57.1428571428571,4,2,1,65,0,1
189422,-57.1428571428571,4,2,1,45,0,1
189475,-57.1428571428571,4,2,1,50,0,1
189529,-57.1428571428571,4,2,1,55,0,1
189583,-57.1428571428571,4,2,1,60,0,1
189636,-57.1428571428571,4,2,1,65,0,1
189850,-57.1428571428571,4,2,1,60,0,1
189904,-57.1428571428571,4,2,1,55,0,1
189958,-57.1428571428571,4,2,1,50,0,1
190065,-57.1428571428571,4,2,1,45,0,0
190279,-57.1428571428571,4,2,1,40,0,0
190493,-57.1428571428571,4,2,1,80,0,1
190922,-57.1428571428571,4,2,1,75,0,1
191243,-57.1428571428571,4,2,1,5,0,1
191350,-57.1428571428571,4,2,1,75,0,1
191993,-57.1428571428571,4,2,1,55,0,1
192047,-57.1428571428571,4,2,1,60,0,1
192100,-57.1428571428571,4,2,1,65,0,1
192154,-57.1428571428571,4,2,1,70,0,1
192208,-57.1428571428571,4,2,1,75,0,1
193279,-57.1428571428571,4,2,1,55,0,1
193333,-57.1428571428571,4,2,1,60,0,1
193386,-57.1428571428571,4,2,1,65,0,1
193440,-57.1428571428571,4,2,1,70,0,1
193493,-57.1428571428571,4,2,1,75,0,1
194029,-57.1428571428571,4,2,1,5,0,1
194136,-57.1428571428571,4,2,1,75,0,1
194243,-57.1428571428571,4,2,1,5,0,1
194350,-57.1428571428571,4,2,1,75,0,1
194458,-57.1428571428571,4,2,1,5,0,1
194565,-57.1428571428571,4,2,1,75,0,1
194672,-57.1428571428571,4,2,1,5,0,1
194779,-57.1428571428571,4,2,1,75,0,1
195422,-57.1428571428571,4,2,1,55,0,1
195475,-57.1428571428571,4,2,1,60,0,1
195529,-57.1428571428571,4,2,1,65,0,1
195583,-57.1428571428571,4,2,1,70,0,1
195636,-57.1428571428571,4,2,1,75,0,1
195850,-57.1428571428571,4,2,1,75,0,1
195958,-57.1428571428571,4,2,1,70,0,1
196065,-57.1428571428571,4,2,1,65,0,1
196279,-57.1428571428571,4,2,1,75,0,1
196386,-57.1428571428571,4,2,1,70,0,1
196493,-57.1428571428571,4,2,1,55,0,1
196547,-57.1428571428571,4,2,1,60,0,1
196600,-57.1428571428571,4,2,1,65,0,1
196654,-57.1428571428571,4,2,1,70,0,1
196708,-57.1428571428571,4,2,1,75,0,1
196922,-57.1428571428571,4,2,1,70,0,1
197029,-57.1428571428571,4,2,1,65,0,1
197136,-57.1428571428571,4,2,1,60,0,1
197190,-57.1428571428571,4,2,1,55,0,1
197243,-57.1428571428571,4,2,1,50,0,1
197350,-57.1428571428571,4,2,1,80,0,1
197565,-57.1428571428571,4,2,1,75,0,1
198529,-57.1428571428571,4,2,1,5,0,1
198636,-57.1428571428571,4,2,1,75,0,1
200243,-57.1428571428571,4,2,1,5,0,1
200350,-57.1428571428571,4,2,1,75,0,1
200458,-57.1428571428571,4,2,1,5,0,1
200565,-57.1428571428571,4,2,1,75,0,1
200779,-57.1428571428571,4,2,1,80,0,1
200993,-57.1428571428571,4,2,1,75,0,1
201958,-57.1428571428571,4,2,1,5,0,1
202065,-57.1428571428571,4,2,1,75,0,1
202600,-57.1428571428571,4,2,1,5,0,1
202708,-57.1428571428571,4,2,1,75,0,1
202815,-57.1428571428571,4,2,1,5,0,1
202922,-57.1428571428571,4,2,1,75,0,1
203029,-57.1428571428571,4,2,1,5,0,1
203136,-57.1428571428571,4,2,1,75,0,1
203243,-57.1428571428571,4,2,1,5,0,1
203350,-57.1428571428571,4,2,1,65,0,1
203779,-57.1428571428571,4,2,1,55,0,1
204208,-57.1428571428571,4,2,1,75,0,0

[Colours]
Combo1 : 255,117,145
Combo2 : 184,236,241
Combo3 : 143,165,252
Combo4 : 255,140,243

[HitObjects]
256,160,208,6,0,L|256:248,1,88,4|2,0:1|0:0,0:0:0:0:
256,248,2350,6,0,L|218:256,2,32.99999899292,0|0|2,0:0|0:0|0:0,0:0:0:0:
126,201,3422,2,0,L|151:229,2,32.99999899292,0|2|0,0:0|0:0|0:0,0:0:0:0:
151,338,4065,2,0,L|163:301,2,32.99999899292,2|0|2,0:0|0:0|0:0,0:0:0:0:
256,160,5350,6,0,L|256:64,1,65.9999979858399,2|0,0:0|0:0,0:0:0:0:
256,94,5993,2,0,L|294:102,1,32.99999899292,0|2,0:0|0:0,0:0:0:0:
386,47,6851,2,0,L|360:75,2,32.99999899292,0|2|0,0:0|0:0|0:0,0:0:0:0:
361,184,7494,2,0,L|348:147,2,32.99999899292,2|0|2,0:0|0:0|0:0,0:0:0:0:
449,165,8136,6,0,P|438:225|385:258,1,96.2500009179115,4|0,1:2|0:0,0:0:0:0:
288,100,8350,2,0,P|257:136|254:183,1,96.2500009179115,4|0,0:0|0:0,0:0:0:0:
15,21,8779,6,0,P|80:33|124:143,1,165.000006294251,4|0,1:0|0:0,0:0:0:0:
58,252,9100,1,0,3:0:0:0:
127,113,9208,2,0,L|114:209,1,82.5000031471254,2|0,0:3|0:0,0:0:0:0:
203,172,9422,2,0,L|216:268,1,82.5000031471254,2|0,0:3|0:0,0:0:0:0:
389,342,9636,5,8,0:0:0:0:
389,342,10065,1,0,3:0:0:0:
310,353,10279,2,0,L|256:362,2,41.2500015735627,0|0|0,3:0|3:0|3:0,3:0:0:0:
461,380,10493,5,0,3:0:0:0:
493,307,10600,1,0,3:0:0:0:
480,228,10707,1,0,3:0:0:0:
426,170,10814,1,0,3:0:0:0:
350,152,10922,2,0,P|322:114|309:53,1,82.5000031471254,4|0,3:0|0:0,0:0:0:0:
223,116,11136,2,0,P|225:68|255:13,1,82.5000031471254,2|0,0:3|0:0,0:0:0:0:
469,30,11350,5,8,0:0:0:0:
469,30,11565,2,0,L|509:36,4,41.2500015735627,2|0|0|0|4,3:1|3:0|3:0|3:0|1:2,3:0:0:0:
389,18,11993,1,2,3:1:0:0:
374,252,12208,6,2,B|267:222|328:297|172:240,1,165.000006294251,6|0,1:0|0:1,0:1:0:0:
162,316,12529,1,0,3:0:0:0:
199,172,12636,2,0,L|216:269,1,82.5000031471254,2|0,0:0|0:0,0:0:0:0:
64,359,12850,2,0,L|79:278,1,82.5000031471254,2|0,0:0|0:0,0:0:0:0:
0,101,13065,5,8,0:0:0:0:
0,101,13493,1,0,3:0:0:0:
68,0,13708,2,0,L|59:44,2,41.2500015735627,0|0|0,3:0|3:0|3:0,3:0:0:0:
11,191,13922,5,2,0:0:0:0:
212,30,14136,2,0,B|171:34|171:34|132:74,1,82.5000031471254,4|0,3:0|0:0,0:0:0:0:
162,316,14350,1,2,0:0:0:0:
59,40,14565,1,2,0:3:0:0:
289,167,14779,5,8,0:0:0:0:
289,167,14993,2,0,P|319:203|322:250,1,96.2500009179115,4|0,1:2|0:0,0:0:0:0:
128,232,15208,2,0,P|138:292|191:325,1,96.2500009179115,4|0,0:0|0:0,0:0:0:0:
247,233,15422,6,0,P|226:235|200:252,2,48.1250004589558,0|0|0,3:0|3:0|3:0,3:0:0:0:
374,316,15636,6,0,P|454:285|485:189,1,165.000006294251,4|0,1:0|0:0,0:0:0:0:
398,76,15958,1,0,3:0:0:0:
486,216,16065,2,0,L|468:121,1,82.5000031471254,2|0,0:3|0:0,0:0:0:0:
320,21,16279,2,0,L|305:103,1,82.5000031471254,2|0,0:3|0:0,0:0:0:0:
59,40,16493,5,8,0:0:0:0:
59,40,16922,2,0,P|98:80|147:94,1,82.5000031471254
185,42,17136,2,0,L|178:1,2,41.2500015735627,0|0|0,3:0|3:0|3:0,3:0:0:0:
274,42,17350,5,0,3:0:0:0:
195,52,17457,1,0,3:0:0:0:
133,100,17564,1,0,3:0:0:0:
104,174,17671,1,0,3:0:0:0:
116,251,17779,2,0,P|152:269|178:301,1,82.5000031471254,4|0,3:0|0:0,0:0:0:0:
254,185,17993,2,0,P|269:222|269:263,1,82.5000031471254,2|0,0:3|0:0,0:0:0:0:
0,384,18208,5,8,0:0:0:0:
0,384,18422,2,0,L|53:374,4,41.2500015735627,2|0|0|0|4,3:1|3:0|3:0|3:0|1:2,3:0:0:0:
115,357,18850,1,2,3:1:0:0:
44,130,19065,6,2,B|147:123|81:180|219:171,1,165.000006294251,6|0,1:0|0:1,0:1:0:0:
272,130,19386,1,0,3:0:0:0:
284,212,19493,2,0,L|271:118,1,82.5000031471254,2|0,0:3|0:0,0:0:0:0:
375,74,19708,2,0,L|364:156,1,82.5000031471254,2|0,0:3|0:0,0:0:0:0:
146,303,19922,5,8,0:0:0:0:
146,303,20350,2,0,P|193:277|214:229,1,82.5000031471254,0|0,3:0|0:0,0:0:0:0:
390,153,20565,2,0,L|398:193,2,41.2500015735627,0|0|0,3:0|3:0|3:0,3:0:0:0:
376,59,20779,5,2,0:0:0:0:
434,276,20993,2,0,B|393:284|393:284|342:261,1,82.5000031471254,4|0,3:0|0:0,0:0:0:0:
512,167,21208,1,2,0:0:0:0:
273,305,21422,1,2,0:3:0:0:
302,14,21636,5,8,0:0:0:0:
302,14,22065,2,2,B|253:52|253:52|280:170,1,165.000006294251,2|4,0:1|3:1,0:1:0:0:
193,326,22922,6,0,L|199:254,1,55,0|0,3:0|0:0,0:0:0:0:
113,321,23350,2,0,L|119:249,1,55,8|0,0:0|0:0,0:0:0:0:
0,99,23779,5,0,3:0:0:0:
77,116,23993,2,0,L|105:120,4,20.6250007867813,0|0|0|0|0,3:0|3:0|3:0|3:0|3:0,3:0:0:0:
174,135,24422,1,0,3:0:0:0:
113,321,24636,5,4,3:0:0:0:
192,305,24850,1,0,3:0:0:0:
271,290,25065,1,8,0:0:0:0:
497,325,25279,6,0,L|501:356,2,20.6250007867813,0|0|0,3:0|3:0|3:0,3:0:0:0:
434,276,25493,2,2,P|391:303|373:361,1,82.5000031471254,2|0,0:1|1:0,0:1:0:0:
254,130,25922,6,0,L|260:202,1,55,4|0,3:0|0:0,0:0:0:0:
174,135,26350,2,0,L|180:207,1,55
334,125,26779,2,0,L|340:197,1,55,8|0,0:0|0:0,0:0:0:0:
21,317,27208,5,0,3:0:0:0:
35,239,27422,2,0,L|39:211,4,20.6250007867813,0|0|0|0|0,3:0|3:0|3:0|3:0|3:0,3:0:0:0:
288,284,27850,5,4,3:0:0:0:
271,207,28065,1,0,3:0:0:0:
254,130,28279,1,0,3:0:0:0:
19,62,28493,6,0,P|62:89|80:147,1,82.5000031471254,8|0,0:0|1:0,0:0:0:0:
197,342,28922,2,0,L|207:286,1,41.2500015735627,0|0,3:0|0:0,0:0:0:0:
117,310,29136,2,0,L|112:274,2,20.6250007867813,0|0|0,3:0|3:0|3:0,3:0:0:0:
179,141,29350,6,0,L|165:232,1,82.5000031471254,4|0,3:0|0:0,0:0:0:0:
259,182,29779,2,0,L|273:273,1,82.5000031471254
347,197,30208,2,0,L|386:279,1,82.5000031471254,8|0,0:0|0:0,0:0:0:0:
512,373,30636,6,0,L|451:362,1,41.2500015735627,0|0,1:0|0:0,0:0:0:0:
394,347,30850,2,0,L|360:340,2,20.6250007867813,0|0|0,3:0|3:0|3:0,3:0:0:0:
466,107,31065,5,4,0:1:0:0:
388,128,31279,1,2,0:0:0:0:
271,263,31493,1,4,3:0:0:0:
349,242,31707,1,2,0:0:0:0:
194,7,31922,5,0,1:0:0:0:
186,86,32136,2,0,L|184:106,2,20.6250007867813,0|0|0,3:0|3:0|3:0,3:0:0:0:
1,25,32350,2,0,L|22:159,1,123.750004720688,2|2,0:1|0:0,0:0:0:0:
218,182,32779,6,0,P|169:145|108:143,1,123.750004720688,4|0,3:1|0:0,0:0:0:0:
157,305,33208,2,0,P|156:250|130:212,1,82.5000031471254,0|0,1:0|3:0,0:0:0:0:
135,56,33636,2,0,P|57:75|19:146,1,165.000006294251,4|0,3:2|1:0,0:0:0:0:
132,381,34279,6,0,L|96:387,4,20.6250007867813,0|0|0|0|0,3:0|3:0|3:0|3:0|3:0,3:0:0:0:
212,366,34708,1,4,3:0:0:0:
136,170,34922,2,0,L|232:183,1,82.5000031471254,2|0,0:0|3:0,0:0:0:0:
298,383,35350,6,0,B|302:345|302:345|284:303,2,73.3333333333333,0|0|0,1:0|3:0|3:0,0:0:0:0:
204,279,35779,2,0,L|193:349,1,55,0|0,1:0|0:0,0:0:0:0:
111,255,35993,2,0,L|119:304,3,27.5,0|0|0|0,0:0|3:0|3:0|3:0,3:0:0:0:
26,239,36208,6,0,P|101:225|159:102,1,181.500005538941,4|0,0:1|0:0,0:0:0:0:
263,114,36636,5,0,1:0:0:0:
195,35,36779,1,0,3:0:0:0:
298,16,36922,1,0,3:0:0:0:
276,116,37065,5,0,1:0:0:0:
223,26,37208,1,0,3:0:0:0:
327,25,37351,1,0,3:0:0:0:
288,120,37493,6,0,L|290:136,1,16.5,0|0,3:0|0:0,0:0:0:0:
259,183,37922,2,0,L|257:191,1,6.875,2|0,0:0|0:0,0:0:0:0:
416,328,38208,1,0,0:0:0:0:
416,328,38350,6,0,L|455:322,2,32.99999899292,0|0|0,1:0|3:0|3:0,0:0:0:0:
316,352,38779,2,0,L|276:345,2,32.99999899292,0|0|0,1:0|3:0|3:0,0:0:0:0:
96,328,39208,6,0,L|94:312,1,16.5,4|0,0:2|0:0,0:0:0:0:
125,265,39636,2,0,L|127:257,1,6.875,4|0,0:1|0:0,0:0:0:0:
391,34,40065,5,0,1:0:0:0:
279,47,40208,1,0,3:0:0:0:
346,142,40350,1,0,3:0:0:0:
404,24,40493,5,0,1:0:0:0:
265,40,40636,1,0,3:0:0:0:
348,158,40779,1,0,3:0:0:0:
404,24,40922,5,0,3:0:0:0:
124,120,41136,2,0,L|97:118,2,18.9750000289536,4|0|0,3:0|0:0|3:0,3:0:0:0:
183,64,41350,5,0,3:0:0:0:
260,300,41565,1,4,3:0:0:0:
100,368,41779,6,0,P|67:351|30:350,1,74.2499977340699,0|0,1:0|3:0,0:0:0:0:
348,308,42065,1,0,3:0:0:0:
339,142,42208,5,0,1:0:0:0:
257,295,42350,1,0,3:0:0:0:
415,366,42493,1,0,3:0:0:0:
272,216,42636,6,0,P|238:216|195:243,1,74.2499977340699,4|0,0:0|0:0,0:0:0:0:
203,234,43065,1,4,0:1:0:0:
443,270,43279,5,2,0:3:0:0:
314,68,43493,2,0,P|369:51|415:18,2,113.850000173721,0|2|0,1:0|0:0|0:0,0:0:0:0:
199,118,44350,2,0,P|156:78|105:55,1,113.850000173721,4|0,0:0|0:0,0:0:0:0:
105,55,44779,6,0,L|94:-2,3,37.9500000579071,2|2|2|2,0:3|0:3|0:3|0:3,0:0:0:0:
105,55,45208,6,0,P|85:108|83:164,2,113.850000173721,4|2|0,3:0|0:0|0:0,0:0:0:0:
407,329,46065,2,0,P|426:275|428:219,1,113.850000173721,4|0,0:0|0:0,0:0:0:0:
428,219,46493,6,0,P|407:300|363:373,1,165.000006294251,4|0,0:1|3:0,0:0:0:0:
272,352,46815,5,0,3:0:0:0:
272,352,46922,2,0,L|148:344,2,113.850000173721,2|2|0,0:0|0:0|0:0,0:0:0:0:
264,184,47779,2,0,L|354:178,2,80.8499992597962,0|2|0,3:2|0:0|0:0,0:0:0:0:
84,219,48636,6,0,L|29:215,2,47.8500014602662,2|2|0,0:0|0:0|0:0,0:0:0:0:
361,262,49493,2,0,L|381:260,1,16.5,2|0,0:0|0:0,0:0:0:0:
361,262,49922,6,0,P|387:131|264:184,1,330.000012588501,4|2,0:1|0:0,0:0:0:0:
289,346,50993,2,0,P|290:305|272:261,1,82.5000031471254,0|2,0:0|0:0,0:0:0:0:
375,384,51422,1,2,0:0:0:0:
495,185,51636,6,0,B|297:151|393:283|168:218,1,330.000012588501,4|0,0:0|0:0,0:0:0:0:
181,222,52922,2,0,L|178:253,4,20.6250007867813,0|0|0|0|0,3:0|3:0|3:0|3:0|3:0,3:0:0:0:
99,292,53350,6,0,P|93:214|78:139,1,137.500005245209,2|2,0:0|0:0,0:0:0:0:
248,104,53993,2,0,P|251:165|278:272,1,165.000006294251,2|0,0:0|0:0,0:0:0:0:
82,155,54636,2,0,P|127:136|155:110,1,82.5000031471254,2|2,0:0|0:0,0:0:0:0:
329,68,55065,6,0,P|293:32|207:0,2,123.750004720688,4|0|2,0:0|0:0|0:0,0:0:0:0:
34,79,55922,2,0,P|94:66|145:32,1,123.750004720688,4|0,0:0|0:0,0:0:0:0:
227,2,56350,6,0,L|232:37,2,20.6250007867813,0|0|0,3:0|3:0|3:0,3:0:0:0:
308,60,56565,2,0,L|314:96,2,20.6250007867813,0|0|0,3:0|3:0|3:0,3:0:0:0:
372,191,56779,6,0,B|397:120|397:120|215:102|215:102|230:191,1,330.000012588501,4|2,0:0|0:0,0:0:0:0:
46,329,57850,2,0,L|132:315,1,82.5000031471254,0|2,0:0|0:0,0:0:0:0:
142,150,58279,1,2,0:0:0:0:
339,359,58493,6,0,B|229:343|229:343|186:239|186:239|63:225,1,330.000012588501,2|0,0:3|0:0,0:0:0:0:
80,226,59779,2,0,L|75:196,4,20.6250007867813,0|0|0|0|0,3:0|3:0|3:0|3:0|3:0,3:0:0:0:
214,384,60208,6,0,L|226:228,1,144.375005507469,2|2,0:0|0:0,0:0:0:0:
339,359,60850,2,0,L|307:174,1,165.000006294251,2|0,0:0|0:0,0:0:0:0:
111,287,61493,2,0,L|151:204,1,82.5000031471254,2|2,0:0|0:0,0:0:0:0:
382,136,61922,6,0,B|313:92|313:92|230:110,1,165.000006294251,4|0,0:0|0:0,0:0:0:0:
456,70,62565,1,0,0:0:0:0:
512,179,62779,6,0,L|505:129,5,27.5000010490418,0|0|0|0|0|0,3:0|3:0|3:0|3:0|3:0|3:0,3:0:0:0:
428,227,63208,2,0,L|435:177,5,27.5000010490418,0|0|0|0|0|0,3:0|3:0|3:0|3:0|3:0|3:0,3:0:0:0:
442,343,63636,6,0,P|406:242|310:196,1,220,8|0,0:0|3:0,0:0:0:0:
310,196,64172,1,0,3:0:0:0:
310,196,64279,1,0,3:0:0:0:
391,5,64493,2,0,P|325:26|275:111,1,165,4|2,3:0|0:0,0:0:0:0:
275,104,64922,2,0,P|206:96|161:59,1,110,0|2,0:0|0:3,0:0:0:0:
0,161,65350,6,0,B|104:144|38:216|201:174,1,165,4|2,3:0|0:0,0:0:0:0:
158,183,65779,2,0,L|177:54,1,110,0|2,0:0|0:3,0:0:0:0:
272,213,66208,2,0,L|255:20,1,165,4|2,3:0|0:0,0:0:0:0:
257,48,66636,2,0,L|323:32,1,55,0|0,3:0|3:0,0:0:0:0:
378,136,66850,5,0,3:0:0:0:
378,136,66958,1,0,3:0:0:0:
378,136,67065,2,0,P|456:106|514:37,2,165,4|2|2,3:0|0:0|0:0,0:0:0:0:
272,213,67922,2,0,P|217:152|140:123,1,165,4|2,3:0|0:0,0:0:0:0:
140,123,68350,2,0,P|94:183|46:205,1,110,0|0,3:0|3:0,0:0:0:0:
224,362,68779,6,0,B|179:330|179:330|162:249,1,110,4|2,3:0|0:0,0:0:0:0:
284,141,69208,2,0,B|278:195|278:195|216:250,1,110,0|2,1:0|0:0,0:0:0:0:
64,198,69636,2,0,B|113:175|113:175|192:201,1,110,4|0,3:0|3:0,0:0:0:0:
294,317,70065,6,0,L|299:267,2,27.5,0|0|0,3:0|3:0|3:0,3:0:0:0:
377,327,70279,2,0,L|382:277,2,27.5,0|0|0,3:0|3:0|3:0,3:0:0:0:
493,127,70493,6,0,P|403:149|353:236,1,181.500005538941,8|0,0:0|0:0,0:0:0:0:
355,219,70922,2,0,P|293:254|216:250,1,121.000003692627,0|8,1:0|3:0,0:0:0:0:
26,101,71350,5,4,3:0:0:0:
67,277,71565,1,0,3:0:0:0:
200,154,71779,1,0,3:0:0:0:
200,154,71886,1,0,3:0:0:0:
200,154,71994,1,0,3:0:0:0:
200,154,72100,1,0,3:0:0:0:
200,154,72208,6,0,P|172:213|156:267,1,121.000003692627,4|0,3:0|0:0,0:0:0:0:
275,95,72636,2,0,P|237:41|199:0,1,121.000003692627,0|2,1:0|0:3,0:0:0:0:
288,189,73065,2,0,P|353:183|407:170,1,121.000003692627,4|0,0:0|3:0,0:0:0:0:
471,348,73493,6,0,L|430:340,2,30.2500009231568,0|0|0,3:0|3:0|3:0,3:0:0:0:
486,268,73708,2,0,L|445:260,2,30.2500009231568,0|0|0,3:0|3:0|3:0,3:0:0:0:
360,370,73922,6,0,L|349:294,1,60.5000018463135,0|0,1:0|0:0,0:0:0:0:
278,377,74136,2,0,L|267:301,1,60.5000018463135,0|0,1:0|0:0,0:0:0:0:
74,259,74350,6,0,L|85:183,1,60.5000018463135,0|0,1:0|0:0,0:0:0:0:
156,266,74564,2,0,L|167:190,1,60.5000018463135,0|0,1:0|0:0,0:0:0:0:
386,26,74779,5,0,1:0:0:0:
326,26,74886,1,0,1:0:0:0:
275,58,74993,1,0,1:0:0:0:
248,111,75100,1,0,1:0:0:0:
253,171,75208,2,0,L|297:176,6,30.2500009231568,0|0|0|0|0|0|0,3:0|3:0|3:0|3:0|3:0|3:0|3:0,3:0:0:0:
156,151,75636,6,0,L|164:206,1,55
74,160,76065,2,0,L|82:215,1,55
0,358,76493,5,0,0:0:0:0:
0,358,76565,2,0,L|3:335,1,21.9999993286133
138,333,76922,1,0,0:0:0:0:
138,333,76993,2,0,L|140:312,1,21.9999993286133
276,308,77350,6,0,B|232:337|232:337|251:203,1,165.000006294251,4|0,1:0|0:0,0:0:0:0:
209,155,77672,1,0,3:0:0:0:
247,225,77779,2,0,L|344:210,1,82.5000031471254,2|0,0:3|0:0,0:0:0:0:
362,134,77993,2,0,L|280:120,1,82.5000031471254,2|0,0:3|0:0,0:0:0:0:
347,363,78208,5,8,0:0:0:0:
347,363,78636,1,0,3:0:0:0:
427,352,78850,2,0,L|480:343,2,41.2500015735627,0|0|0,3:0|3:0|3:0,3:0:0:0:
276,308,79065,5,0,3:0:0:0:
274,228,79172,1,0,3:0:0:0:
313,159,79279,1,0,3:0:0:0:
383,122,79386,1,0,3:0:0:0:
462,126,79493,2,0,P|439:89|430:25,1,82.5000031471254,4|0,3:0|0:0,0:0:0:0:
262,77,79708,2,0,P|268:33|302:-20,1,82.5000031471254,2|0,0:3|0:0,0:0:0:0:
390,267,79922,5,8,0:0:0:0:
390,267,80136,2,0,L|443:260,2,41.2500015735627,2|0|0,3:1|3:0|3:0,3:0:0:0:
390,267,80350,1,4,1:2:0:0:
511,250,80565,1,2,3:1:0:0:
262,77,80779,6,2,B|205:69|205:69|163:102|163:102|89:92,1,165.000006294251,6|0,1:0|0:0,0:1:0:0:
46,142,81100,1,0,3:0:0:0:
17,48,81208,2,0,L|32:138,1,82.5000031471254,2|0,0:3|0:0,0:0:0:0:
124,178,81422,2,0,L|109:268,1,82.5000031471254,2|0,0:3|0:0,0:0:0:0:
233,384,81636,5,8,0:0:0:0:
233,384,82065,1,0,3:0:0:0:
243,302,82279,2,0,L|249:256,2,41.2500015735627,0|0|0,3:0|3:0|3:0,3:0:0:0:
96,356,82493,5,0,1:0:0:0:
351,242,82708,2,0,B|364:279|364:279|354:320,1,82.5000031471254,4|0,3:0|0:0,0:0:0:0:
149,235,82922,1,0,3:0:0:0:
382,156,83136,1,0,3:0:0:0:
107,148,83350,5,2,3:0:0:0:
107,148,83422,1,2,3:0:0:0:
431,79,83779,5,2,3:0:0:0:
431,79,83850,1,2,3:0:0:0:
296,172,83993,6,0,L|290:222,2,41.2500015735627,0|0|0,3:0|3:0|3:0,3:0:0:0:
296,172,84208,6,0,B|337:200|337:200|316:73,1,165.000006294251,4|0,1:0|0:0,0:0:0:0:
363,19,84529,1,0,3:0:0:0:
318,86,84636,2,0,L|237:72,1,82.5000031471254,2|0,0:3|0:0,0:0:0:0:
413,168,84850,2,0,L|494:153,1,82.5000031471254,2|0,0:3|0:0,0:0:0:0:
164,312,85065,5,8,0:0:0:0:
164,312,85493,1,0,3:0:0:0:
85,322,85708,2,0,L|37:328,2,41.2500015735627,0|0|0,3:0|3:0|3:0,3:0:0:0:
233,357,85922,5,0,3:0:0:0:
260,283,86029,1,0,3:0:0:0:
240,207,86136,1,0,3:0:0:0:
179,158,86243,1,0,3:0:0:0:
100,154,86350,2,0,P|90:193|67:228,1,82.5000031471254,4|0,3:0|0:0,0:0:0:0:
242,94,86565,2,0,P|259:131|264:172,1,82.5000031471254,2|0,0:3|0:0,0:0:0:0:
0,42,86779,5,8,0:0:0:0:
0,42,86993,2,0,L|53:52,2,41.2500015735627,2|0|0,3:1|3:0|3:0,3:0:0:0:
0,42,87208,1,4,1:2:0:0:
116,66,87422,1,2,3:1:0:0:
367,124,87636,6,2,B|310:142|310:142|293:188|293:188|216:216,1,165.000006294251,6|0,1:0|0:0,0:1:0:0:
167,174,87958,1,0,3:0:0:0:
216,44,88065,2,0,L|231:124,1,82.5000031471254,2|0,0:3|0:0,0:0:0:0:
151,254,88279,2,0,L|166:173,1,82.5000031471254,2|0,0:3|0:0,0:0:0:0:
441,167,88493,5,8,0:0:0:0:
441,167,88922,2,0,P|390:204|370:245,1,82.5000031471254
204,374,89136,5,0,0:0:0:0:
204,374,89243,1,0,0:0:0:0:
204,374,89350,1,2,0:0:0:0:
147,292,89565,1,2,0:3:0:0:
206,213,89779,1,2,0:0:0:0:
300,246,89993,1,0,3:0:0:0:
298,345,90208,1,0,0:0:0:0:
298,345,90636,6,0,L|349:350,1,44,0|4,0:0|0:1,0:0:0:0:
419,357,91279,6,0,L|425:309,2,44
189,167,91922,5,4,0:1:0:0:
147,292,92136,2,0,L|137:217,2,65.9999979858399
337,97,92779,5,4,0:1:0:0:
376,243,92993,2,0,L|386:155,2,88
189,44,93636,37,0,0:0:0:0:
189,44,93850,2,0,P|158:87|163:150,1,96.2500009179115,4|0,1:2|0:0,0:0:0:0:
337,97,94065,2,0,P|332:144|303:181,1,96.2500009179115,4|0,0:0|0:0,0:0:0:0:
0,178,94493,38,0,B|68:173|68:173|115:226|115:226|216:222,1,214.49999018097,4|0,1:0|0:0,0:0:0:0:
241,284,94922,5,0,3:0:0:0:
199,141,95029,1,0,3:0:0:0:
290,224,95136,5,0,3:0:0:0:
307,146,95243,1,0,3:0:0:0:
370,204,95350,6,0,L|402:174,2,35.749998363495,0|0|2,1:0|0:0|0:0,0:0:0:0:
512,170,95565,2,0,L|470:157,2,35.749998363495,4|0|2,1:3|0:0|0:0,0:0:0:0:
412,65,95779,2,0,L|421:107,6,35.749998363495,4|0|4|0|0|0|0,1:3|0:0|0:0|0:0|0:0|0:0|0:0,0:0:0:0:
343,14,96208,6,0,P|299:49|283:91,1,71.4999967269899,0|0,3:0|0:0,0:0:0:0:
147,93,96422,2,0,P|191:128|207:170,1,71.4999967269899,0|0,1:0|0:0,0:0:0:0:
270,278,96636,2,0,P|272:207|307:146,1,142.99999345398,0|0,3:0|1:0,0:0:0:0:
0,280,97065,6,0,L|92:258,1,82.5000031471254,8|0,3:2|3:0,0:0:0:0:
91,114,97493,1,0,1:0:0:0:
91,114,97600,2,0,L|197:140,1,110,4|0,0:0|3:0,0:0:0:0:
334,384,97922,6,0,P|316:288|222:248,1,142.99999345398,4|0,1:0|3:0,0:0:0:0:
201,303,98243,1,0,0:0:0:0:
202,220,98350,2,0,L|214:310,1,71.4999967269899,0|2,3:0|0:0,0:0:0:0:
294,190,98565,2,0,L|282:280,1,71.4999967269899,0|2,3:0|0:0,0:0:0:0:
374,227,98779,5,0,1:0:0:0:
395,146,98886,1,0,3:0:0:0:
223,139,98993,5,0,3:0:0:0:
202,220,99100,1,0,3:0:0:0:
291,61,99208,6,0,L|297:101,6,35.749998363495,4|0|0|0|0|0|0,3:0|3:0|3:0|3:0|3:0|3:0|3:0,3:0:0:0:
153,16,99636,6,0,P|187:29|218:75,1,71.4999967269899,0|0,3:0|0:0,0:0:0:0:
434,23,99850,2,0,P|400:36|369:82,1,71.4999967269899,0|0,1:0|0:0,0:0:0:0:
252,274,100065,2,0,P|252:203|223:139,1,142.99999345398,0|0,3:0|1:0,0:0:0:0:
512,353,100493,6,0,L|385:323,1,123.750004720688,8|0,0:0|0:0,0:0:0:0:
405,170,100922,1,0,1:0:0:0:
405,170,101029,2,0,L|296:193,1,110,4|0,0:0|3:0,0:0:0:0:
145,384,101350,6,0,P|172:357|183:318,1,76.9999976501466,4|0,1:0|0:0,0:0:0:0:
277,344,101565,2,0,P|273:305|251:272,1,76.9999976501466,0|0,3:0|0:0,0:0:0:0:
123,254,101779,5,0,3:0:0:0:
115,178,101886,1,0,3:0:0:0:
152,112,101993,1,0,3:0:0:0:
220,77,102100,1,0,3:0:0:0:
295,87,102208,6,0,L|315:190,1,76.9999976501466,0|0,1:0|3:0,0:0:0:0:
409,51,102422,2,0,L|389:154,1,76.9999976501466,4|0,3:0|0:0,0:0:0:0:
230,187,102636,5,4,3:0:0:0:
435,272,102743,1,0,3:0:0:0:
293,246,102850,5,0,3:0:0:0:
372,213,102958,1,0,3:0:0:0:
277,344,103065,6,0,L|175:326,1,76.9999976501466,0|0,1:0|0:0,0:0:0:0:
152,141,103279,2,0,L|50:159,1,76.9999976501466,4|0,3:0|0:0,0:0:0:0:
8,298,103493,5,0,3:0:0:0:
20,219,103600,1,0,3:0:0:0:
82,268,103708,1,0,3:0:0:0:
38,266,103815,1,0,3:0:0:0:
38,266,103922,5,2,1:0:0:0:
230,187,104350,1,2,1:0:0:0:
150,378,104779,6,0,P|130:328|91:297,1,76.9999976501466,4|0,1:0|0:0,0:0:0:0:
242,261,104993,2,0,P|194:235|144:236,1,76.9999976501466,0|0,3:0|0:0,0:0:0:0:
21,267,105208,5,0,1:0:0:0:
96,258,105315,1,0,3:0:0:0:
162,218,105422,1,0,3:0:0:0:
204,155,105529,1,0,3:0:0:0:
214,78,105636,6,0,L|204:-8,1,76.9999976501466,8|0,0:0|3:0,0:0:0:0:
300,112,105850,2,0,L|310:26,1,76.9999976501466,0|0,3:0|3:0,0:0:0:0:
284,200,106065,5,4,3:0:0:0:
284,200,106172,1,0,3:0:0:0:
388,115,106279,5,0,3:0:0:0:
388,115,106386,1,0,3:0:0:0:
412,260,106493,6,0,P|387:234|368:197,1,76.9999976501466,4|0,1:2|0:0,0:0:0:0:
464,193,106708,2,0,P|464:170|472:145,2,38.4999988250733,4|0|0,3:0|3:0|3:0,3:0:0:0:
512,357,106922,6,0,L|407:335,1,76.9999976501466,2|2,0:0|0:0,0:0:0:0:
368,197,107136,2,0,L|263:219,1,76.9999976501466,2|2,0:0|0:0,0:0:0:0:
195,281,107350,6,0,P|233:246|249:109,1,165.000006294251,0|4,0:0|0:1,0:0:0:0:
2,137,108208,6,0,B|67:96|67:96|88:278|88:278|13:265,1,330.000012588501,4|2,0:1|0:0,0:0:0:0:
162,344,109279,2,0,L|177:253,1,82.5000031471254,0|2,0:0|0:0,0:0:0:0:
292,212,109708,1,2,0:0:0:0:
111,166,109922,6,0,B|160:161|199:147|199:147|257:254|257:254|321:232|386:248,1,330.000012588501,4|0,0:0|0:0,0:0:0:0:
373,245,111208,2,0,L|378:215,4,20.6250007867813,0|0|0|0|0,3:0|3:0|3:0|3:0|3:0,3:0:0:0:
431,312,111636,6,0,B|477:274|477:274|467:191,1,137.500005245209,2|2,0:0|0:0,0:0:0:0:
247,80,112279,2,0,B|303:111|303:111|289:232,1,165.000006294251,2|0,0:0|0:0,0:0:0:0:
345,329,112922,2,0,L|257:310,1,82.5000031471254,2|2,0:0|0:0,0:0:0:0:
91,268,113350,6,0,L|225:241,2,123.750004720688,4|0|2,0:0|0:0|0:0,0:0:0:0:
115,67,114208,2,0,B|158:101|158:101|148:177,1,123.750004720688,4|0,0:0|0:0,0:0:0:0:
149,169,114636,6,0,L|115:178,2,20.6250007867813,0|0|0,3:0|3:0|3:0,3:0:0:0:
53,193,114850,2,0,L|18:201,2,20.6250007867813,0|0|0,3:0|3:0|3:0,3:0:0:0:
91,268,115065,6,0,B|3:321|3:321|34:84,1,330.000012588501,4|2,0:0|0:0,0:0:0:0:
194,45,116136,2,0,L|88:74,1,82.5000031471254,0|2,0:0|0:0,0:0:0:0:
212,243,116565,2,0,L|291:221,1,82.5000031471254,2|0,0:0|0:0,0:0:0:0:
282,79,116993,6,0,P|319:29|338:140,1,247.500009441376,2|0,0:3|0:0,0:0:0:0:
357,136,118065,2,0,L|365:170,4,20.6250007867813,0|0|0|0|0,3:0|3:0|3:0|3:0|3:0,3:0:0:0:
431,280,118493,6,0,P|380:250|288:233,1,144.375005507469,2|2,0:0|0:0,0:0:0:0:
155,305,119136,2,0,P|195:244|224:131,1,165.000006294251,2|0,0:0|0:0,0:0:0:0:
268,384,119779,2,0,P|262:325|251:286,1,82.5000031471254,2|2,0:0|0:0,0:0:0:0:
73,217,120208,6,0,B|47:306|47:306|82:371,1,165.000006294251,4|0,0:0|0:0,0:0:0:0:
155,305,120850,1,0,0:0:0:0:
131,129,121065,6,0,L|139:171,5,27.5000010490418,0|0|0|0|0|0,3:0|3:0|3:0|3:0|3:0|3:0,3:0:0:0:
226,129,121493,2,0,L|218:171,5,27.5000010490418,0|0|0|0|0|0,3:0|3:0|3:0|3:0|3:0|3:0,3:0:0:0:
139,57,121922,6,0,B|282:46|193:127|371:99,1,220,8|0,0:0|3:0,0:0:0:0:
346,102,122458,1,0,3:0:0:0:
346,102,122565,1,0,3:0:0:0:
240,347,122779,2,0,P|247:272|301:179,1,165,4|2,3:0|0:0,0:0:0:0:
287,193,123208,2,0,P|340:226|405:228,1,110,0|2,0:0|0:3,0:0:0:0:
435,29,123636,6,0,P|357:29|360:118,1,165,4|2,3:0|0:0,0:0:0:0:
345,101,124065,2,0,P|320:158|284:198,1,110,0|2,0:0|0:3,0:0:0:0:
62,75,124493,2,0,B|108:71|143:79|143:79|175:118|188:189,1,165,4|2,3:0|0:0,0:0:0:0:
179,153,124922,2,0,L|168:221,1,55,0|0,3:0|3:0,0:0:0:0:
1,154,125136,5,0,3:0:0:0:
1,154,125243,1,0,3:0:0:0:
1,154,125350,2,0,P|51:219|85:317,2,165,4|2|2,3:0|0:0|0:0,0:0:0:0:
146,369,126208,2,0,P|175:292|225:227,1,165,4|2,3:0|0:0,0:0:0:0:
225,227,126636,2,0,P|173:200|128:159,1,110,0|0,3:0|3:0,0:0:0:0:
228,0,127065,6,0,B|260:47|260:47|253:115,1,110,4|2,3:0|0:0,0:0:0:0:
432,28,127493,2,0,B|374:32|374:32|319:-7,1,110,0|2,1:0|0:0,0:0:0:0:
304,191,127922,2,0,B|329:139|329:139|390:111,1,110,4|0,3:0|3:0,0:0:0:0:
512,106,128350,6,0,L|469:96,2,27.5,0|0|0,3:0|3:0|3:0,3:0:0:0:
498,184,128565,2,0,L|455:174,2,27.5,0|0|0,3:0|3:0|3:0,3:0:0:0:
409,320,128779,6,0,P|334:277|313:147,1,181.500005538941,8|0,0:0|0:0,0:0:0:0:
303,190,129208,2,0,P|371:155|399:110,1,121.000003692627,0|8,1:0|3:0,0:0:0:0:
234,283,129636,5,4,3:0:0:0:
266,45,129850,1,2,0:0:0:0:
43,134,130065,1,0,3:0:0:0:
43,134,130172,1,0,3:0:0:0:
43,134,130279,1,0,3:0:0:0:
43,134,130386,1,0,3:0:0:0:
43,134,130493,6,0,P|97:158|134:205,1,121.000003692627,4|0,3:0|0:0,0:0:0:0:
266,45,130922,2,0,P|217:79|158:88,1,121.000003692627,0|2,1:0|0:3,0:0:0:0:
233,282,131350,2,0,P|227:222|249:166,1,121.000003692627,4|0,0:0|3:0,0:0:0:0:
362,0,131779,6,0,L|355:45,2,30.2500009231568,0|0|0,3:0|3:0|3:0,3:0:0:0:
445,7,131993,2,0,L|438:52,2,30.2500009231568,0|0|0,3:0|3:0|3:0,3:0:0:0:
366,168,132208,6,0,P|346:141|317:125,3,65.9999979858399,0|0|0|0,1:0|1:0|1:0|1:0,1:0:0:0:
146,268,132636,2,0,P|133:237|133:204,3,65.9999979858399,0|0|0|0,1:0|1:0|1:0|1:0,1:0:0:0:
105,0,133065,5,0,3:0:0:0:
174,24,133172,1,0,3:0:0:0:
222,79,133279,1,0,3:0:0:0:
237,151,133386,1,0,3:0:0:0:
215,221,133493,2,0,L|257:229,6,30.2500009231568,0|0|0|0|0|0|0,3:0|3:0|3:0|3:0|3:0|3:0|3:0,3:0:0:0:
53,190,133922,6,0,L|-16:175,1,55
66,107,134350,2,0,L|-3:92,1,55
146,268,134779,5,0,0:0:0:0:
146,268,134850,2,0,L|167:262,1,21.9999993286133
231,101,135208,1,0,0:0:0:0:
231,101,135279,2,0,L|252:95,1,21.9999993286133
402,28,135636,6,0,B|425:60|461:67|461:67|422:209,1,165.000006294251,4|0,1:0|0:0,0:0:0:0:
428,242,135958,1,0,3:0:0:0:
436,156,136065,2,0,P|390:167|351:194,1,82.5000031471254,2|0,0:3|0:0,0:0:0:0:
263,125,136279,2,0,P|309:114|348:87,1,82.5000031471254,2|0,0:3|0:0,0:0:0:0:
449,373,136493,5,8,0:0:0:0:
449,373,136922,1,0,3:0:0:0:
390,318,137136,2,0,L|399:268,2,41.2500015735627,0|0|0,3:0|3:0|3:0,3:0:0:0:
314,356,137350,5,0,3:0:0:0:
234,365,137457,1,0,3:0:0:0:
165,326,137564,1,0,3:0:0:0:
131,254,137671,1,0,3:0:0:0:
145,175,137779,2,0,P|119:119|71:85,1,82.5000031471254,4|0,3:0|0:0,0:0:0:0:
257,48,137993,2,0,P|201:21|142:26,1,82.5000031471254,2|0,0:3|0:0,0:0:0:0:
26,131,138208,5,8,0:0:0:0:
26,131,138422,2,0,L|18:74,2,41.2500015735627,2|0|0,3:1|3:0|3:0,3:0:0:0:
26,131,138636,1,4,1:2:0:0:
7,9,138850,1,2,3:1:0:0:
0,330,139065,6,2,P|72:299|178:288,1,165.000006294251,6|0,1:1|0:1,0:1:0:0:
212,227,139386,1,0,3:0:0:0:
232,314,139493,2,0,B|240:272|240:272|215:213,1,82.5000031471254,2|0,0:3|0:0,0:0:0:0:
137,96,139708,2,0,B|129:138|129:138|154:197,1,82.5000031471254,2|0,0:3|0:0,0:0:0:0:
469,235,139922,5,8,0:0:0:0:
469,235,140350,1,0,3:0:0:0:
391,258,140565,2,0,L|382:315,2,41.2500015735627,0|0|0,3:0|3:0|3:0,3:0:0:0:
325,211,140779,5,0,1:0:0:0:
497,334,140993,2,0,L|486:236,1,82.5000031471254,4|0,3:0|0:0,0:0:0:0:
255,285,141208,1,0,3:0:0:0:
309,117,141422,1,0,3:0:0:0:
314,353,141636,5,2,3:0:0:0:
314,353,141708,1,2,3:0:0:0:
128,298,142065,1,2,3:0:0:0:
128,298,142136,1,2,3:0:0:0:
35,375,142279,2,0,L|96:386,2,41.2500015735627,0|0|0,3:0|3:0|3:0,3:0:0:0:
35,375,142493,6,0,B|12:343|-24:336|-24:336|15:194,1,165.000006294251,4|0,1:0|0:0,0:0:0:0:
9,161,142815,1,0,3:0:0:0:
0,246,142922,2,0,P|46:235|85:208,1,82.5000031471254,2|0,0:3|0:0,0:0:0:0:
148,49,143136,2,0,P|101:59|62:86,1,82.5000031471254,2|0,0:3|0:0,0:0:0:0:
255,285,143350,5,8,0:0:0:0:
255,285,143779,1,0,3:0:0:0:
174,298,143993,2,0,L|129:306,2,41.2500015735627,0|0|0,3:0|3:0|3:0,3:0:0:0:
317,344,144208,5,0,3:0:0:0:
372,286,144315,1,0,3:0:0:0:
405,212,144422,1,0,3:0:0:0:
409,132,144529,1,0,3:0:0:0:
386,55,144636,2,0,P|421:94|478:104,1,82.5000031471254,4|0,3:0|0:0,0:0:0:0:
239,108,144850,2,0,P|231:160|260:210,1,82.5000031471254,2|0,0:3|0:0,0:0:0:0:
393,362,145065,5,8,0:0:0:0:
393,362,145279,2,0,L|449:369,2,41.2500015735627,2|0|0,3:1|3:0|3:0,3:0:0:0:
393,362,145493,1,4,1:2:0:0:
512,378,145708,1,2,3:1:0:0:
317,141,145922,6,2,P|245:172|139:183,1,165.000006294251,6|0,1:1|0:1,0:1:0:0:
105,237,146243,1,0,3:0:0:0:
85,150,146350,2,0,B|77:192|77:192|102:251,1,82.5000031471254,2|0,0:3|0:0,0:0:0:0:
8,371,146565,2,0,B|16:329|16:329|-9:270,1,82.5000031471254,2|0,0:3|0:0,0:0:0:0:
153,99,146779,5,8,0:0:0:0:
153,99,147208,2,0,L|141:8,1,82.5000031471254,0|0,3:0|0:0,0:0:0:0:
233,122,147422,2,0,L|249:54,2,41.2500015735627,0|0|0,3:0|3:0|3:0,3:0:0:0:
64,73,147636,5,2,0:0:0:0:
323,101,147850,2,0,B|326:60|326:60|304:14,1,82.5000031471254,4|0,3:0|0:0,0:0:0:0:
120,157,148065,1,2,0:0:0:0:
244,208,148279,1,2,0:3:0:0:
175,261,148493,6,0,B|322:239|231:324|417:278,1,220,0|0,1:0|0:0,0:0:0:0:
461,258,149029,1,0,0:0:0:0:
461,258,149136,2,0,L|451:208,2,27.5,0|0|0,3:0|3:0|3:0,3:0:0:0:
499,153,149350,6,0,P|457:142|419:149,1,82.5000031471254,4|0,0:1|0:0,0:0:0:0:
343,189,149779,1,0,3:0:0:0:
333,201,149993,1,0,3:0:0:0:
232,22,150208,2,0,L|254:144,1,123.750004720688,2|0,0:0|0:0,0:0:0:0:
243,155,150636,1,0,3:0:0:0:
109,84,150850,1,0,0:0:0:0:
99,292,151065,6,0,B|155:279|155:279|206:293,1,110,0|0,3:0|0:0,0:0:0:0:
99,272,151386,2,0,B|155:259|155:259|206:273,1,110,0|0,3:0|0:0,0:0:0:0:
99,252,151708,1,0,3:0:0:0:
413,292,151922,6,0,B|357:279|357:279|306:293,1,110,0|0,3:0|0:0,0:0:0:0:
413,272,152243,2,0,B|357:259|357:259|306:273,1,110,2|0,3:2|0:0,0:0:0:0:
413,252,152565,1,2,3:2:0:0:
256,69,152779,6,0,P|227:139|256:219,1,165.000006294251,4|0,0:0|3:0,0:0:0:0:
235,69,153422,2,0,P|206:139|235:219,1,165.000006294251,0|0,3:0|0:0,0:0:0:0:
330,328,154065,1,0,3:0:0:0:
72,247,154279,5,0,3:0:0:0:
235,219,154493,2,0,L|72:247,1,165.000006294251,0|0,3:0|0:0,0:0:0:0:
216,190,155136,5,0,3:0:0:0:
54,219,155350,2,0,L|216:190,1,165.000006294251,0|0,0:0|3:0,0:0:0:0:
33,187,155993,2,0,L|-17:197,2,27.5
97,125,156208,6,0,P|117:160|120:201,1,82.5000031471254,4|0,0:1|0:0,0:0:0:0:
61,315,156636,1,0,3:0:0:0:
51,327,156850,1,0,3:0:0:0:
195,283,157065,2,0,P|255:272|316:282,1,123.750004720688,2|0,0:0|0:0,0:0:0:0:
326,295,157493,1,0,3:0:0:0:
439,366,157708,1,0,0:0:0:0:
438,133,157922,6,0,B|424:189|424:189|439:240,1,110,0|0,3:0|0:0,0:0:0:0:
406,133,158243,2,0,B|393:189|393:189|407:240,1,110,0|0,3:0|0:0,0:0:0:0:
374,133,158565,1,0,3:0:0:0:
74,133,158779,6,0,B|88:189|88:189|73:240,1,110,0|0,3:0|0:0,0:0:0:0:
106,133,159100,2,0,B|119:189|119:189|105:240,1,110,2|0,3:2|0:0,0:0:0:0:
138,133,159422,1,2,3:2:0:0:
289,300,159636,6,0,P|359:329|439:300,1,165.000006294251,4|0,0:0|0:0,0:0:0:0:
289,330,160279,2,0,P|359:359|439:330,1,165.000006294251,0|0,3:0|0:0,0:0:0:0:
510,243,160922,1,0,3:0:0:0:
340,119,161136,5,0,3:0:0:0:
365,260,161350,2,0,L|340:119,1,142.99999345398,0|2,3:0|0:0,0:0:0:0:
266,70,161672,5,2,0:0:0:0:
392,48,161779,2,0,P|322:32|265:70,1,142.99999345398,2|2,3:2|0:0,0:0:0:0:
127,107,162100,5,2,0:0:0:0:
0,129,162207,2,0,P|58:91|126:106,1,142.99999345398,2|2,3:2|0:0,0:0:0:0:
219,204,162529,5,2,0:0:0:0:
232,280,162636,2,0,L|219:204,1,76.9999976501466,2|0,3:2|0:0,0:0:0:0:
193,52,162850,2,0,L|206:128,1,76.9999976501466,0|0,3:0|0:0,0:0:0:0:
244,355,163065,6,0,B|285:348|300:311|300:311|336:351|391:362|433:346,1,220,4|0,1:0|3:0,0:0:0:0:
507,276,163708,1,0,3:0:0:0:
378,181,163922,2,0,P|343:233|442:225,1,220,4|8,3:0|0:0,0:0:0:0:
150,217,164565,5,0,3:0:0:0:
150,217,164672,1,0,3:0:0:0:
150,217,164779,5,0,1:0:0:0:
226,205,164993,1,2,0:1:0:0:
302,193,165208,1,0,3:0:0:0:
378,181,165422,1,2,0:1:0:0:
150,217,165636,6,0,L|378:181,1,230.99999295044,4|8,0:3|0:0,0:0:0:0:
129,322,166279,5,0,3:0:0:0:
129,322,166386,1,0,3:0:0:0:
129,322,166493,5,0,1:0:0:0:
228,307,166708,1,2,0:1:0:0:
327,291,166922,1,0,3:0:0:0:
426,276,167136,1,2,0:1:0:0:
130,322,167350,6,0,L|426:276,1,299.200001826172,4|8,0:3|0:0,0:0:0:0:
322,92,167993,5,0,3:0:0:0:
181,117,168208,2,0,L|322:92,1,142.99999345398,0|2,1:0|0:0,0:0:0:0:
394,144,168529,5,2,0:0:0:0:
371,18,168636,2,0,P|409:77|394:145,1,142.99999345398,2|2,3:2|0:0,0:0:0:0:
133,192,168958,5,2,0:0:0:0:
109,65,169065,2,0,P|94:133|132:191,1,142.99999345398,2|2,3:2|0:0,0:0:0:0:
265,179,169386,5,2,0:0:0:0:
239,28,169493,2,0,L|252:104,1,76.9999976501466,0|0,3:0|0:0,0:0:0:0:
291,331,169708,2,0,L|278:255,1,76.9999976501466,0|0,3:0|0:0,0:0:0:0:
239,184,169922,5,4,1:0:0:0:
290,174,170136,1,0,0:0:0:0:
236,203,170350,5,0,3:0:0:0:
292,154,170564,1,2,0:3:0:0:
247,229,170779,5,2,0:3:0:0:
281,128,170993,1,0,3:0:0:0:
278,255,171208,5,8,0:0:0:0:
251,103,171422,1,0,3:0:0:0:
251,103,171529,1,0,3:0:0:0:
251,103,171636,5,0,1:0:0:0:
279,258,171850,1,2,0:1:0:0:
303,73,172065,5,0,3:0:0:0:
226,287,172279,1,2,0:1:0:0:
389,75,172493,5,4,3:0:0:0:
140,285,172707,1,8,0:3:0:0:
496,138,172922,5,8,0:0:0:0:
33,222,173136,1,0,3:3:0:0:
33,222,173243,1,0,3:0:0:0:
33,222,173350,5,0,3:0:0:0:
17,189,173457,1,0,3:0:0:0:
15,153,173564,1,0,3:0:0:0:
28,119,173671,1,0,3:0:0:0:
111,88,173779,5,0,3:0:0:0:
117,115,173886,1,0,3:0:0:0:
114,143,173993,1,0,3:0:0:0:
103,168,174100,1,0,3:0:0:0:
0,264,174208,5,0,3:0:0:0:
19,259,174315,1,0,3:0:0:0:
40,261,174422,1,0,3:0:0:0:
59,269,174529,1,0,3:0:0:0:
112,326,174636,5,0,3:0:0:0:
126,332,174743,1,0,3:0:0:0:
142,333,174850,1,0,3:0:0:0:
156,329,174957,1,0,3:0:0:0:
233,351,175065,6,2,P|281:320|297:270,1,111.650003407288,2|0,0:1|0:1,0:1:0:0:
297,50,175922,6,0,P|249:81|237:153,1,110,4|0,0:1|0:0,0:0:0:0:
217,274,176136,6,0,P|187:237|176:191,1,96.2500009179115,4|0,1:2|0:0,0:0:0:0:
355,211,176350,2,0,P|344:165|314:128,1,96.2500009179115,4|0,0:0|0:0,0:0:0:0:
0,87,176779,6,0,B|189:27|189:27|120:99,1,288.750002753735,4|0,1:0|0:0,0:0:0:0:
126,92,177208,2,0,L|106:-7,1,96.2500009179115,2|0,0:3|0:0,0:0:0:0:
59,155,177422,2,0,L|78:249,1,96.2500009179115,2|0,0:3|0:0,0:0:0:0:
254,371,177636,5,0,1:0:0:0:
33,318,177850,1,2,0:3:0:0:
204,287,178065,1,0,3:0:0:0:
163,169,178279,2,0,L|152:230,2,48.1250004589558,4|0|0,3:0|3:0|3:0,0:0:0:0:
163,169,178493,5,0,1:0:0:0:
165,358,178708,1,0,3:0:0:0:
245,114,178922,2,0,L|260:216,1,96.2500009179115,4|2,3:0|0:0,0:0:0:0:
59,155,179136,1,2,0:3:0:0:
307,52,179350,5,0,1:0:0:0:
345,244,179565,2,0,L|355:186,2,48.1250004589558,0|0|0,3:0|3:0|3:0,0:0:0:0:
345,244,179779,1,0,1:0:0:0:
470,103,179993,1,0,1:0:0:0:
512,384,180208,6,0,P|494:339|459:307,1,96.2500009179115,4|0,1:0|0:0,0:0:0:0:
364,148,180422,2,0,P|323:172|297:213,1,96.2500009179115,0|0,1:0|0:0,0:0:0:0:
493,232,180636,6,0,P|447:216|400:223,1,96.2500009179115,2|0,0:3|0:0,0:0:0:0:
218,193,180850,2,0,P|210:240|225:285,1,96.2500009179115,2|0,0:3|0:0,0:0:0:0:
61,364,181065,5,0,1:0:0:0:
16,147,181279,1,2,0:3:0:0:
204,201,181493,1,2,3:0:0:0:
0,278,181708,2,0,L|51:289,2,48.1250004589558,4|0|0,1:3|3:0|3:0,0:0:0:0:
0,278,181922,5,0,1:0:0:0:
159,383,182136,1,2,0:1:0:0:
100,173,182350,1,4,3:0:0:0:
222,131,182565,1,2,0:1:0:0:
181,260,182779,6,0,L|175:195,4,48.1250004589558,8|0|0|0|2,1:2|3:0|3:0|3:0|3:1,0:0:0:0:
416,286,183208,1,0,3:0:0:0:
340,196,183422,2,0,L|344:243,2,48.1250004589558,2|0|0,3:1|3:0|3:0,0:0:0:0:
262,156,183636,6,0,P|339:64|414:62,1,192.500001835823,4|2,1:0|3:2,0:0:0:0:
460,116,183958,1,0,3:0:0:0:
420,48,184065,1,0,1:0:0:0:
180,259,184279,5,4,3:0:0:0:
169,182,184386,1,0,3:0:0:0:
196,268,184493,2,0,P|238:279|301:312,1,96.2500009179115,2|0,3:2|3:0,0:0:0:0:
154,174,184708,2,0,P|112:163|49:130,1,96.2500009179115,0|0,1:0|0:0,0:0:0:0:
0,335,184922,6,0,B|122:311|45:388|210:349,1,192.500001835823,4|0,1:2|3:0,0:0:0:0:
273,384,185243,1,0,3:0:0:0:
196,366,185350,6,0,P|215:278|304:223,1,192.500001835823,4|2,1:0|3:2,0:0:0:0:
327,152,185672,1,0,3:0:0:0:
306,239,185779,6,0,P|360:268|428:265,1,96.2500009179115,0|0,1:0|0:0,0:0:0:0:
227,32,185993,6,0,P|245:83|246:145,1,96.2500009179115,4|0,3:0|0:0,0:0:0:0:
171,142,186208,2,0,P|153:91|152:29,1,96.2500009179115,0|0,1:0|0:0,0:0:0:0:
0,217,186422,6,0,P|54:188|122:191,1,96.2500009179115,0|0,3:0|0:0,0:0:0:0:
146,351,186636,2,0,P|106:375|58:384,1,96.2500009179115,4|0,1:2|0:0,0:0:0:0:
160,226,186850,6,0,L|154:287,2,48.1250004589558,0|0|0,3:0|3:0|3:0,0:0:0:0:
88,184,187065,6,0,P|212:173|291:68,1,192.500001835823,4|2,1:0|3:2,0:0:0:0:
279,54,187386,1,0,3:0:0:0:
273,144,187493,1,0,1:0:0:0:
407,329,187708,5,4,3:0:0:0:
401,239,187815,1,0,3:0:0:0:
417,343,187922,2,0,P|364:359|318:397,1,96.2500009179115,2|0,3:2|3:0,0:0:0:0:
391,225,188136,2,0,P|444:209|490:171,1,96.2500009179115,0|0,1:0|0:0,0:0:0:0:
370,83,188350,6,0,B|253:69|311:145|160:114,1,192.500001835823,4|0,1:2|3:0,0:0:0:0:
136,57,188672,1,0,3:0:0:0:
110,172,188779,6,0,P|149:144|195:134,1,96.2500009179115,4|0,3:0|0:0,0:0:0:0:
13,130,188993,1,0,3:0:0:0:
13,130,189100,1,0,3:0:0:0:
13,130,189208,1,0,3:0:0:0:
60,342,189422,6,0,L|69:286,4,48.1250004589558,0|0|0|0|0,3:0|3:0|3:0|3:0|3:0,0:0:0:0:
146,351,189850,2,0,L|155:295,2,48.1250004589558,0|0|0,3:0|3:0|3:0,0:0:0:0:
232,268,190065,5,0,3:0:0:0:
232,268,190279,1,0,3:0:0:0:
452,32,190493,6,0,P|518:130|374:73,1,385.000003671646,4|0,1:0|3:0,0:0:0:0:
294,342,191136,2,0,P|334:282|390:250,1,96.2500009179115,2|0,3:1|0:0,0:0:0:0:
278,115,191350,5,2,1:0:0:0:
384,357,191565,1,2,0:3:0:0:
461,211,191779,1,0,1:0:0:0:
243,193,191993,2,0,L|311:206,2,48.1250004589558,4|0|0,3:0|3:0|3:0,0:0:0:0:
243,193,192208,5,0,1:0:0:0:
435,294,192422,1,0,3:0:0:0:
151,291,192636,2,0,L|262:271,1,96.2500009179115,4|2,3:0|0:0,0:0:0:0:
363,125,192850,1,2,3:0:0:0:
286,355,193065,5,0,1:0:0:0:
216,180,193279,2,0,L|227:122,2,48.1250004589558,0|0|0,3:0|3:0|3:0,0:0:0:0:
216,180,193493,1,0,1:0:0:0:
60,297,193708,1,0,3:0:0:0:
127,49,193922,6,0,L|140:152,1,96.2500009179115,4|0,1:0|0:0,0:0:0:0:
60,156,194136,2,0,L|47:60,1,96.2500009179115,0|0,1:0|0:0,0:0:0:0:
224,132,194350,6,0,L|211:235,1,96.2500009179115,2|0,0:3|0:0,0:0:0:0:
291,239,194564,2,0,L|303:143,1,96.2500009179115,2|0,0:3|0:0,0:0:0:0:
60,297,194779,5,0,1:0:0:0:
373,275,194993,1,2,0:3:0:0:
176,328,195208,1,0,1:0:0:0:
125,155,195422,2,0,L|135:221,2,48.1250004589558,4|0|0,3:0|3:0|3:0,0:0:0:0:
125,155,195636,5,0,1:0:0:0:
97,384,195850,1,2,3:2:0:0:
97,384,195958,1,2,3:2:0:0:
97,384,196065,1,4,3:0:0:0:
211,227,196279,5,2,3:2:0:0:
211,227,196386,1,2,3:2:0:0:
211,227,196493,2,0,L|275:234,4,48.1250004589558,0|0|0|0|2,1:0|3:0|3:0|3:0|3:2,0:0:0:0:
47,95,196922,5,2,3:2:0:0:
47,95,197029,1,0,3:0:0:0:
47,95,197136,2,0,L|-17:102,2,48.1250004589558,4|0|0,3:2|0:0|0:0,0:0:0:0:
125,155,197350,6,0,P|188:60|275:39,1,192.500001835823,4|2,1:0|3:2,0:0:0:0:
348,51,197672,1,0,3:0:0:0:
272,23,197779,1,0,1:0:0:0:
394,266,197993,5,4,3:0:0:0:
470,238,198100,1,0,3:0:0:0:
385,283,198208,2,0,P|415:331|425:382,1,96.2500009179115,2|0,3:2|3:0,0:0:0:0:
479,221,198422,2,0,P|449:173|439:122,1,96.2500009179115,0|0,1:0|0:0,0:0:0:0:
332,358,198636,6,0,B|201:361|271:300|133:310,1,192.500001835823,4|0,1:2|3:0,0:0:0:0:
82,349,198958,1,0,3:0:0:0:
169,320,199065,6,0,P|180:218|93:127,1,192.500001835823,4|2,3:0|3:2,0:0:0:0:
147,70,199386,1,0,3:0:0:0:
117,157,199493,1,0,1:0:0:0:
395,47,199708,5,4,3:0:0:0:
425,134,199815,1,0,3:0:0:0:
381,47,199922,2,0,P|433:24|488:-14,1,96.2500009179115,2|0,3:2|3:0,0:0:0:0:
439,134,200136,2,0,P|387:157|332:195,1,96.2500009179115,0|0,1:0|0:0,0:0:0:0:
211,71,200350,6,0,L|233:179,1,96.2500009179115,4|0,0:0|0:0,0:0:0:0:
133,107,200565,2,0,L|121:171,2,48.1250004589558,0|0|0,3:0|3:0|3:0,0:0:0:0:
78,42,200779,6,0,P|-6:108|9:201,1,192.500001835823,4|2,1:0|3:2,0:0:0:0:
74,220,201100,1,0,3:0:0:0:
12,174,201208,1,0,1:0:0:0:
171,358,201422,5,4,3:0:0:0:
233,312,201530,1,0,3:0:0:0:
173,374,201636,2,0,P|99:350|50:350,1,96.2500009179115,2|0,3:2|3:0,0:0:0:0:
231,296,201850,2,0,P|305:320|354:320,1,96.2500009179115,0|0,1:0|0:0,0:0:0:0:
415,185,202065,6,0,B|288:211|354:135|218:167,1,192.500001835823,4|0,1:2|3:0,0:0:0:0:
180,226,202386,1,0,3:0:0:0:
247,168,202493,6,0,P|216:113|210:42,1,96.2500009179115,4|0,3:0|0:0,0:0:0:0:
111,109,202708,2,0,P|133:49|183:0,1,96.2500009179115,0|0,3:0|0:0,0:0:0:0:
321,328,202922,6,0,P|352:273|358:202,1,96.2500009179115,0|0,1:0|0:0,0:0:0:0:
457,269,203137,2,0,P|434:209|384:159,1,96.2500009179115,4|0,3:0|0:0,0:0:0:0:
173,374,203350,6,0,L|111:359,3,48.1250004589558,0|0|0|0,1:0|0:0|1:0|0:0,0:0:0:0:
311,252,203779,2,0,L|373:237,3,48.1250004589558,0|0|0|0,1:0|0:0|1:0|0:0,0:0:0:0:
166,136,204208,1,2,0:1:0:0:
