osu file format v14

[General]
AudioFilename: audio.mp3
AudioLeadIn: 0
PreviewTime: 75529
Countdown: 0
SampleSet: Soft
StackLeniency: 0.4
Mode: 0
LetterboxInBreaks: 0
WidescreenStoryboard: 1

[Editor]
Bookmarks: 10474,24189,37903,51617,65331,79046,92760,109903,123617,137331,151046,164760,178474,190474,192189,205903
DistanceSpacing: 1.5
BeatDivisor: 6
GridSize: 4
TimelineZoom: 1.9

[Metadata]
Title:DDU-DU DDU-DU
TitleUnicode:뚜두뚜두
Artist:BLACKPINK
ArtistUnicode:BLACKPINK
Creator:Irreversible
Version:Marianna's Hard
Source:
Tags:CharmCaster Stjpa Marianna Zetera Basti Sala- fanzhen fanzhen0019 -M4x Nhawak Voli Team Rocket Dissie Dimes Sing Daoski Collab Collaboration Lisa Rap Dance Thai Jisoo Jennie Badass Girl Inka Bird Hit You With That Rose Glitter Tank With Popcorn Scene d4
BeatmapID:1678977
BeatmapSetID:798691

[Difficulty]
HPDrainRate:6
CircleSize:3.7
OverallDifficulty:6
ApproachRate:7.5
SliderMultiplier:1.6
SliderTickRate:1

[Events]
//Background and Video events
0,0,"16ab049459.jpg",0,0
Video,-1710,"video.mp4"
//Break Periods
//Storyboard Layer 0 (Background)
//Storyboard Layer 1 (Fail)
//Storyboard Layer 2 (Pass)
//Storyboard Layer 3 (Foreground)
//Storyboard Sound Samples

[TimingPoints]
208,428.571428571429,4,2,0,60,1,0
8136,-100,4,2,0,40,0,0
8779,-100,4,2,0,60,0,0
49922,-111.111111111111,4,2,0,40,0,0
55065,-111.111111111111,4,2,0,50,0,0
57636,-111.111111111111,4,2,0,40,0,0
61922,-111.111111111111,4,2,0,50,0,0
63636,-100,4,2,0,50,0,0
70493,-100,4,2,0,60,0,0
75636,-100,4,2,0,40,0,0
76493,-100,4,2,0,45,0,0
76600,-100,4,2,0,40,0,0
76922,-100,4,2,0,45,0,0
77029,-100,4,2,0,40,0,0
77351,-90.9090909090909,4,2,0,70,0,0
83351,-76.9230769230769,4,2,0,60,0,0
83779,-76.9230769230769,4,2,0,50,0,0
84208,-90.9090909090909,4,2,0,70,0,0
89136,-90.9090909090909,4,2,0,60,0,0
89243,-90.9090909090909,4,2,0,50,0,0
89351,-142.857142857143,4,2,0,45,0,0
89565,-142.857142857143,4,2,0,40,0,0
89779,-142.857142857143,4,2,0,35,0,0
89993,-142.857142857143,4,2,0,30,0,0
90208,-142.857142857143,4,2,0,20,0,0
91065,-100,4,2,0,20,0,0
91922,-100,4,2,0,30,0,0
92779,-100,4,2,0,40,0,0
93636,-100,4,2,0,50,0,0
94065,-100,4,2,0,60,0,0
94493,-100,4,2,0,60,0,0
107351,-142.857142857143,4,2,0,40,0,0
108208,-111.111111111111,4,2,0,40,0,0
113350,-111.111111111111,4,2,0,50,0,0
115922,-111.111111111111,4,2,0,40,0,0
120208,-111.111111111111,4,2,0,50,0,0
121922,-100,4,2,0,50,0,0
135636,-90.9090909090909,4,2,0,70,0,0
141636,-76.9230769230769,4,2,0,60,0,0
142065,-76.9230769230769,4,2,0,50,0,0
142494,-90.9090909090909,4,2,0,70,0,0
147422,-90.9090909090909,4,2,0,60,0,0
147529,-90.9090909090909,4,2,0,50,0,0
147636,-90.9090909090909,4,2,0,45,0,0
147850,-90.9090909090909,4,2,0,40,0,0
148065,-90.9090909090909,4,2,0,35,0,0
148279,-90.9090909090909,4,2,0,30,0,0
148493,-90.9090909090909,4,2,0,20,0,0
149351,-142.857142857143,4,2,0,60,0,0
163065,-111.111111111111,4,2,0,60,0,0
169922,-100,4,2,0,60,0,0
176779,-90.9090909090909,4,2,0,80,0,1
176886,-90.9090909090909,4,2,0,70,0,1
188779,-90.9090909090909,4,2,0,60,0,0
189422,-90.9090909090909,4,2,0,50,0,0
189850,-90.9090909090909,4,2,0,45,0,0
190279,-90.9090909090909,4,2,0,40,0,0
190493,-90.9090909090909,4,2,0,80,0,1
190600,-90.9090909090909,4,2,0,70,0,1
203350,-76.9230769230769,4,2,0,60,0,0
203779,-76.9230769230769,4,2,0,50,0,0
204208,-76.9230769230769,4,2,0,40,0,1
204315,-76.9230769230769,4,2,0,5,0,0

[Colours]
Combo1 : 255,117,145
Combo2 : 184,236,241
Combo3 : 143,165,252
Combo4 : 255,140,243

[HitObjects]
176,188,8136,86,0,L|216:192,1,40,4|0,1:2|0:0,0:0:0:0:
136,125,8351,6,0,P|102:171|113:228,1,120,4|0,0:0|0:0,0:0:0:0:
156,296,8779,6,0,B|216:312|216:276|273:286,1,120,4|0,1:0|3:0,0:0:0:0:
311,319,9208,2,0,P|298:281|311:243,1,80,2|2,0:3|0:3,0:0:0:0:
400,116,9636,2,0,P|411:153|400:191,2,80,8|0|0,0:0|0:0|3:0,0:0:0:0:
332,40,10279,1,0,3:0:0:0:
332,40,10386,1,0,3:0:0:0:
332,40,10494,6,0,L|252:36,1,80,0|0,3:0|3:0,0:0:0:0:
288,208,10922,2,0,L|291:128,1,80,4|2,3:0|0:3,0:0:0:0:
132,156,11351,2,0,P|170:167|208:158,1,80,8|2,0:0|3:1,3:3:0:0:
179,4,11779,2,0,P|167:41|176:80,1,80,4|2,1:2|3:1,0:0:0:0:
291,128,12208,6,2,L|411:124,1,120,6|0,1:0|3:0,0:0:0:0:
454,96,12636,2,0,P|443:134|453:172,1,80,2|2,0:0|0:0,0:0:0:0:
380,248,13065,2,0,P|391:286|381:324,2,80,8|0|0,0:0|0:0|3:0,0:0:0:0:
312,168,13708,1,0,3:0:0:0:
312,168,13815,1,0,3:0:0:0:
312,168,13922,6,0,L|232:172,1,80,2|4,0:0|3:0,0:0:0:0:
260,8,14351,2,0,L|264:88,2,80,2|2|8,0:0|0:3|0:0,0:0:0:0:
128,64,14994,6,0,P|147:67|167:65,1,40,4|0,1:2|0:0,0:0:0:0:
58,24,15208,6,0,P|49:81|83:129,1,120,4|0,0:0|3:0,0:0:0:0:
160,176,15636,6,0,L|152:296,1,120,4|0,1:0|3:0,0:0:0:0:
120,336,16065,1,2,0:3:0:0:
224,328,16279,1,2,0:3:0:0:
328,320,16494,2,0,L|332:240,2,80,8|0|0,0:0|0:0|0:0,0:0:0:0:
384,176,17136,1,0,3:0:0:0:
384,176,17244,1,0,3:0:0:0:
383,175,17351,6,0,P|347:160|308:164,1,80,0|0,3:0|3:0,0:0:0:0:
219,112,17779,2,0,P|203:148|209:187,1,80,4|2,3:0|0:3,0:0:0:0:
156,276,18208,2,0,P|192:291|231:285,1,80,8|2,0:0|3:1,3:3:0:0:
320,339,18636,2,0,P|334:303|330:264,1,80,4|2,1:2|3:1,0:0:0:0:
256,192,19065,6,2,L|267:72,1,120,6|0,1:0|3:0,0:0:0:0:
296,28,19494,1,2,0:3:0:0:
192,20,19708,1,2,0:3:0:0:
88,12,19922,2,0,L|92:92,2,80,8|0|0,0:0|0:0|3:0,0:0:0:0:
40,160,20565,1,0,3:0:0:0:
40,160,20672,1,0,3:0:0:0:
40,160,20779,6,0,P|76:176|115:172,1,80,2|4,0:0|3:0,0:0:0:0:
204,227,21208,2,0,P|220:191|217:152,1,80,2|2,0:0|0:3,0:0:0:0:
268,60,21636,2,2,L|188:56,2,80,8|0|2,0:0|0:0|0:1,0:0:0:0:
476,76,22494,5,4,3:1:0:0:
476,76,22922,1,0,3:0:0:0:
384,128,23136,1,0,0:0:0:0:
464,196,23351,2,0,L|456:275,1,80,8|0,0:0|0:0,0:0:0:0:
300,214,23779,2,0,P|338:207|376:220,1,80,0|0,3:0|3:0,3:3:0:0:
231,280,24208,6,0,P|193:288|155:275,1,80,0|0,3:0|3:0,0:0:0:0:
112,179,24636,2,0,P|123:142|153:116,1,80,4|0,3:0|3:0,0:0:0:0:
260,124,25065,2,0,P|286:153|292:192,1,80,8|0,0:0|3:0,3:3:0:0:
232,280,25494,1,2,0:1:0:0:
208,48,25922,6,0,L|287:40,1,80,4|0,3:0|0:0,0:0:0:0:
392,32,26351,1,0,0:0:0:0:
496,24,26565,1,0,0:0:0:0:
399,111,26779,2,0,L|391:31,1,80,8|0,0:0|0:0,0:0:0:0:
496,24,27208,2,0,L|503:103,1,80,0|0,3:0|3:0,3:3:0:0:
397,188,27636,6,0,P|359:179|331:151,1,80,0|4,3:0|3:0,0:0:0:0:
280,64,28065,2,0,P|271:102|243:130,1,80,0|0,3:0|3:0,0:0:0:0:
164,199,28494,2,0,P|202:207|230:235,1,80,8|0,0:0|1:0,0:0:0:0:
292,320,28922,1,0,3:0:0:0:
280,64,29351,5,4,3:0:0:0:
176,64,29565,1,0,0:0:0:0:
283,143,29779,2,0,L|279:63,1,80,0|0,0:0|0:0,0:0:0:0:
176,64,30208,2,0,L|180:144,1,80,8|0,0:0|0:0,0:0:0:0:
184,248,30636,1,0,1:0:0:0:
188,352,30851,1,0,3:0:0:0:
335,296,31065,6,0,P|297:304|258:293,1,80,4|2,0:1|0:0,0:0:0:0:
308,203,31494,2,0,P|319:166|347:138,1,80,4|2,3:0|0:0,0:0:0:0:
408,224,31922,2,0,P|434:253|444:292,1,80,0|0,1:0|3:0,3:3:0:0:
336,296,32351,1,2,0:1:0:0:
488,80,32779,6,0,L|408:68,1,80,4|0,3:1|0:0,0:0:0:0:
304,52,33208,1,0,1:0:0:0:
200,36,33422,1,0,3:0:0:0:
292,131,33636,6,0,L|303:51,1,80,4|0,3:2|0:0,0:0:0:0:
212,120,34065,1,0,1:0:0:0:
372,148,34279,1,0,3:0:0:0:
223,40,34494,6,0,L|211:119,1,80,0|4,3:0|3:0,0:0:0:0:
192,220,34922,1,2,0:0:0:0:
176,324,35136,1,0,3:0:0:0:
304,288,35351,2,0,L|250:284,2,53.3333333333333,0|0|0,1:0|3:0|3:0,0:0:0:0:
376,256,35779,2,0,L|429:252,2,53.3333333333333,0|0|0,1:0|0:0|0:0,0:0:0:0:
308,208,36208,5,4,0:1:0:0:
308,208,36636,2,0,L|300:156,2,53.3333333333333,0|0|0,1:0|3:0|3:0,0:0:0:0:
376,256,37065,2,0,L|384:308,2,53.3333333333333,0|0|0,1:0|3:0|3:0,0:0:0:0:
428,192,37494,1,0,0:0:0:0:
236,336,37922,5,2,0:0:0:0:
236,336,38351,2,0,L|289:332,2,53.3333333333333,0|0|0,1:0|3:0|3:0,0:0:0:0:
184,272,38779,2,0,L|130:268,2,53.3333333333333,0|0|0,1:0|3:0|3:0,0:0:0:0:
240,216,39208,1,4,0:0:0:0:
68,48,39636,5,6,0:1:0:0:
68,48,40065,2,0,L|71:101,2,53.3333333333333,0|0|0,1:0|3:0|3:0,0:0:0:0:
148,64,40494,2,0,L|151:117,2,53.3333333333333,0|0|0,1:0|3:0|3:0,0:0:0:0:
228,64,40922,1,0,3:0:0:0:
32,204,41351,5,0,3:0:0:0:
32,203,41779,2,0,P|56:195|83:195,2,53.3333333333333,0|0|0,1:0|3:0|3:0,0:0:0:0:
143,256,42208,2,0,P|138:281|124:304,2,53.3333333333333,0|0|0,1:0|3:0|3:0,0:0:0:0:
44,292,42636,1,4,0:0:0:0:
208,116,43065,5,4,0:1:0:0:
208,116,43494,2,0,L|88:112,2,120,0|2|0,1:0|0:0|0:0,0:0:0:0:
300,160,44350,2,0,L|420:156,2,120,4|2|2,0:0|0:0|0:3,0:0:0:0:
152,224,45208,2,0,L|32:220,2,120,4|2|0,3:0|0:0|0:0,0:0:0:0:
320,268,46065,2,0,L|479:261,1,160,4|4,0:0|0:0,0:0:0:0:
492,72,46708,5,0,3:0:0:0:
492,71,46922,2,0,P|433:64|383:96,2,120,2|2|0,0:0|0:0|0:0,0:0:0:0:
228,44,47779,2,0,P|250:98|303:125,2,120,2|2|0,0:0|0:0|0:0,0:0:0:0:
344,283,48636,2,0,P|378:236|376:177,2,120,2|2|0,0:0|0:0|0:0,0:0:0:0:
256,316,49494,1,2,0:0:0:0:
256,52,49922,5,4,0:1:0:0:
256,52,50779,2,0,L|184:44,1,71.9999978027344,2|0,0:0|0:0,0:0:0:0:
344,92,51208,2,0,L|416:84,1,71.9999978027344,2|2,0:0|0:0,0:0:0:0:
268,140,51636,2,0,B|224:196|264:244|272:232|300:284|257:342,1,215.999993408203,4|0,0:0|0:0,0:0:0:0:
257,340,52922,2,0,P|292:336|327:343,1,71.9999978027344,0|0,3:0|3:0,3:3:0:0:
187,279,53351,6,0,P|130:296|72:264,1,119.999996337891,2|2,0:0|0:0,0:0:0:0:
136,88,53994,2,0,P|167:150|139:214,1,143.999995605469,2|0,0:0|0:0,0:0:0:0:
85,151,54636,2,0,P|50:141|16:148,1,71.9999978027344,2|2,0:0|0:0,0:0:0:0:
136,88,55065,6,0,L|244:80,2,107.999996704102,4|0|2,0:0|0:0|0:0,0:0:0:0:
312,144,55922,2,0,L|420:152,2,107.999996704102,4|0|0,0:0|0:0|3:0,3:3:0:0:
256,216,56779,1,4,0:0:0:0:
138,18,57636,6,0,P|127:51|135:86,1,71.9999978027344,2|0,0:0|0:0,0:0:0:0:
256,87,58065,2,0,P|267:54|259:19,1,71.9999978027344,2|2,0:0|0:0,0:0:0:0:
192,144,58494,2,0,P|255:173|319:144,1,143.999995605469,2|0,0:3|0:0,0:0:0:0:
319,144,59779,1,0,3:0:0:0:
308,236,59994,1,0,3:0:0:0:
374,86,60208,6,0,P|316:64|260:88,1,125.999996154785,2|2,0:0|0:0,0:0:0:0:
424,155,60851,2,0,P|457:95|432:30,1,143.999995605469,2|0,0:0|0:0,0:0:0:0:
368,211,61494,2,0,P|398:229|434:231,1,71.9999978027344,2|2,0:0|0:0,0:0:0:0:
283,161,61922,6,0,L|289:310,1,143.999995605469,4|0,0:0|0:0,0:0:0:0:
283,161,62565,1,2,0:0:0:0:
280,68,62779,1,0,3:0:0:0:
280,68,62886,1,0,0:0:0:0:
280,68,62994,1,0,3:0:0:0:
194,192,63208,2,0,P|160:200|125:192,1,71.9999978027344,0|0,3:0|3:0,3:3:0:0:
24,48,63636,5,8,0:0:0:0:
24,48,64065,2,0,L|28:128,1,80,0|0,3:0|3:0,0:0:0:0:
182,86,64494,2,0,P|145:76|107:88,1,80,4|0,3:0|0:0,0:0:0:0:
108,192,64922,2,0,P|145:202|183:190,1,80,0|2,0:0|0:3,0:0:0:0:
36,158,65351,2,0,P|25:195|38:233,1,80,4|0,3:0|0:0,0:0:0:0:
184,267,65779,2,0,P|194:229|182:192,1,80,0|2,0:0|0:3,0:0:0:0:
40,344,66208,2,0,L|120:340,2,80,4|0|0,3:0|0:0|3:0,0:0:0:0:
263,271,66851,1,0,3:0:0:0:
263,271,66958,1,0,3:0:0:0:
263,271,67065,6,0,L|183:267,1,80,4|0,3:0|0:0,0:0:0:0:
112,192,67494,1,0,0:0:0:0:
112,192,67708,1,2,0:0:0:0:
249,113,67922,2,0,L|329:117,1,80,4|0,3:0|0:0,0:0:0:0:
400,192,68351,1,0,3:0:0:0:
400,192,68565,1,0,3:0:0:0:
248,271,68779,6,0,L|252:351,1,80,4|2,3:0|0:0,0:0:0:0:
200,199,69208,2,0,L|204:119,1,80,0|2,1:0|0:0,0:0:0:0:
116,224,69636,2,0,P|169:278|247:270,1,160,4|0,3:0|3:0,3:3:0:0:
204,120,70279,1,0,3:0:0:0:
204,120,70386,1,0,3:0:0:0:
204,120,70494,6,0,L|200:200,1,80,8|0,0:0|0:0,0:0:0:0:
368,164,70922,2,0,L|288:160,1,80,0|8,1:0|3:0,0:0:0:0:
320,340,71351,2,0,L|324:260,1,80,4|0,3:0|3:0,0:0:0:0:
200,308,71779,1,0,3:0:0:0:
200,308,71886,1,0,3:0:0:0:
200,308,71994,1,0,3:0:0:0:
320,340,72208,6,0,L|399:336,1,80,4|0,3:0|0:0,0:0:0:0:
200,308,72636,2,0,L|120:304,1,80,0|2,1:0|0:3,0:0:0:0:
323,182,73065,2,0,P|330:221|322:260,1,80,4|0,0:0|3:0,0:0:0:0:
200,224,73494,1,0,3:0:0:0:
200,224,73601,1,0,3:0:0:0:
200,224,73708,1,0,3:0:0:0:
322,101,73922,6,0,L|332:62,3,40,0|0|0|0,1:0|0:0|1:0|0:0,0:0:0:0:
286,65,74351,2,0,L|286:25,3,40,0|0|0|0,1:0|0:0|1:0|0:0,0:0:0:0:
227,64,74779,2,0,L|227:24,3,40,0|0|0|0,1:0|1:0|1:0|1:0,0:0:0:0:
191,100,75208,2,0,L|180:61,3,40,0|0|0|0,3:0|3:0|3:0|3:0,3:3:0:0:
206,140,75636,6,0,L|126:132,1,80,0|0,0:0|0:0,0:0:0:0:
306,140,76065,2,0,L|385:132,1,80,0|0,0:0|0:0,0:0:0:0:
206,268,76494,2,0,L|197:230,1,26.6666666666667
306,268,76922,2,0,L|315:230,1,26.6666666666667
183,99,77351,6,0,P|243:124|303:99,1,132.00000402832,4|0,1:0|3:0,0:0:0:0:
347,72,77779,2,0,P|334:113|347:155,1,88.000002685547,2|2,0:3|0:3,0:0:0:0:
432,275,78208,2,0,P|445:234|432:192,2,88.000002685547,8|0|0,0:0|0:0|3:0,0:0:0:0:
344,336,78851,1,0,3:0:0:0:
344,336,78958,1,0,3:0:0:0:
344,336,79065,6,0,L|256:328,1,88.000002685547,0|0,3:0|3:0,0:0:0:0:
324,160,79494,2,0,L|316:248,1,88.000002685547,4|2,3:0|0:3,0:0:0:0:
148,203,79922,2,0,P|189:191|232:201,1,88.000002685547,8|2,0:0|3:1,3:3:0:0:
191,371,80351,2,0,P|179:330|189:287,1,88.000002685547,4|2,1:2|3:1,0:0:0:0:
353,204,80779,6,2,P|292:224|231:201,1,132.00000402832,6|0,1:0|3:0,0:0:0:0:
188,172,81208,2,0,L|198:84,1,88.000002685547,2|2,0:3|0:3,0:0:0:0:
108,32,81636,2,0,L|97:119,2,88.000002685547,8|0|0,0:0|0:0|3:0,0:0:0:0:
28,168,82279,1,0,3:0:0:0:
28,168,82386,1,0,3:0:0:0:
28,168,82494,6,0,P|60:196|103:204,1,88.000002685547,0|4,1:0|3:0,0:0:0:0:
223,92,82922,2,0,P|195:124|187:167,1,88.000002685547,0|0,3:0|3:0,0:0:0:0:
223,263,83351,6,0,P|198:255|172:255,1,34.6666650797527,2|2,3:0|3:0,0:0:0:0:
331,179,83779,2,0,P|338:205|350:228,1,34.6666650797527,2|2,3:0|3:0,0:0:0:0:
162,151,84208,6,0,P|224:131|256:75,1,132.00000402832,4|0,1:0|3:0,0:0:0:0:
268,24,84636,2,0,L|355:27,2,88.000002685547,2|2|8,0:3|0:3|0:0,0:0:0:0:
164,24,85279,1,0,0:0:0:0:
216,116,85494,1,0,3:0:0:0:
268,208,85708,1,0,3:0:0:0:
268,208,85815,1,0,3:0:0:0:
268,208,85922,6,0,L|355:204,1,88.000002685547,0|0,3:0|3:0,0:0:0:0:
320,376,86351,2,0,L|316:288,1,88.000002685547,4|2,3:0|0:3,0:0:0:0:
495,316,86779,2,0,P|454:328|411:319,1,88.000002685547,8|2,0:0|3:1,3:3:0:0:
448,152,87208,2,0,P|460:193|451:236,1,88.000002685547,4|2,1:2|3:1,0:0:0:0:
328,96,87636,6,2,B|372:104|404:80|404:80|424:68|454:68,1,132.00000402832,6|0,1:0|3:0,0:0:0:0:
504,88,88065,2,0,L|496:0,2,88.000002685547,2|2|8,0:3|0:3|0:0,0:0:0:0:
456,180,88708,1,0,0:0:0:0:
468,284,88922,1,0,0:0:0:0:
332,248,89136,1,0,0:0:0:0:
332,248,89244,1,0,0:0:0:0:
332,247,89351,6,0,P|359:244|387:247,4,55.9999982910157,2|2|2|0|0,0:0|0:3|0:0|3:0|0:0,0:0:0:0:
256,192,91065,12,4,94065,0:0:0:0:
88,80,94494,5,4,1:0:0:0:
88,80,94922,2,0,L|127:76,3,40,0|0|0|0,3:0|3:0|3:0|3:0,0:0:0:0:
138,152,95351,2,0,L|177:148,3,40,0|2|4|2,1:0|0:0|1:3|0:0,0:0:0:0:
189,223,95779,2,0,L|228:219,1,40,4|4,1:3|0:0,0:0:0:0:
112,264,96208,5,0,3:0:0:0:
112,264,96422,2,0,L|32:260,2,80,0|0|0,1:0|3:0|1:0,0:0:0:0:
189,223,97065,1,8,3:2:0:0:
189,223,97494,2,0,B|206:227|206:227|222:223|222:223|234:227|234:227|246:223|246:223|258:227|258:227|270:223|270:223|282:227|282:227|294:223|294:223|303:225,1,120,0|0,1:0|3:0,0:0:0:0:
348,265,97922,5,4,1:0:0:0:
400,189,98136,1,0,3:0:0:0:
400,189,98244,1,0,0:0:0:0:
400,189,98351,1,0,3:0:0:0:
444,108,98565,1,0,3:0:0:0:
444,108,98672,1,2,0:0:0:0:
444,108,98779,2,0,L|436:68,3,40,0|0|0|0,1:0|3:0|3:0|3:0,0:0:0:0:
352,88,99208,2,0,L|312:83,3,40,4|0|0|0,3:0|3:0|3:0|3:0,3:3:0:0:
204,67,99636,5,0,3:0:0:0:
92,113,99851,1,0,1:0:0:0:
96,232,100065,1,0,3:0:0:0:
201,289,100279,1,0,1:0:0:0:
295,212,100494,6,0,P|346:239|403:225,1,120,8|0,0:0|0:0,0:0:0:0:
362,123,100922,6,0,L|358:163,1,40,0|4,1:0|0:0,0:0:0:0:
176,320,101351,5,4,1:0:0:0:
332,320,101565,1,0,3:0:0:0:
178,229,101779,2,0,L|172:190,3,40,0|0|0|0,3:0|3:0|3:0|3:0,0:0:0:0:
252,198,102208,2,0,L|288:182,3,40,0|0|4|0,1:0|3:0|3:0|0:0,0:0:0:0:
299,262,102636,2,0,L|323:292,3,40,4|0|0|0,3:0|3:0|3:0|3:0,0:0:0:0:
255,326,103065,5,0,1:0:0:0:
171,189,103279,1,4,3:0:0:0:
321,191,103494,2,0,L|360:191,3,40,0|0|0|0,3:0|3:0|3:0|3:0,0:0:0:0:
275,130,103922,6,0,B|256:76|256:76|276:16,1,120,2|0,1:0|0:0,0:0:0:0:
311,14,104351,6,0,L|351:14,1,40,2|0,1:0|0:0,0:0:0:0:
182,191,104779,5,4,1:0:0:0:
321,191,104994,1,0,3:0:0:0:
200,288,105208,2,0,L|216:324,3,40,0|0|0|0,1:0|3:0|3:0|3:0,0:0:0:0:
296,324,105636,2,0,L|312:288,3,40,8|0|0|0,0:0|3:0|3:0|3:0,0:0:0:0:
276,220,106065,2,0,L|236:220,3,40,4|0|0|0,3:0|3:0|3:0|3:0,0:0:0:0:
200,288,106494,5,4,1:2:0:0:
200,288,106708,1,4,3:0:0:0:
276,220,106922,2,0,L|272:180,3,40,2|2|2|2,0:0|0:0|0:0|0:0,0:0:0:0:
264,100,107351,6,0,B|214:78|214:78|158:90,1,111.999996582031,0|4,0:0|0:1,0:0:0:0:
36,192,108208,5,4,0:1:0:0:
36,192,109065,2,0,L|108:188,1,71.9999978027344,2|0,0:0|0:0,0:0:0:0:
144,268,109494,2,0,L|72:272,1,71.9999978027344,2|2,0:0|0:0,0:0:0:0:
196,204,109922,2,0,P|215:302|126:348,1,215.999993408203,4|0,0:0|0:0,0:0:0:0:
160,135,111208,2,0,P|194:127|230:134,1,71.9999978027344,0|0,3:0|3:0,3:3:0:0:
92,184,111637,6,0,P|75:127|106:74,1,119.999996337891,2|2,0:0|0:0,0:0:0:0:
159,248,112279,2,0,P|95:275|30:250,1,143.999995605469,2|0,0:0|0:0,0:0:0:0:
236,212,112922,2,0,P|243:246|236:281,1,71.9999978027344,2|2,0:0|0:0,0:0:0:0:
160,136,113351,6,0,L|267:128,1,107.999996704102,4|0,0:0|0:0,0:0:0:0:
396,120,113994,1,2,0:0:0:0:
292,333,114208,2,0,L|231:243,2,107.999996704102,4|0|0,0:0|0:0|3:0,3:3:0:0:
360,232,115065,5,4,0:0:0:0:
360,232,115922,2,0,P|367:266|356:300,2,71.9999978027344,2|0|2,0:0|0:0|0:0,0:0:0:0:
292,344,116565,2,0,L|435:332,1,143.999995605469,2|2,0:0|0:3,0:0:0:0:
435,332,118065,1,0,3:0:0:0:
348,340,118279,1,0,3:0:0:0:
471,256,118494,6,0,P|487:205|446:140,1,125.999996154785,2|2,0:0|0:0,0:0:0:0:
280,208,119136,2,0,P|344:237|407:207,1,143.999995605469,2|0,0:0|0:0,0:0:0:0:
336,84,119779,2,0,L|344:156,1,71.9999978027344,2|2,0:0|0:0,0:0:0:0:
488,312,120208,6,0,B|430:294|430:294|345:320,1,143.999995605469,4|0,0:0|0:0,0:0:0:0:
350,318,120850,1,0,0:0:0:0:
460,212,121065,1,0,3:0:0:0:
460,212,121279,1,0,3:0:0:0:
424,128,121494,2,0,L|401:59,1,71.9999978027344,0|0,3:0|3:0,3:3:0:0:
328,192,121922,5,8,0:0:0:0:
328,192,122351,2,0,P|335:230|323:268,1,80,0|0,3:0|3:0,0:0:0:0:
292,120,122779,2,0,P|330:112|368:124,1,80,4|0,3:0|0:0,0:0:0:0:
220,156,123208,2,0,P|212:117|224:79,1,80,0|2,0:0|0:3,0:0:0:0:
256,233,123636,6,0,L|176:229,1,80,4|0,3:0|0:0,0:0:0:0:
56,152,124065,2,0,L|135:155,1,80,0|2,0:0|0:3,0:0:0:0:
88,320,124494,2,0,L|91:240,2,80,4|0|0,3:0|0:0|3:0,0:0:0:0:
248,284,125136,1,0,3:0:0:0:
248,284,125244,1,0,3:0:0:0:
248,284,125351,6,0,P|208:292|168:280,1,80,4|0,3:0|0:0,0:0:0:0:
91,240,125779,1,0,0:0:0:0:
215,135,125994,2,0,P|223:175|211:215,2,80,2|4|0,0:0|3:0|0:0,0:0:0:0:
176,48,126636,1,0,3:0:0:0:
272,64,126851,1,0,3:0:0:0:
145,172,127065,6,0,L|65:165,1,80,4|2,3:0|0:0,0:0:0:0:
212,212,127494,2,0,L|291:205,1,80,0|2,1:0|0:0,0:0:0:0:
155,24,127922,2,0,B|119:95|119:95|144:171,1,160,4|0,3:0|3:0,3:3:0:0:
256,344,128779,5,8,0:0:0:0:
256,344,129208,2,0,L|336:336,1,80,0|8,1:0|3:0,0:0:0:0:
184,272,129636,2,0,L|104:265,1,80,4|2,3:0|0:0,0:0:0:0:
8,252,130065,1,0,3:0:0:0:
8,252,130172,1,0,3:0:0:0:
8,252,130279,1,0,3:0:0:0:
152,108,130494,6,0,L|144:188,1,80,4|0,3:0|0:0,0:0:0:0:
191,351,130922,2,0,L|183:271,1,80,0|2,1:0|0:3,0:0:0:0:
264,152,131351,2,0,L|256:232,1,80,4|0,0:0|3:0,0:0:0:0:
324,300,131779,1,0,3:0:0:0:
324,300,131886,1,0,3:0:0:0:
324,300,131994,1,0,3:0:0:0:
416,192,132208,5,0,1:0:0:0:
256,84,132636,1,0,1:0:0:0:
96,192,133065,2,0,L|102:231,3,40,0|0|0|0,1:0|3:0|1:0|3:0,0:0:0:0:
84,260,133494,2,0,B|99:254|99:254|115:260|115:260|136:254|136:254|151:260|151:260|167:254|167:254|182:260|182:260|198:254|198:254|214:260|214:260|229:254|229:254|240:260,1,160,0|2,1:0|0:0,0:0:0:0:
183,284,135636,6,0,P|243:259|303:284,1,132.00000402832,4|0,1:0|3:0,0:0:0:0:
347,311,136064,2,0,P|334:270|347:228,1,88.000002685547,2|2,0:3|0:3,0:0:0:0:
432,108,136493,2,0,P|445:149|432:191,2,88.000002685547,8|0|0,0:0|0:0|3:0,0:0:0:0:
344,48,137136,1,0,3:0:0:0:
344,48,137243,1,0,3:0:0:0:
344,48,137350,6,0,L|256:56,1,88.000002685547,0|0,3:0|3:0,0:0:0:0:
324,224,137779,2,0,L|316:136,1,88.000002685547,4|2,3:0|0:3,0:0:0:0:
148,180,138207,2,0,P|189:192|232:182,1,88.000002685547,8|2,0:0|3:1,3:3:0:0:
191,12,138636,2,0,P|179:53|189:96,1,88.000002685547,4|2,1:2|3:1,0:0:0:0:
353,179,139064,6,2,P|292:159|231:182,1,132.00000402832,6|0,1:1|3:0,0:0:0:0:
188,212,139493,2,0,L|198:299,1,88.000002685547,2|2,0:3|0:3,0:0:0:0:
108,352,139921,2,0,L|97:264,2,88.000002685547,8|0|0,0:0|0:0|3:0,0:0:0:0:
28,216,140564,1,0,3:0:0:0:
28,216,140671,1,0,3:0:0:0:
28,215,140779,6,0,P|60:187|103:179,1,88.000002685547,0|4,1:0|3:0,0:0:0:0:
223,291,141207,2,0,P|195:259|187:216,1,88.000002685547,0|0,3:0|3:0,0:0:0:0:
223,120,141636,6,0,P|198:128|172:128,1,34.6666650797527,2|2,3:0|3:0,0:0:0:0:
331,204,142065,2,0,P|338:178|350:155,1,34.6666650797527,2|2,3:0|3:0,0:0:0:0:
161,232,142493,6,0,P|234:255|272:321,1,155.999992858887,4|0,1:0|3:0,0:0:0:0:
268,360,142921,2,0,L|355:356,2,88.000002685547,2|2|8,0:3|0:3|0:0,0:0:0:0:
164,360,143564,1,0,0:0:0:0:
216,268,143779,1,0,3:0:0:0:
268,176,143993,1,0,3:0:0:0:
268,176,144100,1,0,3:0:0:0:
268,176,144207,6,0,L|355:179,1,88.000002685547,0|0,3:0|3:0,0:0:0:0:
320,8,144636,2,0,L|316:95,1,88.000002685547,4|2,3:0|0:3,0:0:0:0:
495,67,145064,2,0,P|454:55|411:64,1,88.000002685547,8|2,0:0|3:1,3:3:0:0:
448,231,145493,2,0,P|460:190|451:147,1,88.000002685547,4|2,1:2|3:1,0:0:0:0:
328,288,145921,6,2,B|372:280|404:304|404:304|424:316|454:315,1,132.00000402832,6|0,1:1|3:0,0:0:0:0:
504,296,146350,2,0,L|496:384,2,88.000002685547,2|2|8,0:3|0:3|0:0,0:0:0:0:
456,204,146993,1,0,0:0:0:0:
468,100,147207,1,0,3:0:0:0:
368,207,147421,1,0,3:0:0:0:
368,207,147529,1,0,3:0:0:0:
368,207,147636,6,0,L|455:203,1,88.000002685547,2|4,0:0|3:0,0:0:0:0:
468,100,148065,2,0,L|380:103,1,88.000002685547,2|2,0:0|0:3,0:0:0:0:
276,108,148494,1,0,1:0:0:0:
332,340,149351,6,0,P|364:265|328:192,2,167.999994873047,4|0|0,0:1|3:0|3:0,0:0:0:0:
179,339,151065,2,0,P|146:265|182:192,2,167.999994873047,0|0|0,3:0|3:0|0:0,0:0:0:0:
332,340,152779,2,0,L|499:328,2,167.999994873047,4|0|0,0:0|3:0|3:0,0:0:0:0:
180,340,154493,2,0,L|12:328,2,167.999994873047,0|0|0,3:0|3:0|3:0,0:0:0:0:
351,176,156208,6,0,B|339:248|339:248|343:256|343:256|347:264|347:264|332:339,2,167.999994873047,4|0|0,0:1|3:0|3:0,0:0:0:0:
159,176,157922,2,0,B|171:248|171:248|167:256|167:256|163:264|163:264|177:339,2,167.999994873047,0|0|0,3:0|3:0|0:0,0:0:0:0:
180,60,159636,6,0,B|256:96|256:96|331:59,2,167.999994873047,4|0|0,0:0|3:0|3:0,0:0:0:0:
80,152,161350,1,0,0:0:0:0:
135,215,161565,2,0,L|190:211,1,55.9999982910157,2|2,3:2|0:0,0:0:0:0:
257,159,161993,2,0,L|312:155,1,55.9999982910157,2|2,3:2|0:0,0:0:0:0:
378,208,162422,2,0,L|433:204,2,55.9999982910157,2|2|0,3:2|0:0|0:0,0:0:0:0:
511,100,163065,6,0,P|447:128|382:101,1,143.999995605469,4|0,1:0|3:0,0:0:0:0:
312,52,163708,1,0,3:0:0:0:
256,128,163922,2,0,P|192:100|127:127,1,143.999995605469,4|8,3:0|0:0,0:0:0:0:
57,176,164565,1,0,3:0:0:0:
200,260,164779,6,0,L|192:188,1,71.9999978027344,0|2,1:0|0:1,0:0:0:0:
256,128,165208,2,0,L|248:56,1,71.9999978027344,0|2,3:0|0:1,0:0:0:0:
324,20,165636,2,0,P|388:48|452:19,1,143.999995605469,4|8,0:3|0:0,0:0:0:0:
500,92,166279,1,0,3:0:0:0:
440,156,166494,6,0,P|432:192|440:228,1,71.9999978027344,0|2,1:0|0:1,0:0:0:0:
356,256,166922,2,0,P|364:292|356:328,1,71.9999978027344,0|2,3:0|0:1,0:0:0:0:
280,364,167351,2,0,B|236:372|204:360|212:348|180:336|140:346,1,143.999995605469,4|8,0:3|0:0,0:0:0:0:
64,192,168208,5,0,1:0:0:0:
144,159,168422,2,0,P|160:128|161:92,1,71.9999978027344,2|2,0:0|3:2,0:0:0:0:
36,64,168851,2,0,P|54:94|85:112,1,71.9999978027344,2|2,0:0|3:2,0:0:0:0:
175,19,169279,2,0,P|140:21|109:38,2,71.9999978027344,2|0|0,0:0|3:0|3:0,0:0:0:0:
284,80,169922,6,0,L|256:156,1,80,4|0,1:0|0:0,0:0:0:0:
424,176,170351,2,0,L|348:148,1,80,0|2,3:0|0:3,0:0:0:0:
332,320,170779,2,0,L|360:244,1,80,2|0,0:3|3:0,0:0:0:0:
260,252,171208,1,8,0:0:0:0:
260,252,171422,6,0,L|184:224,1,80,0|0,3:0|1:0,0:0:0:0:
176,140,171851,2,0,L|238:88,1,80,2|0,0:1|3:0,0:0:0:0:
320,112,172279,2,0,L|333:191,1,80,2|4,0:1|3:0,0:0:0:0:
260,252,172708,2,0,L|184:224,2,80,8|8|0,0:3|0:0|3:3,0:0:0:0:
388,320,173351,6,0,L|428:312,3,40,0|0|0|0,3:0|3:0|3:0|3:0,0:0:0:0:
396,240,173779,2,0,L|400:199,3,40,0|0|0|0,3:0|3:0|3:0|3:0,0:0:0:0:
320,204,174208,2,0,L|282:186,3,40,0|0|0|0,3:0|3:0|3:0|3:0,0:0:0:0:
276,268,174636,2,0,L|248:297,3,40,0|0|0|0,3:0|3:0|3:0|3:0,0:0:0:0:
248,297,176136,54,0,L|244:257,1,40,4|0,1:2|0:0,0:0:0:0:
294,158,176351,6,0,B|278:174|270:186|270:186|246:178|222:182|206:190|192:203,1,120,4|0,0:0|0:0,0:0:0:0:
124,248,176779,6,0,B|104:268|104:268|96:164,1,132.00000402832,4|0,1:0|0:0,0:0:0:0:
92,112,177208,1,2,0:3:0:0:
188,68,177422,1,2,0:3:0:0:
288,28,177636,2,0,L|376:36,2,88.000002685547,0|2|0,1:0|0:3|3:0,0:0:0:0:
312,204,178279,6,0,L|320:116,2,88.000002685547,4|2|0,3:0|3:0|3:0,0:0:0:0:
148,152,178922,2,0,L|236:160,2,88.000002685547,4|2|0,3:0|0:3|1:0,0:0:0:0:
44,140,179565,1,0,3:0:0:0:
243,72,179779,2,0,L|235:160,1,88.000002685547,6|0,1:2|1:0,0:0:0:0:
140,252,180208,6,0,B|128:264|120:280|120:280|136:288|168:276|168:276|184:272|200:272|215:275,1,132.00000402832,4|0,1:0|0:0,0:0:0:0:
260,300,180636,1,2,0:3:0:0:
364,288,180851,1,2,0:3:0:0:
468,272,181065,2,0,L|460:184,2,88.000002685547,0|2|2,1:0|0:3|3:0,0:0:0:0:
416,344,181708,1,4,1:3:0:0:
408,348,181815,1,0,3:0:0:0:
399,352,181922,6,0,P|357:364|313:357,1,88.000002685547,0|2,1:0|0:1,0:0:0:0:
174,294,182351,2,0,P|215:306|259:299,1,88.000002685547,4|2,3:0|0:1,0:0:0:0:
400,364,182779,2,0,P|358:376|314:369,1,88.000002685547,8|2,1:2|3:1,0:0:0:0:
172,284,183208,2,0,P|213:296|257:289,1,88.000002685547,0|2,3:0|3:1,0:0:0:0:
372,212,183636,6,0,B|396:132|396:132|354:49,1,176.000005371094,4|0,1:0|1:0,0:0:0:0:
252,20,184279,2,0,B|196:8|164:28|168:36|128:56|81:32,1,176.000005371094,4|0,3:0|1:0,0:0:0:0:
4,104,184922,1,4,1:2:0:0:
120,192,185136,1,0,3:0:0:0:
120,192,185244,1,0,3:0:0:0:
120,192,185351,5,4,1:0:0:0:
24,236,185565,2,0,L|31:323,1,88.000002685547,2|0,3:2|1:0,0:0:0:0:
120,192,185994,2,0,L|127:279,1,88.000002685547,4|0,3:0|1:0,0:0:0:0:
216,152,186422,2,0,L|223:239,1,88.000002685547,0|4,3:0|1:2,0:0:0:0:
312,300,186851,1,0,3:0:0:0:
312,300,186958,1,0,3:0:0:0:
312,300,187065,6,0,B|360:280|392:308|392:308|416:276|474:283,1,176.000005371094,4|0,1:0|1:0,0:0:0:0:
452,168,187708,2,0,P|382:215|304:184,1,176.000005371094,4|0,3:0|1:0,0:0:0:0:
373,126,188351,1,4,1:2:0:0:
256,300,188779,5,4,3:0:0:0:
172,236,188994,2,0,L|183:193,2,44.0000013427735,0|0|0,3:0|3:0|3:0,0:0:0:0:
340,236,189422,2,0,L|328:193,2,44.0000013427735,0|0|0,3:0|3:0|3:0,0:0:0:0:
256,128,189851,2,0,L|256:84,2,44.0000013427735,0|0|0,3:0|3:0|3:0,0:0:0:0:
256,300,190279,1,0,3:0:0:0:
172,236,190494,6,0,B|132:220|96:236|96:236|80:228|80:228|44:232,1,132.00000402832,4|0,1:0|0:0,0:0:0:0:
0,260,190922,1,0,3:0:0:0:
24,156,191136,1,2,3:1:0:0:
52,52,191351,2,0,L|140:48,2,88.000002685547,2|2|0,1:0|0:3|1:0,0:0:0:0:
112,232,191994,6,0,L|108:144,2,88.000002685547,4|2|0,3:0|3:0|3:0,0:0:0:0:
296,172,192636,2,0,L|208:176,2,88.000002685547,4|2|0,3:0|3:0|1:0,0:0:0:0:
400,164,193279,1,0,3:0:0:0:
204,88,193494,2,0,L|208:176,1,88.000002685547,4|0,1:2|3:0,0:0:0:0:
300,288,193922,6,0,B|364:308|364:308|424:285,1,132.00000402832,4|0,1:0|0:0,0:0:0:0:
476,268,194351,1,2,0:3:0:0:
460,164,194565,1,2,0:3:0:0:
444,60,194779,2,0,L|356:67,2,88.000002685547,0|2|0,1:0|0:3|1:0,0:0:0:0:
376,244,195422,2,0,L|368:156,1,88.000002685547,4|2,3:0|3:0,0:0:0:0:
280,96,195851,5,2,3:2:0:0:
272,108,195958,1,2,3:2:0:0:
263,120,196065,2,0,P|221:127|178:117,1,88.000002685547,4|2,3:0|3:2,0:0:0:0:
128,56,196386,1,2,3:2:0:0:
119,43,196493,2,0,P|76:35|33:45,1,88.000002685547,0|2,1:0|3:2,0:0:0:0:
0,116,196815,1,2,3:2:0:0:
0,132,196922,2,0,L|3:219,1,88.000002685547,2|4,3:2|3:2,0:0:0:0:
100,304,197351,6,0,P|172:321|161:248,1,176.000005371094,4|0,1:0|1:0,0:0:0:0:
192,148,197994,2,0,P|174:220|247:209,1,176.000005371094,4|0,3:0|1:0,0:0:0:0:
288,112,198636,1,4,1:2:0:0:
360,212,198851,1,0,3:0:0:0:
360,212,198958,1,0,3:0:0:0:
360,212,199065,6,0,B|444:228|444:228|516:172,1,176.000005371094,4|0,3:0|1:0,0:0:0:0:
404,72,199708,2,0,B|388:156|388:156|444:228,1,176.000005371094,4|0,3:0|1:0,0:0:0:0:
504,312,200351,1,4,0:0:0:0:
348,344,200565,1,0,3:0:0:0:
348,344,200672,1,0,3:0:0:0:
348,344,200779,6,0,B|260:308|264:376|177:340,1,176.000005371094,4|0,1:0|1:0,0:0:0:0:
264,172,201422,2,0,B|228:260|296:256|260:342,1,176.000005371094,4|0,3:0|1:0,0:0:0:0:
180,260,202065,1,4,1:2:0:0:
368,192,202494,5,4,3:0:0:0:
308,104,202708,1,0,3:0:0:0:
204,104,202922,1,0,1:0:0:0:
144,192,203136,1,4,3:0:0:0:
184,280,203351,6,0,L|173:330,1,34.6666650797527,0|0,1:0|0:0,0:0:0:0:
256,320,203779,2,0,L|256:372,1,34.6666650797527,0|0,1:0|0:0,0:0:0:0:
328,280,204208,2,0,L|338:330,1,34.6666650797527,2|0,0:1|0:0,0:0:0:0:
