osu file format v14

[General]
AudioFilename: audio.mp3
AudioLeadIn: 0
PreviewTime: 75529
Countdown: 0
SampleSet: Soft
StackLeniency: 0.4
Mode: 0
LetterboxInBreaks: 0
WidescreenStoryboard: 1

[Editor]
Bookmarks: 10474,24189,37903,117617
DistanceSpacing: 1.1
BeatDivisor: 4
GridSize: 4
TimelineZoom: 1.9

[Metadata]
Title:DDU-DU DDU-DU
TitleUnicode:뚜두뚜두
Artist:BLACKPINK
ArtistUnicode:BLACKPINK
Creator:Irreversible
Version:Easy with CharmCaster
Source:
Tags:CharmCaster Stjpa Marianna Zetera Basti Sala- fanzhen fanzhen0019 -M4x Nhawak Voli Team Rocket Dissie Dimes Sing Daoski Collab Collaboration Lisa Rap Dance Thai Jisoo Jennie Badass Girl Inka Bird Hit You With That Rose Glitter Tank With Popcorn Scene d4
BeatmapID:1677157
BeatmapSetID:798691

[Difficulty]
HPDrainRate:2
CircleSize:2.5
OverallDifficulty:3
ApproachRate:3
SliderMultiplier:1
SliderTickRate:1

[Events]
//Background and Video events
0,0,"16ab049459.jpg",0,0
Video,-1710,"video.mp4"
//Break Periods
2,50122,55339
2,108408,113625
2,148693,158196
//Storyboard Layer 0 (Background)
//Storyboard Layer 1 (Fail)
//Storyboard Layer 2 (Pass)
//Storyboard Layer 3 (Foreground)
//Storyboard Sound Samples

[TimingPoints]
208,428.571428571429,4,2,0,60,1,0
8779,-100,4,2,0,60,0,1
8886,-100,4,2,0,60,0,0
77350,-100,4,2,0,60,0,1
77458,-100,4,2,0,60,0,0
89136,-100,4,2,0,60,0,0
94493,-100,4,2,0,60,0,1
107350,-100,4,2,0,60,0,0
135636,-100,4,2,0,60,0,1
135743,-100,4,2,0,60,0,0
176779,-100,4,2,0,70,0,1
202493,-100,4,2,0,70,0,0
203350,-100,4,2,0,60,0,0
203779,-100,4,2,0,50,0,0
204208,-100,4,2,0,40,0,1
204315,-100,4,2,0,40,0,0

[Colours]
Combo1 : 255,117,145
Combo2 : 184,236,241
Combo3 : 143,165,252
Combo4 : 255,140,243

[HitObjects]
84,332,8779,6,0,B|60:196|60:196|101:241,1,200,4|8,1:0|0:0,0:0:0:0:
228,64,10494,2,0,P|321:39|394:102,2,200,2|10|4,3:0|0:0|1:0,0:0:0:0:
383,219,13065,1,8,0:0:0:0:
176,288,13922,2,0,L|68:280,2,100,2|2|8,0:0|0:0|0:0,0:0:0:0:
253,82,15636,6,0,B|319:66|361:118|361:118|396:96|436:105,1,200,4|8,1:0|0:0,0:0:0:0:
360,312,17351,2,0,L|160:322,1,200,0|8,3:0|0:0,0:0:0:0:
82,245,18636,2,2,P|56:202|61:153,1,100,4|6,1:2|1:0,0:0:0:0:
256,52,19922,1,8,0:0:0:0:
411,207,20779,2,0,B|439:187|439:187|519:195,2,100,2|2|8,0:0|0:0|0:0,0:0:0:0:
444,312,22065,1,2,0:1:0:0:
352,368,22494,5,4,3:1:0:0:
140,307,23351,1,8,0:0:0:0:
44,108,24208,2,0,L|53:2,2,100,0|4|8,3:0|3:0|0:0,0:0:0:0:
140,307,25922,5,4,3:0:0:0:
352,246,26779,1,8,0:0:0:0:
255,48,27636,2,0,P|209:29|160:38,2,100,0|0|8,3:0|3:0|0:0,0:0:0:0:
352,246,29351,6,0,B|346:315|346:315|380:352,1,100,4|0,3:0|0:0,0:0:0:0:
457,275,30208,2,0,B|463:206|463:206|429:169,1,100,8|0,0:0|1:0,0:0:0:0:
364,105,31065,2,0,P|266:88|173:123,1,200,4|0,0:1|1:0,0:0:0:0:
18,279,32779,5,4,3:1:0:0:
95,356,33208,2,0,L|204:349,2,100,0|4|0,1:0|3:2|1:0,0:0:0:0:
18,279,34494,2,0,L|11:179,2,100,0|2|0,3:0|0:0|1:0,0:0:0:0:
120,84,36208,6,0,B|164:72|164:72|264:98,2,150,4|0|0,0:1|0:0|0:0,0:0:0:0:
168,184,37922,2,0,B|268:210|268:210|312:198,2,150,2|0|4,0:0|0:0|0:0,0:0:0:0:
120,84,39636,5,6,0:1:0:0:
148,304,40494,1,0,1:0:0:0:
376,276,41350,1,0,3:0:0:0:
340,55,42208,1,0,1:0:0:0:
460,240,43065,6,0,P|450:334|362:368,1,200,4|0,0:1|0:0,0:0:0:0:
205,212,44779,2,0,L|189:4,2,200,2|0|4,0:3|0:0|0:1,0:0:0:0:
49,367,47351,1,0,0:0:0:0:
256,192,48208,12,4,49922,0:1:0:0:
256,192,56779,5,4,0:0:0:0:
88,340,57636,6,0,P|61:298|65:249,1,100,2|2,0:0|0:0,0:0:0:0:
132,160,58494,2,0,B|232:128|232:194|327:158,2,200,2|0|2,0:3|0:0|0:0,0:0:0:0:
256,344,61065,5,0,0:0:0:0:
416,192,61922,1,4,0:0:0:0:
256,40,62779,2,0,L|148:48,1,100,0|0,3:0|3:0,3:3:0:0:
78,125,63636,6,0,B|60:152|60:152|74:225,1,100,8|0,0:0|3:0,0:0:0:0:
139,304,64494,2,0,B|117:334|65:334|65:334|133:357|176:320,1,200,4|4,3:0|3:0,0:0:0:0:
256,248,65779,1,0,0:0:0:0:
335,320,66208,2,0,B|379:357|446:334|446:334|394:334|372:304,2,200,4|4|4,3:0|3:0|3:0,0:0:0:0:
256,116,68779,6,0,L|272:16,1,100,4|0,3:0|1:0,0:0:0:0:
365,75,69636,2,0,L|349:175,2,100,4|0|8,3:0|3:0|0:0,0:0:0:0:
256,268,71351,5,4,3:0:0:0:
48,196,72208,2,0,P|27:151|36:102,2,100,4|0|4,3:0|1:0|0:0,0:0:0:0:
8,300,73494,1,0,3:0:0:0:
108,348,73922,6,0,B|144:340|144:340|165:351|165:351|205:341,1,100,0|0,1:0|1:0,0:0:0:0:
309,341,74779,2,0,B|347:350|347:350|368:339|368:339|404:347,1,100,0|0,1:0|3:0,3:3:0:0:
504,300,75636,1,0,0:0:0:0:
256,68,77351,6,0,B|211:66|180:92|180:92|48:76,1,200,4|8,1:0|0:0,0:0:0:0:
260,176,79065,2,2,B|420:195|420:195|376:224,2,200,0|8|6,3:0|0:0|1:0,0:0:0:0:
120,348,81636,1,8,0:0:0:0:
32,144,82494,2,0,P|16:97|24:48,1,100,0|0,1:0|3:0,0:0:0:0:
124,88,83351,2,0,P|140:134|131:183,1,100,2|2,3:0|3:0,0:0:0:0:
44,248,84208,5,4,1:0:0:0:
256,304,85065,1,8,0:0:0:0:
440,244,85922,2,0,B|460:197|460:197|444:136,2,100,0|4|8,3:0|3:0|0:0,0:0:0:0:
368,324,87208,1,4,1:2:0:0:
254,303,87636,2,2,B|206:275|140:279|108:322|104:360|162:348|173:335,1,200,6|8,1:0|0:0,0:0:0:0:
348,192,89351,2,0,P|371:148|376:99,2,100,2|2|0,0:0|0:0|0:0,0:0:0:0:
256,192,91065,12,0,92993,0:0:0:0:
56,304,94494,6,0,L|216:292,1,150,4|0,1:0|3:0,0:0:0:0:
244,331,95351,2,0,P|279:297|328:291,1,100,0|4,1:0|1:3,0:0:0:0:
406,369,96208,1,0,3:0:0:0:
483,291,96636,2,0,B|493:152|493:152|459:202,1,200,0|0,3:0|1:0,0:0:0:0:
381,124,97922,6,0,P|302:67|208:92,1,200,4|0,1:0|1:0,0:0:0:0:
303,292,99636,2,0,P|210:316|131:260,2,200,0|8|4,3:0|0:0|1:0,0:0:0:0:
251,77,102208,6,0,L|239:177,1,100,0|4,1:0|3:0,0:0:0:0:
346,150,103065,2,0,L|358:50,1,100,0|0,1:0|3:0,0:0:0:0:
464,23,103922,2,0,L|452:123,1,100,2|2,1:0|1:0,0:0:0:0:
432,232,104779,5,4,1:0:0:0:
256,364,105636,1,8,0:0:0:0:
80,232,106494,2,0,L|68:132,1,100,4|2,1:2|0:0,0:0:0:0:
145,54,107351,2,0,L|245:66,2,100,0|4|4,0:0|0:1|0:1,0:0:0:0:
255,191,115065,5,4,0:0:0:0:
425,330,115922,6,0,L|437:221,1,100,2|2,0:0|0:0,0:0:0:0:
362,147,116779,2,0,B|350:35|350:35|329:69,2,150,0|0|0,0:0|0:0|3:3,3:3:0:0:
257,191,118493,5,2,0:0:0:0:
117,361,119351,1,0,0:0:0:0:
84,141,120208,1,4,0:0:0:0:
275,32,121065,2,0,P|324:24|378:44,1,100,0|0,3:0|3:0,3:3:0:0:
436,128,121922,6,0,B|438:166|438:166|400:256,1,100,8|0,0:0|3:0,0:0:0:0:
313,268,122779,2,0,B|270:298|255:346|255:346|240:299|192:268,1,200,4|4,3:0|3:0,0:0:0:0:
112,196,124065,1,0,0:0:0:0:
192,115,124493,2,0,B|240:85|255:38|255:38|270:86|313:116,2,200,4|4|4,3:0|3:0|3:0,0:0:0:0:
140,329,127065,6,0,L|34:347,1,100,4|0,3:0|1:0,0:0:0:0:
44,237,127922,2,0,L|142:220,2,100,4|0|8,3:0|3:0|0:0,0:0:0:0:
142,39,129636,5,4,3:0:0:0:
360,64,130494,2,0,P|375:110|365:159,2,100,4|0|4,3:0|1:0|0:0,0:0:0:0:
256,24,131779,1,0,3:0:0:0:
152,64,132208,6,0,B|144:102|144:102|159:128|159:128|149:171,1,100,0|0,1:0|1:0,0:0:0:0:
229,236,133065,2,0,B|237:274|237:274|222:300|222:300|232:343,1,100,0|0,1:0|1:0,3:3:0:0:
118,330,133922,1,2,0:0:0:0:
392,68,135636,6,0,B|367:122|409:189|409:189|372:168|330:175,1,200,4|8,1:0|0:0,0:0:0:0:
130,235,137351,2,2,B|66:258|66:258|139:285|154:368,2,200,0|8|6,3:0|0:0|1:1,0:0:0:0:
342,174,139922,1,8,0:0:0:0:
128,122,140779,2,0,L|105:19,1,100,0|0,1:0|3:0,0:0:0:0:
214,45,141636,2,0,L|237:148,1,100,2|2,3:0|3:0,0:0:0:0:
164,226,142494,1,4,1:0:0:0:
379,251,143351,5,8,0:0:0:0:
350,39,144208,2,0,L|248:30,2,100,0|4|8,3:0|3:0|0:0,0:0:0:0:
437,105,145494,1,4,1:2:0:0:
476,207,145922,2,2,B|484:262|472:332|388:345|351:248|407:238|443:263,1,200,6|8,1:1|0:0,0:0:0:0:
271,87,147636,2,0,P|202:64|148:77,2,100,2|2|0,0:0|0:0|1:0,0:0:0:0:
256,192,159636,12,4,163065,1:0:0:0:
253,212,164779,6,0,B|156:172|156:245|58:200,1,200,0|4,1:0|0:3,0:0:0:0:
216,48,166493,2,0,B|313:8|313:81|410:36,1,200,0|4,1:0|0:3,0:0:0:0:
496,236,168208,2,0,P|483:304|454:335,1,100,0|2,1:0|3:2,0:0:0:0:
357,353,169065,2,0,P|289:340|258:311,1,100,2|0,3:2|3:0,0:0:0:0:
156,321,169922,6,0,B|133:272|80:258|80:258|139:239|150:194,1,200,4|2,1:0|0:3,0:0:0:0:
356,116,171636,2,0,B|379:165|431:178|431:178|372:197|361:241,1,200,0|4,1:0|3:0,0:0:0:0:
256,192,173351,12,2,175065,0:1:0:0:
208,348,176779,6,0,B|235:326|235:326|223:259,1,100,4|2,1:0|0:3,0:0:0:0:
145,183,177636,2,0,B|75:145|80:206|0:166,2,150,0|4|4,1:0|3:0|3:0,0:0:0:0:
222,105,179350,1,0,1:0:0:0:
320,156,179779,1,6,1:2:0:0:
416,100,180208,6,0,B|443:122|443:122|431:189,1,100,4|2,1:0|0:3,0:0:0:0:
346,260,181065,2,0,B|268:241|289:299|201:281,2,150,0|4|4,1:0|1:3|3:0,0:0:0:0:
452,292,182779,1,8,1:2:0:0:
500,192,183208,1,0,3:0:0:0:
452,92,183636,6,0,L|288:88,2,150,4|4|4,1:0|3:0|1:2,0:0:0:0:
404,192,185350,2,0,L|240:188,2,150,4|4|4,1:0|3:0|1:2,0:0:0:0:
352,288,187065,2,0,L|188:284,2,150,4|4|4,1:0|3:0|1:2,0:0:0:0:
447,341,188779,5,4,3:0:0:0:
504,248,189208,1,0,3:0:0:0:
504,136,189636,1,0,3:0:0:0:
447,43,190065,1,0,3:0:0:0:
344,88,190494,6,0,P|294:95|248:78,1,100,4|0,1:0|3:0,0:0:0:0:
138,78,191351,2,0,B|124:44|124:44|49:78|49:78|63:114,2,150,2|4|4,1:0|3:0|3:0,0:0:0:0:
136,188,193065,1,0,1:0:0:0:
58,265,193494,1,4,1:2:0:0:
135,342,193922,6,0,P|184:347|231:331,1,100,4|2,1:0|0:3,0:0:0:0:
308,253,194779,2,0,B|322:219|322:219|397:253|397:253|383:289,2,150,0|4|4,1:0|3:0|3:0,0:0:0:0:
212,200,196493,2,0,L|254:93,1,100,0|2,1:0|3:2,0:0:0:0:
326,28,197351,6,0,P|398:20|454:67,2,150,4|4|4,1:0|3:0|1:2,0:0:0:0:
326,138,199065,2,0,P|382:183|388:256,2,150,4|4|4,3:0|3:0|0:0,0:0:0:0:
248,215,200779,2,0,P|255:287|208:343,2,150,4|4|4,1:0|3:0|1:2,0:0:0:0:
140,184,202494,6,0,L|23:192,1,100,4|0,3:0|1:0,0:0:0:0:
52,80,203351,2,0,L|167:71,1,100,0|0,1:0|1:0,0:0:0:0:
256,112,204208,1,2,0:1:0:0:
