osu file format v14

[General]
AudioFilename: audio.mp3
AudioLeadIn: 0
PreviewTime: 77309
Countdown: 0
SampleSet: Soft
StackLeniency: 0.5
Mode: 0
LetterboxInBreaks: 0
WidescreenStoryboard: 1

[Editor]
Bookmarks: 51594,65309,77309,79023,87594,151023,164737,176737,178452,205880
DistanceSpacing: 0.5
BeatDivisor: 4
GridSize: 4
TimelineZoom: 1.1

[Metadata]
Title:DDU-DU DDU-DU
TitleUnicode:뚜두뚜두
Artist:BLACKPINK
ArtistUnicode:BLACKPINK
Creator:Emilia
Version:HY-PER
Source:
Tags:squareup ygent jennie jisoo lisa rose ataraxia kpop k-pop korean pop black pink
BeatmapID:1723799
BeatmapSetID:798572

[Difficulty]
HPDrainRate:4.2
CircleSize:3.8
OverallDifficulty:5.7
ApproachRate:7.9
SliderMultiplier:2.59999990463257
SliderTickRate:1

[Events]
//Background and Video events
0,0,"bg.jpg",0,0
//Break Periods
2,92508,94286
//Storyboard Layer 0 (Background)
//Storyboard Layer 1 (Fail)
//Storyboard Layer 2 (Pass)
//Storyboard Layer 3 (Foreground)
//Storyboard Layer 4 (Overlay)
//Storyboard Sound Samples

[TimingPoints]
3594,428.571428571429,4,2,1,30,1,0
9808,-83.3333333333333,4,2,1,80,0,0
10451,-100,4,2,1,80,0,0
16665,-83.3333333333333,4,2,1,80,0,0
17094,-100,4,2,1,80,0,0
23093,-100,4,2,0,60,0,0
23094,-100,4,2,1,80,0,0
23736,-100,4,2,1,80,0,0
24165,-100,4,2,1,60,0,0
37236,-83.3333333333333,4,2,1,60,0,0
37558,-100,4,2,1,60,0,0
37879,-100,4,2,1,75,0,0
49879,-100,4,2,1,45,0,0
50308,-100,4,2,1,55,0,0
50736,-100,4,2,1,65,0,0
51165,-100,4,2,1,75,0,0
51594,-100,4,2,2,100,0,0
52451,-142.857142857143,4,2,1,55,0,0
65308,-125,4,2,1,65,0,0
72165,-111.111111111111,4,2,1,75,0,0
75701,-111.111111111111,4,2,1,50,0,0
75808,-111.111111111111,4,2,1,75,0,0
75915,-111.111111111111,4,2,1,50,0,0
76022,-111.111111111111,4,2,1,80,0,0
76129,-111.111111111111,4,2,1,50,0,0
76236,-111.111111111111,4,2,1,75,0,0
76343,-111.111111111111,4,2,1,50,0,0
76451,-111.111111111111,4,2,1,80,0,0
76558,-111.111111111111,4,2,1,50,0,0
76665,-111.111111111111,4,2,1,75,0,0
76772,-111.111111111111,4,2,1,50,0,0
76879,-111.111111111111,4,2,1,50,0,0
77093,-111.111111111111,4,2,1,55,0,0
77308,-100,4,2,1,30,0,0
78165,-100,4,2,1,80,0,0
79022,-100,4,2,1,80,0,1
82022,-100,4,2,1,80,0,0
82451,-100,4,2,1,80,0,1
85022,-100,4,2,1,80,0,0
85879,-100,4,2,1,80,0,1
88879,-100,4,2,1,80,0,0
89308,-100,4,2,1,80,0,1
91022,-100,4,2,1,60,0,0
92308,-100,4,2,1,30,0,0
92736,-100,4,2,0,5,0,0
95522,-83.3333333333333,4,2,1,60,0,0
96165,-100,4,2,1,75,0,0
105593,-100,4,2,0,60,0,0
105594,-100,4,2,1,75,0,0
106451,-100,4,2,1,75,0,0
109022,-142.857142857143,4,2,1,75,0,0
109879,-142.857142857143,4,2,2,100,0,0
110093,-142.857142857143,4,2,1,55,0,0
123594,-125,4,2,1,65,0,0
130451,-125,4,2,1,75,0,0
133879,-111.111111111111,4,2,1,50,0,0
134736,-111.111111111111,4,2,1,70,0,0
135165,-100,4,2,1,55,0,0
136451,-100,4,2,1,30,0,0
137308,-100,4,2,1,80,0,1
140308,-100,4,2,1,80,0,0
140736,-100,4,2,1,80,0,1
143308,-100,4,2,1,80,0,0
144165,-100,4,2,1,80,0,1
147165,-100,4,2,1,80,0,0
147594,-100,4,2,1,80,0,1
150165,-100,4,2,0,50,0,0
150379,-100,4,2,1,80,0,0
150808,-100,4,2,1,80,0,0
151022,-142.857142857143,4,2,1,60,0,0
163236,-142.857142857143,4,2,1,60,0,0
164736,-125,4,2,3,60,0,0
171593,-125,4,2,0,45,0,0
171594,-125,4,2,3,60,0,0
172451,-125,4,2,3,50,0,0
173308,-111.111111111111,4,2,3,55,0,0
174165,-111.111111111111,4,2,3,60,0,0
175022,-100,4,2,3,62,0,0
175236,-100,4,2,3,64,0,0
175451,-100,4,2,3,66,0,0
175665,-100,4,2,3,68,0,0
175879,-100,4,2,3,69,0,0
175986,-100,4,2,3,70,0,0
176093,-100,4,2,3,71,0,0
176200,-100,4,2,3,72,0,0
176201,-100,4,2,0,72,0,0
176308,-100,4,2,3,73,0,0
176415,-100,4,2,3,74,0,0
176522,-100,4,2,3,75,0,0
176629,-100,4,2,3,30,0,0
177593,-100,4,2,0,50,0,0
177594,-100,4,2,1,50,0,0
177808,-83.3333333333333,4,2,1,80,0,0
178451,-100,4,2,10,85,0,0
205879,-83.3333333333333,4,2,10,85,0,0
206093,-100,4,2,10,85,0,0

[Colours]
Combo1 : 203,169,241
Combo2 : 125,101,224

[HitObjects]
256,192,3594,12,0,9165,0:0:0:0:
9,206,9808,6,0,P|61:250|171:214,1,155.999989517212,2|2,0:0|0:0,0:0:0:0:
143,240,10451,6,0,L|162:96,1,129.999995231628,4|0,1:2|0:0,0:0:0:0:
147,81,10772,1,0,0:0:0:0:
147,81,10879,2,0,P|198:68|231:77,1,64.9999976158142,2|0,3:2|0:0,0:0:0:0:
287,124,11094,2,0,P|301:161|299:199,1,64.9999976158142,2|0,3:2|0:0,0:0:0:0:
269,279,11308,2,0,L|416:263,2,129.999995231628,8|0|0,0:0|0:0|0:0,0:0:0:0:
269,279,11951,2,0,P|288:336|283:362,1,64.9999976158142,0|0,3:0|3:0,3:0:0:0:
203,370,12165,6,0,P|156:330|86:347,1,129.999995231628,2|2,3:2|3:2,0:0:0:0:
92,341,12486,1,0,3:0:0:0:
92,341,12594,2,0,P|110:296|102:255,1,64.9999976158142,2|0,1:2|0:0,0:0:0:0:
59,206,12808,2,0,L|53:62,1,129.999995231628,0|8,0:2|0:0,0:0:0:0:
53,76,13236,2,0,P|103:100|133:97,1,64.9999976158142,0|0,3:0|3:0,3:0:0:0:
119,19,13451,2,0,L|284:6,1,129.999995231628,0|0,3:0|0:0,0:0:0:0:
248,8,13879,6,0,P|211:73|227:130,1,129.999995231628,2|0,1:2|0:0,0:0:0:0:
243,150,14201,1,0,0:0:0:0:
243,150,14308,2,0,P|296:163|344:136,1,64.9999976158142,2|0,3:2|0:0,0:0:0:0:
363,87,14522,2,0,P|416:74|464:101,1,64.9999976158142,2|0,3:2|0:0,0:0:0:0:
493,145,14736,2,0,L|478:303,2,129.999995231628,10|0|0,0:2|0:0|0:0,0:0:0:0:
493,145,15379,2,0,L|402:157,1,64.9999976158142,0|0,3:0|3:0,3:0:0:0:
354,204,15594,6,0,P|302:207|244:146,1,129.999995231628,2|2,3:2|3:2,0:0:0:0:
247,156,15915,1,0,3:0:0:0:
247,156,16022,2,0,P|203:188|173:190,1,64.9999976158142,2|0,3:2|0:0,0:0:0:0:
95,190,16236,2,0,L|115:33,1,129.999995231628,0|8,0:0|0:0,0:0:0:0:
119,69,16665,6,0,P|185:85|259:10,1,155.999989517212,2|2,0:0|0:0,0:0:0:0:
251,35,16986,1,0,3:0:0:0:
251,35,17094,2,0,P|301:50|323:72,1,64.9999976158142,0|0,3:0|3:0,3:0:0:0:
348,144,17308,6,0,L|314:320,1,129.999995231628,4|0,1:2|0:0,0:0:0:0:
323,271,17629,1,0,0:0:0:0:
323,271,17736,2,0,P|366:254|400:261,1,64.9999976158142,2|0,3:2|0:0,0:0:0:0:
480,242,17951,2,0,P|507:276|514:307,1,64.9999976158142,2|0,3:2|0:0,0:0:0:0:
441,373,18165,2,0,L|279:346,2,129.999995231628,10|0|0,0:0|0:0|0:0,0:0:0:0:
441,373,18808,2,0,L|431:289,1,64.9999976158142,2|0,3:2|3:0,3:0:0:0:
385,244,19022,6,0,P|447:193|516:210,1,129.999995231628,2|2,3:2|3:2,0:0:0:0:
492,196,19344,1,0,3:0:0:0:
492,196,19451,2,0,L|483:52,2,129.999995231628,2|2|8,3:2|0:2|0:0,0:0:0:0:
493,197,20094,2,0,L|481:274,1,64.9999976158142,0|0,3:0|3:0,3:0:0:0:
503,342,20308,1,2,0:0:0:0:
503,342,20736,6,0,P|439:368|372:326,1,129.999995231628,0|0,1:0|0:0,0:0:0:0:
356,358,21058,1,0,3:0:0:0:
356,358,21165,2,0,L|367:280,1,64.9999976158142,2|0,3:2|0:0,0:0:0:0:
278,248,21379,2,0,L|268:312,1,64.9999976158142,2|0,3:2|0:0,0:0:0:0:
191,365,21594,2,0,P|123:369|74:307,2,129.999995231628,10|0|0,0:0|0:0|0:0,0:0:0:0:
191,365,22236,2,0,P|182:302|197:268,1,64.9999976158142,0|0,3:0|3:0,3:0:0:0:
153,224,22451,6,0,B|184:206|184:206|311:228,2,129.999995231628,2|2|2,3:2|3:2|3:2,0:0:0:0:
153,224,23094,2,0,P|114:159|158:82,1,129.999995231628,2|8,3:2|0:0,0:0:0:0:
126,110,23522,1,0,0:0:0:0:
188,45,23736,1,0,3:0:0:0:
188,45,24165,5,0,1:0:0:0:
188,45,24594,2,0,L|350:54,1,129.999995231628,2|0,3:2|0:0,0:0:0:0:
382,4,25022,2,0,P|397:72|348:130,2,129.999995231628,10|2|2,0:2|0:0|0:0,0:0:0:0:
382,4,25665,2,0,P|434:23|468:64,1,64.9999976158142,0|0,3:0|3:0,3:0:0:0:
495,112,25879,6,0,L|341:121,1,129.999995231628,2|0,3:2|0:0,0:0:0:0:
279,256,26308,2,0,P|335:264|390:186,1,129.999995231629,0|0,1:0|0:0,0:0:0:0:
298,62,26736,2,0,P|277:102|279:137,1,64.9999976158143,8|0,0:0|0:0,0:0:0:0:
276,121,26951,2,0,P|234:98|189:107,1,64.9999976158143,0|0,3:0|3:0,3:0:0:0:
153,156,27165,2,0,P|93:169|40:102,1,129.999995231629,2|0,3:2|0:0,0:0:0:0:
43,121,27594,5,0,1:0:0:0:
43,121,28022,2,0,L|50:254,1,129.999995231629,2|0,3:2|0:0,0:0:0:0:
112,382,28451,2,0,P|147:321|117:244,2,129.999995231629,8|2|2,0:0|0:0|0:0,0:0:0:0:
112,382,29094,2,0,P|145:349|184:343,1,64.9999976158143,0|0,3:0|3:0,3:0:0:0:
238,372,29308,6,0,L|389:382,1,129.999995231629,2|0,3:2|1:0,0:0:0:0:
364,201,29736,2,0,P|294:198|257:274,1,129.999995231629,2|0,3:2|0:0,0:0:0:0:
445,329,30165,2,0,P|461:289|455:254,1,64.9999976158143,8|0,0:0|0:0,0:0:0:0:
459,267,30594,2,0,P|491:294|516:299,2,64.9999976158143,0|0|0,3:0|3:0|3:0,0:0:0:0:
459,267,31022,5,0,1:0:0:0:
459,267,31451,2,0,L|479:115,1,129.999995231629,2|0,3:2|0:0,0:0:0:0:
442,21,31879,2,0,P|378:20|331:79,2,129.999995231629,8|2|2,0:0|0:0|0:0,0:0:0:0:
442,21,32522,2,0,P|484:47|514:47,1,64.9999976158143,0|0,3:2|3:0,3:0:0:0:
395,114,32736,6,0,L|234:103,1,129.999995231629,2|0,3:2|0:0,0:0:0:0:
153,0,33165,2,0,P|145:78|190:122,1,129.999995231629,0|0,1:0|0:0,0:0:0:0:
236,246,33594,2,0,P|238:191|214:159,1,64.9999976158143
234,183,33808,2,0,P|271:200|311:194,1,64.9999976158143,0|0,3:0|3:0,3:0:0:0:
363,153,34022,1,2,3:2:0:0:
363,153,34451,5,0,1:0:0:0:
363,153,34879,2,0,L|379:12,1,129.999995231629,2|0,3:2|0:0,0:0:0:0:
475,173,35308,2,0,B|425:138|375:189|397:180|357:242|281:202,1,194.999992847443,8|0,0:0|0:0,0:0:0:0:
297,209,35736,2,0,P|337:273|318:325,1,129.999995231629,2|2,3:2|3:2,0:0:0:0:
99,355,36165,6,0,L|242:337,1,129.999995231629,2|0,3:2|1:0,0:0:0:0:
0,248,36594,2,0,L|143:266,1,129.999995231629,2|0,0:0|0:0,0:0:0:0:
266,158,37022,2,0,P|215:177|193:212,1,64.9999976158143,8|0,0:0|0:0,0:0:0:0:
208,183,37236,6,0,P|256:104|234:42,1,155.999989517212,8|8,0:0|0:0,0:0:0:0:
209,35,37558,1,8,0:0:0:0:
209,35,37665,2,0,L|135:45,1,64.9999976158143,8|0,3:2|3:0,3:0:0:0:
65,92,37879,6,0,B|48:124|48:124|66:241,1,129.999995231629,0|0,1:0|3:0,0:0:0:0:
67,249,38201,1,0,3:0:0:0:
67,249,38308,2,0,B|49:348,2,86.6666634877523,2|0|0,3:2|0:0|0:0,0:0:0:0:
150,237,38736,2,0,B|132:336,2,86.6666634877523,10|0|0,0:0|0:0|0:0,0:0:0:0:
233,273,39165,2,0,P|317:254|385:347,1,194.999992847443,2|0,0:0|3:0,0:0:0:0:
383,328,39594,6,0,B|367:291|367:291|390:173,1,129.999995231629,2|2,3:2|3:2,0:0:0:0:
389,171,39915,1,2,3:2:0:0:
389,171,40022,2,0,L|486:159,2,86.6666634877523,0|2|2,1:0|0:0|0:0,0:0:0:0:
404,88,40451,2,0,L|501:76,2,86.6666634877523,8|0|0,0:0|0:0|0:0,0:0:0:0:
345,14,40879,2,0,P|235:7|172:113,1,194.999992847443,2|0,3:2|0:0,0:0:0:0:
181,63,41308,6,0,B|146:39|146:39|23:56,1,129.999995231629,0|0,1:0|3:0,0:0:0:0:
29,39,41629,1,0,3:0:0:0:
29,39,41736,2,0,L|13:145,2,86.6666634877523,2|2|2,3:2|0:0|0:0,0:0:0:0:
99,125,42165,2,0,L|83:231,2,86.6666634877523,10|2|2,0:0|0:0|0:0,0:0:0:0:
172,193,42594,2,0,P|188:268|88:362,1,194.999992847443,2|0,0:0|3:0,0:0:0:0:
118,354,43022,6,0,B|156:336|156:336|274:353,1,129.999995231629,2|2,3:2|1:2,0:0:0:0:
275,352,43344,1,2,3:2:0:0:
275,352,43451,2,0,L|263:237,2,86.6666634877523,2|2|2,3:2|0:0|0:0,0:0:0:0:
357,298,43879,2,0,L|365:384,2,86.6666634877523,8|0|0,0:0|0:0|0:0,0:0:0:0:
452,341,44308,2,0,L|445:276,2,64.9999976158143,2|0|0,3:2|0:0|3:2,0:0:0:0:
452,341,44629,1,0,3:2:0:0:
452,341,44736,6,0,P|482:322|510:322,1,64.9999976158143,0|0,1:0|0:0,0:0:0:0:
510,225,44951,2,0,P|455:196|422:200,1,64.9999976158143,2|2,3:2|3:2,0:0:0:0:
363,270,45165,2,0,P|305:296|282:357,1,129.999995231629,2|2,3:2|0:2,0:0:0:0:
289,362,45486,1,0,3:0:0:0:
289,362,45594,2,0,P|226:304|167:313,1,129.999995231629,8|2,0:0|3:2,0:0:0:0:
0,380,46022,2,0,L|138:370,1,129.999995231629,2|0,0:0|3:0,0:0:0:0:
129,370,46344,1,0,3:0:0:0:
129,370,46451,6,0,P|97:319|47:296,1,64.9999976158143,2|2,3:2|3:2,0:0:0:0:
13,219,46665,2,0,P|84:197|110:168,1,64.9999976158143,2|0,3:2|0:0,0:0:0:0:
197,218,46879,2,0,L|214:57,1,129.999995231629,0|0,1:0|3:0,0:0:0:0:
393,0,47308,2,0,P|362:68|285:65,1,129.999995231629,8|0,0:0|3:0,0:0:0:0:
313,77,47629,1,0,3:0:0:0:
313,77,47736,2,0,P|344:138|310:205,1,129.999995231629,2|0,3:2|0:0,0:0:0:0:
325,192,48165,6,0,P|368:169|407:178,1,64.9999976158143,0|0,1:0|0:0,0:0:0:0:
458,98,48379,2,0,P|500:118|512:139,1,64.9999976158143,2|2,3:2|3:2,0:0:0:0:
505,236,48594,2,0,L|488:375,1,129.999995231629,2|2,3:2|0:2,0:0:0:0:
281,384,49022,2,0,P|326:329|400:336,1,129.999995231629,8|2,0:0|0:0,0:0:0:0:
380,326,49344,1,0,0:0:0:0:
380,326,49451,2,0,P|375:247|432:210,1,129.999995231629,2|0,0:0|3:0,0:0:0:0:
256,192,49772,12,8,51594,0:1:0:0:
116,145,52451,6,0,P|33:149|8:169,2,90.9999938850405,2|0|2,0:0|0:0|0:0,0:0:0:0:
178,199,53094,1,0,0:0:0:0:
255,169,53308,2,0,P|285:112|241:-6,1,181.999987770081,2|0,0:0|0:0,0:0:0:0:
178,47,53951,1,0,0:0:0:0:
92,30,54165,2,0,L|1:40,1,90.9999938850405,2|0,0:0|0:0,0:0:0:0:
66,129,54594,2,0,L|157:139,1,90.9999938850405,2|2,3:2|0:2,0:0:0:0:
188,221,55022,6,0,P|122:263|53:237,2,136.499990827561,2|2|2,0:0|0:0|0:0,0:0:0:0:
188,221,56094,2,0,L|169:338,2,90.9999938850405,0|2|0,0:0|0:0|0:0,0:0:0:0:
264,188,56736,2,0,P|312:250|291:326,2,136.499990827561,2|2|2,0:0|0:0|0:0,0:0:0:0:
192,138,57594,2,0,P|252:101|328:131,2,136.499990827561,2|2|2,0:0|3:2|3:2,0:0:0:0:
116,186,58451,6,0,P|105:133|122:85,1,90.9999938850405
166,9,58879,2,0,L|268:21,1,90.9999938850405,2|0,0:0|0:0,0:0:0:0:
344,76,59308,2,0,P|395:78|441:40,2,90.9999938850405,2|0|2,0:0|0:0|0:0,0:0:0:0:
370,0,59951,1,2,0:0:0:0:
344,76,60165,2,0,P|323:167|378:261,1,181.999987770081,2|0,0:0|0:0,0:0:0:0:
442,270,60808,1,0,0:0:0:0:
508,215,61022,2,0,P|463:185|414:187,1,90.9999938850405,2|0,0:0|0:0,0:0:0:0:
359,244,61451,2,0,P|363:303|387:339,1,90.9999938850405,2|0,3:2|3:0,0:0:0:0:
242,361,61879,6,0,P|265:295|233:206,2,136.499990827561,2|2|2,0:0|0:0|0:0,0:0:0:0:
242,361,62951,2,0,L|131:350,2,90.9999938850405,0|2|2,0:0|0:0|0:0,0:0:0:0:
319,381,63594,2,0,P|378:347|459:368,2,136.499990827561,2|2|2,0:0|0:0|0:0,0:0:0:0:
290,273,64451,2,0,P|220:209|115:241,1,181.999987770081,0|0,0:0|3:0,0:0:0:0:
139,220,65308,6,0,P|165:266|150:330,1,103.999996185303,8|0,1:2|0:0,0:0:0:0:
75,384,65736,2,0,P|49:338|64:274,1,103.999996185303,2|0,0:2|0:0,0:0:0:0:
31,177,66165,2,0,L|216:152,2,155.999994277954,0|2|2,1:0|0:0|0:0,0:0:0:0:
11,31,67022,2,0,P|79:21|144:92,2,155.999994277954,0|2|2,1:0|0:0|0:0,0:0:0:0:
127,163,67879,2,0,P|180:109|255:117,2,155.999994277954,0|2|2,1:0|0:0|0:0,0:0:0:0:
120,188,68629,1,2,0:0:0:0:
120,188,68736,6,0,L|136:359,2,155.999994277954,0|2|2,1:0|0:0|0:0,0:0:0:0:
289,72,69594,2,0,L|273:243,2,155.999994277954,0|2|10,1:0|0:0|0:0,0:0:0:0:
408,26,70451,2,0,B|425:76|425:76|394:139,1,103.999996185303,0|2,1:0|0:0,0:0:0:0:
170,118,70879,2,0,B|153:68|153:68|184:5,1,103.999996185303,10|2,0:0|0:0,0:0:0:0:
255,177,71308,2,0,L|43:149,1,207.999992370606,0|2,1:0|3:2,0:0:0:0:
48,149,71951,1,2,3:2:0:0:
1,276,72165,6,0,P|66:237|126:258,1,116.999992137909,4|2,1:1|0:0,0:0:0:0:
189,348,72594,2,0,P|254:387|314:366,1,116.999992137909,8|2,0:0|0:0,0:0:0:0:
361,274,73022,2,0,L|346:92,2,175.499988206864,0|2|2,1:2|0:0|1:2,0:0:0:0:
512,114,73879,2,0,P|502:42|416:0,2,175.499988206864,0|2|2,1:0|0:0|1:2,0:0:0:0:
365,70,74736,2,0,L|161:82,2,175.499988206864,0|0|0,1:0|0:0|3:0,0:0:0:0:
297,164,75594,6,0,P|249:183|216:181,3,58.4999960689546,0|0|0|0,1:2|1:2|1:2|1:2,0:0:0:0:
214,198,76022,2,0,P|166:177|144:152,3,58.4999960689546,0|0|0|0,1:2|1:2|1:2|1:2,0:0:0:0:
131,163,76451,2,0,P|112:114|113:81,3,58.4999960689546,0|0|0|0,1:2|1:2|1:2|1:2,0:0:0:0:
97,79,76879,2,0,P|117:31|142:9,3,58.4999960689546,0|0|0|0,1:0|1:0|1:0|1:0,1:0:0:0:
155,1,77308,1,0,0:0:0:0:
320,164,78165,6,0,P|337:197|333:243,1,43.3333317438762,2|2,0:0|0:0,0:0:0:0:
320,164,78594,6,0,P|337:197|333:243,1,43.3333317438762,2|2,0:0|0:0,0:0:0:0:
320,164,79022,6,0,L|475:159,1,129.999995231629,0|0,1:0|0:0,0:0:0:0:
478,175,79344,1,0,0:0:0:0:
478,175,79451,2,0,P|498:114|491:93,1,64.9999976158143,2|0,3:2|0:0,0:0:0:0:
433,15,79665,2,0,P|379:20|346:47,1,64.9999976158143,2|0,3:2|0:0,0:0:0:0:
258,95,79879,2,0,L|117:84,2,129.999995231629,10|2|0,0:0|0:0|0:0,0:0:0:0:
258,95,80522,2,0,P|229:138|232:195,1,64.9999976158143,0|0,3:0|3:0,3:0:0:0:
357,234,80736,6,0,L|365:308,1,64.9999976158143,2|0,3:2|3:2,0:0:0:0:
279,320,80951,2,0,L|272:255,1,64.9999976158143,2|0,3:2|3:2,0:0:0:0:
310,161,81165,2,0,P|375:150|440:213,2,129.999995231629,0|2|8,1:0|0:0|0:0,0:0:0:0:
310,161,81808,2,0,P|337:132|340:88,1,64.9999976158143,0|0,3:0|3:0,3:0:0:0:
343,15,82022,1,2,0:0:0:0:
351,23,82451,6,0,P|414:36|473:-7,1,129.999995231629,0|0,1:0|0:0,0:0:0:0:
466,3,82772,1,0,3:0:0:0:
466,2,82879,2,0,P|440:72|454:116,1,64.9999976158143,2|0,3:2|0:0,0:0:0:0:
467,195,83094,2,0,P|426:155|381:145,1,64.9999976158143,2|0,3:2|0:0,0:0:0:0:
345,251,83308,2,0,L|332:410,2,129.999995231629,8|2|0,0:0|0:0|0:0,0:0:0:0:
345,251,83951,2,0,P|299:286|264:290,1,64.9999976158143,0|0,3:0|3:0,3:0:0:0:
166,169,84165,6,0,P|232:166|275:215,1,129.999995231629,2|2,3:2|1:2,0:0:0:0:
273,209,84486,1,0,0:0:0:0:
273,209,84594,2,0,P|292:159|316:139,1,64.9999976158143,0|0,3:2|0:0,0:0:0:0:
204,294,84808,2,0,P|218:338|240:362,1,64.9999976158143
76,243,85022,2,0,L|-13:253,1,64.9999976158143,2|0,0:0|0:0,0:0:0:0:
76,243,85451,2,0,L|-13:253,1,64.9999976158143,2|0,0:0|0:0,0:0:0:0:
0,137,85665,2,0,P|58:152|74:175,1,64.9999976158143,0|0,3:0|3:0,3:0:0:0:
128,323,85879,6,0,L|146:178,1,129.999995231629,0|0,1:0|0:0,0:0:0:0:
144,193,86201,1,0,0:0:0:0:
144,193,86308,2,0,P|209:175|229:152,1,64.9999976158143,2|0,3:2|0:0,0:0:0:0:
237,293,86522,2,0,P|272:240|274:210,1,64.9999976158143,2|0,3:2|0:0,0:0:0:0:
320,137,86736,2,0,L|480:159,2,129.999995231629,10|2|0,0:0|0:0|0:0,0:0:0:0:
320,137,87379,2,0,P|347:88|348:62,1,64.9999976158143,0|0,3:0|3:0,3:0:0:0:
225,12,87594,6,0,L|232:112,1,64.9999976158143,2|0,3:2|3:2,0:0:0:0:
144,102,87808,2,0,L|139:37,1,64.9999976158143,2|0,3:2|3:2,0:0:0:0:
184,175,88022,2,0,P|125:183|66:132,2,129.999995231629,0|2|8,1:0|0:0|0:0,0:0:0:0:
184,175,88665,2,0,P|154:223|153:249,1,64.9999976158143,0|0,3:0|3:0,3:0:0:0:
182,319,88879,1,2,0:0:0:0:
190,326,89308,6,0,L|321:306,1,129.999995231629,0|0,1:0|0:0,0:0:0:0:
318,306,89629,1,0,3:0:0:0:
318,306,89736,2,0,P|305:361|277:387,1,64.9999976158143,2|0,3:2|0:0,0:0:0:0:
358,227,89951,2,0,P|418:261|432:292,1,64.9999976158143,2|0,3:2|0:0,0:0:0:0:
267,227,90165,2,0,P|257:155|303:103,2,129.999995231629,8|2|0,0:0|0:0|0:0,0:0:0:0:
267,227,90808,2,0,P|226:203|192:210,1,64.9999976158143,0|0,3:0|3:0,3:0:0:0:
131,271,91022,6,0,P|67:309|-8:282,4,129.999995231629,0|2|0|2|2,3:0|0:0|3:2|0:0|3:2,0:0:0:0:
131,271,92308,1,2,0:0:0:0:
216,317,95522,6,0,P|125:266|62:283,1,155.999989517212,2|2,0:0|0:0,0:0:0:0:
78,274,96165,6,0,B|66:228|66:228|104:75,1,194.999992847443,0|0,1:0|0:0,0:0:0:0:
97,52,96594,2,0,L|195:45,3,64.9999976158143,2|2|2|2,0:0|0:0|0:0|0:0,0:0:0:0:
191,60,97022,2,0,L|289:53,3,64.9999976158143,8|0|2|0,3:2|3:0|1:2|3:0,0:0:0:0:
285,68,97451,2,0,P|341:77|398:17,1,129.999995231629,2|2,1:2|3:2,3:0:0:0:
393,32,97879,6,0,P|371:93|378:127,1,64.9999976158143,0|0,3:2|3:0,0:0:0:0:
463,132,98094,2,0,P|485:71|478:37,1,64.9999976158143,2|0,1:2|0:0,0:0:0:0:
397,185,98308,2,0,P|452:216|513:197,2,129.999995231629,0|2|8,0:0|3:2|0:0,0:0:0:0:
341,252,98951,1,0,0:0:0:0:
259,222,99165,2,0,L|80:248,1,129.999995231629,0|0,3:0|3:0,0:0:0:0:
130,240,99594,6,0,P|88:317|60:236,1,194.999992847443,0|0,1:0|0:0,0:0:0:0:
31,227,100022,2,0,P|64:176|96:161,3,64.9999976158143,2|0|0|2,0:0|0:0|0:0|0:2,0:0:0:0:
73,142,100451,2,0,P|131:124|165:133,3,64.9999976158143,2|0|2|0,3:2|3:0|3:2|3:0,0:0:0:0:
159,103,100879,2,0,P|214:126|235:155,3,64.9999976158143,2|0|2|0,1:2|3:0|3:2|3:0,0:0:0:0:
231,158,101308,6,0,L|249:11,2,129.999995231629,2|2|2,3:2|1:2|0:0,0:0:0:0:
231,158,101951,2,0,P|266:123|296:117,1,64.9999976158143
415,160,102165,2,0,P|345:207|275:170,1,129.999995231629,8|0,0:2|0:0,0:0:0:0:
239,257,102594,1,0,3:2:0:0:
239,257,103022,6,0,L|55:231,2,129.999995231629,2|2|2,1:2|0:0|0:0,0:0:0:0:
239,257,103665,2,0,P|211:306|213:345,1,64.9999976158143,2|2,0:0|0:0,0:0:0:0:
291,317,103879,2,0,L|363:309,3,64.9999976158143,10|0|2|0,3:2|3:0|1:2|3:0,0:0:0:0:
381,289,104308,2,0,L|453:281,3,64.9999976158143,2|0|2|0,1:2|3:0|3:2|3:0,0:0:0:0:
504,345,104736,6,0,P|529:278|495:215,2,129.999995231629,2|2|0,3:2|1:2|3:0,0:0:0:0:
512,353,105272,1,0,3:0:0:0:
512,353,105379,2,0,P|443:380|429:394,1,64.9999976158143,0|0,3:0|3:0,0:0:0:0:
344,361,105594,2,0,L|166:348,1,129.999995231629,8|0,0:0|0:0,0:0:0:0:
342,355,106022,2,0,L|164:342,1,129.999995231629,8|0,0:0|0:0,0:0:0:0:
10,349,106451,6,0,P|81:359|136:276,2,129.999995231629,0|2|2,1:0|0:0|3:2,0:0:0:0:
3,317,106986,1,0,3:2:0:0:
3,317,107094,2,0,L|19:230,1,64.9999976158143,2|0,3:2|3:2,0:0:0:0:
37,230,107308,2,0,L|53:143,3,64.9999976158143,8|0|2|0,3:2|3:2|3:2|3:2,0:0:0:0:
71,143,107736,2,0,L|87:56,3,64.9999976158143,2|0|2|0,1:2|3:2|3:2|3:2,0:0:0:0:
67,49,108165,6,0,P|132:15|202:45,1,129.999995231629,0|0,3:0|1:0,3:0:0:0:
183,28,108594,2,0,P|236:5|266:11,1,64.9999976158143,0|0,3:0|3:0,0:0:0:0:
314,69,108808,2,0,P|363:103|375:134,1,64.9999976158143,0|0,3:0|3:0,0:0:0:0:
355,204,109022,1,2,0:0:0:0:
355,204,109879,6,0,L|451:192,1,90.9999938850405,8|0,0:1|0:0,0:0:0:0:
501,257,110308,2,0,P|492:319|463:349,1,90.9999938850405
389,369,110736,2,0,P|339:326|294:328,1,90.9999938850405,2|0,0:0|0:0,0:0:0:0:
241,365,111165,2,0,L|150:376,1,90.9999938850405,2|0,0:0|0:0,0:0:0:0:
170,292,111594,2,0,B|118:268|81:308|100:298|52:347|-7:319,1,181.999987770081,2|0,0:0|0:0,0:0:0:0:
31,243,112236,1,0,0:0:0:0:
0,162,112451,2,0,P|8:104|32:74,1,90.9999938850405,2|0,0:0|0:0,0:0:0:0:
113,0,112879,2,0,P|136:38|139:83,1,90.9999938850405,2|2,3:2|0:2,0:0:0:0:
77,146,113308,6,0,L|245:123,2,136.499990827561,2|2|2,0:0|0:0|0:0,0:0:0:0:
77,146,114379,2,0,L|61:239,2,90.9999938850405,0|2|0,0:0|0:0|0:0,0:0:0:0:
150,195,115022,2,0,P|181:266|159:330,2,136.499990827561,2|2|2,0:0|0:0|0:0,0:0:0:0:
77,146,115879,2,0,P|46:75|68:11,2,136.499990827561,2|2|2,0:0|3:2|3:2,0:0:0:0:
151,63,116736,6,0,L|347:44,1,181.999987770081,0|2,0:0|0:0,0:0:0:0:
411,80,117379,1,0,0:0:0:0:
485,46,117594,2,0,P|418:1|373:13,2,90.9999938850405,2|0|2,0:0|0:0|0:0,0:0:0:0:
504,133,118236,2,0,P|438:130|372:223,1,181.999987770081,2|0,0:0|0:0,0:0:0:0:
439,272,118879,2,0,P|454:318|441:368,1,90.9999938850405
339,376,119308,2,0,P|324:330|337:280,1,90.9999938850405,2|0,0:0|0:0,0:0:0:0:
372,215,119736,2,0,L|366:107,1,90.9999938850405,2|0,3:2|3:0,0:0:0:0:
403,42,120165,6,0,P|332:6|259:32,2,136.499990827561,2|2|2,0:0|0:0|0:0,0:0:0:0:
403,42,121236,2,0,L|506:24,2,90.9999938850405,0|2|2,0:0|0:0|0:0,0:0:0:0:
349,110,121879,2,0,P|362:152|308:257,2,136.499990827561,2|2|2,0:0|0:0|0:0,0:0:0:0:
269,78,122736,2,0,L|73:62,1,181.999987770081,0|0,0:0|3:0,0:0:0:0:
87,63,123594,6,0,P|113:113|77:186,1,103.999996185303,8|0,1:2|0:0,0:0:0:0:
7,247,124022,2,0,L|126:237,1,103.999996185303,2|0,0:2|0:0,0:0:0:0:
127,348,124451,2,0,P|185:361|272:276,2,155.999994277954,0|2|2,1:0|0:0|0:0,0:0:0:0:
238,230,125308,2,0,P|297:277|372:267,2,155.999994277954,0|2|2,1:0|0:0|0:0,0:0:0:0:
434,188,126165,2,0,L|404:378,2,155.999994277954,0|2|2,1:0|0:0|0:0,0:0:0:0:
441,194,126915,1,2,0:0:0:0:
441,194,127022,6,0,P|496:108|472:26,2,155.999994277954,0|2|2,1:0|0:0|0:0,0:0:0:0:
410,18,127879,2,0,L|245:31,2,155.999994277954,0|2|10,1:0|0:0|0:0,0:0:0:0:
301,135,128736,2,0,P|238:137|200:80,1,103.999996185303,0|2,1:0|0:0,0:0:0:0:
105,27,129165,2,0,P|42:25|4:82,1,103.999996185303,10|2,0:0|0:0,0:0:0:0:
129,143,129594,2,0,L|135:367,1,207.999992370606,0|2,1:0|3:2,0:0:0:0:
44,325,130236,1,2,3:2:0:0:
183,280,130451,6,0,P|221:332|203:392,1,103.999996185303,4|2,1:1|0:0,0:0:0:0:
311,296,130879,2,0,L|425:285,1,103.999996185303,8|2,0:0|0:0,0:0:0:0:
507,199,131308,2,0,P|444:203|371:127,2,155.999994277954,0|2|2,1:2|0:0|1:2,0:0:0:0:
302,185,132165,2,0,P|356:93|309:19,2,155.999994277954,0|2|2,1:0|0:0|1:2,0:0:0:0:
276,0,133022,2,0,L|84:15,2,155.999994277954,0|0|0,1:0|0:0|3:0,0:0:0:0:
97,102,133879,6,0,P|46:73|32:72,1,58.4999960689546,0|0,1:0|1:0,1:0:0:0:
97,102,134308,2,0,P|46:73|32:72,1,58.4999960689546,0|0,1:0|1:0,1:0:0:0:
19,235,134736,2,0,L|84:227,3,58.4999960689546,0|0|0|0,1:0|1:0|1:0|1:0,0:0:0:0:
102,207,135165,2,0,P|127:303|-14:294,1,259.999990463257,0|0,1:0|0:0,1:0:0:0:
300,345,136451,6,0,P|351:362|370:380,1,43.3333317438762,2|2,0:0|0:0,0:0:0:0:
300,345,136879,6,0,P|351:362|370:380,1,43.3333317438762,2|2,0:0|0:0,0:0:0:0:
300,345,137308,6,0,P|386:340|421:269,1,129.999995231629,0|0,1:0|0:0,0:0:0:0:
419,279,137629,1,0,0:0:0:0:
419,279,137736,2,0,P|447:328|481:345,1,64.9999976158143,2|0,3:2|0:0,0:0:0:0:
504,169,137951,2,0,P|462:185|435:219,1,64.9999976158143,2|0,3:2|0:0,0:0:0:0:
346,231,138165,2,0,L|367:66,2,129.999995231629,10|2|0,0:0|0:0|0:0,0:0:0:0:
346,231,138808,2,0,P|288:187|246:187,1,64.9999976158143,0|0,3:0|3:0,3:0:0:0:
200,282,139022,6,0,L|115:289,1,64.9999976158143,2|0,3:2|3:2,0:0:0:0:
98,206,139236,2,0,L|162:200,1,64.9999976158143,2|0,3:2|3:2,0:0:0:0:
67,129,139451,2,0,P|20:177|26:248,2,129.999995231629,0|2|8,1:0|0:0|0:0,0:0:0:0:
67,129,140094,2,0,P|28:110|-2:108,1,64.9999976158143,0|0,3:0|3:0,3:0:0:0:
125,55,140308,2,0,L|296:36,1,129.999995231629,2|0,0:0|0:0,0:0:0:0:
254,40,140736,6,0,P|214:125|250:194,1,129.999995231629,0|0,1:0|0:0,0:0:0:0:
238,184,141058,1,0,3:0:0:0:
238,184,141165,2,0,P|291:169|329:180,1,64.9999976158143,2|0,3:2|0:0,0:0:0:0:
410,96,141379,2,0,P|350:55|313:54,1,64.9999976158143,2|0,3:2|0:0,0:0:0:0:
388,197,141594,2,0,L|368:352,2,129.999995231629,8|2|0,0:0|0:0|0:0,0:0:0:0:
388,197,142236,2,0,P|405:248|440:269,1,64.9999976158143,0|0,3:0|3:0,3:0:0:0:
445,368,142451,6,0,P|369:359|319:390,1,129.999995231629,2|2,3:2|1:2,0:0:0:0:
324,384,142772,1,0,0:0:0:0:
324,384,142879,2,0,P|352:332|348:279,1,64.9999976158143,0|0,3:2|0:0,0:0:0:0:
233,269,143094,2,0,L|223:357,1,64.9999976158143
93,372,143308,2,0,P|26:348|-8:360,1,64.9999976158143,2|0,0:0|0:0,0:0:0:0:
93,372,143736,2,0,P|26:348|-8:360,1,64.9999976158143,2|0,0:0|0:0,0:0:0:0:
0,226,143951,2,0,L|93:212,1,64.9999976158143,0|0,3:0|3:0,3:0:0:0:
201,142,144165,6,0,P|143:74|68:95,1,129.999995231629,0|0,1:0|0:0,0:0:0:0:
78,61,144486,1,0,0:0:0:0:
78,61,144594,2,0,P|21:80|0:113,1,64.9999976158143,2|0,3:2|0:0,0:0:0:0:
192,6,144808,2,0,P|244:7|267:-4,1,64.9999976158143,2|0,3:2|0:0,0:0:0:0:
288,111,145022,2,0,L|273:262,2,129.999995231629,10|2|0,0:0|0:0|0:0,0:0:0:0:
288,111,145665,2,0,P|313:155|354:170,1,64.9999976158143,0|0,3:0|3:0,3:0:0:0:
470,82,145879,6,0,L|369:98,1,64.9999976158143,2|0,3:2|3:2,0:0:0:0:
328,21,146094,2,0,L|227:37,1,64.9999976158143,2|0,3:2|3:2,0:0:0:0:
170,100,146308,2,0,P|100:100|58:39,2,129.999995231629,0|2|8,1:0|0:0|0:0,0:0:0:0:
170,100,146951,2,0,P|145:147|141:184,1,64.9999976158143,0|0,3:0|3:0,3:0:0:0:
199,245,147165,1,2,0:0:0:0:
207,252,147594,6,0,L|190:388,1,129.999995231629,0|0,1:0|0:0,0:0:0:0:
190,380,147915,1,0,3:0:0:0:
190,380,148022,2,0,P|255:359|272:324,1,64.9999976158143,2|0,3:2|0:0,0:0:0:0:
337,288,148236,2,0,P|378:300|400:328,1,64.9999976158143,2|0,3:2|0:0,0:0:0:0:
512,226,148451,2,0,P|424:214|397:137,2,129.999995231629,8|2|0,0:0|0:0|0:0,0:0:0:0:
512,226,149094,2,0,P|482:291|483:324,1,64.9999976158143,0|0,3:0|3:0,3:0:0:0:
480,146,149308,6,0,L|473:71,1,64.9999976158143,2|0,3:2|0:0,0:0:0:0:
376,19,149522,2,0,L|382:83,1,64.9999976158143,0|0,1:2|0:0,0:0:0:0:
304,133,149736,2,0,P|239:141|181:81,2,129.999995231629,2|0|8,3:2|3:0|0:0,0:0:0:0:
304,133,150379,1,0,0:0:0:0:
372,198,150594,2,0,P|355:271|338:289,1,64.9999976158143,0|0,3:0|3:0,0:0:0:0:
275,331,150808,2,0,L|177:307,1,64.9999976158143,0|0,3:0|3:0,3:0:0:0:
136,252,151022,6,0,P|82:255|34:298,2,90.9999938850405,4|0|2,1:1|0:0|0:2,0:0:0:0:
20,358,151665,2,0,L|47:175,1,181.999987770081,2|2,1:2|0:0,0:0:0:0:
22,52,152308,2,0,P|72:67|95:116,1,90.9999938850405,2|0,1:2|0:0,0:0:0:0:
166,24,152736,2,0,L|317:10,2,136.499990827561,0|2|2,1:1|0:0|1:2,0:0:0:0:
235,108,153594,2,0,P|263:156|232:250,2,136.499990827561,2|2|0,0:0|0:0|1:2,0:0:0:0:
0,204,154451,6,0,B|73:184|88:102|88:102|106:193|218:181,2,272.999981655122,2|0|0,1:2|1:0|1:0,0:0:0:0:
199,258,156165,2,0,B|272:278|287:360|287:360|305:269|417:281,2,272.999981655122,0|0|0,1:0|1:0|1:0,0:0:0:0:
199,258,157879,6,0,P|204:331|173:371,2,90.9999938850405,2|0|2,1:2|0:0|0:2,0:0:0:0:
76,226,158522,2,0,L|273:197,1,181.999987770081,2|0,1:2|0:0,0:0:0:0:
375,158,159165,2,0,P|311:121|273:136,1,90.9999938850405,2|0,1:2|0:0,0:0:0:0:
244,283,159594,2,0,P|287:296|368:231,2,136.499990827561,2|2|2,1:2|0:0|1:2,0:0:0:0:
145,376,160451,2,0,P|166:310|113:224,2,136.499990827561,2|2|2,0:0|0:0|1:2,0:0:0:0:
10,224,161308,6,0,B|46:250|101:249|144:202|144:152|144:152|246:178,2,272.999981655122,2|0|2,1:2|1:0|1:2,0:0:0:0:
10,224,162808,1,2,0:2:0:0:
58,148,163022,6,0,L|78:39,1,90.9999938850405,0|2,1:0|0:2,0:0:0:0:
65,37,163344,1,2,0:2:0:0:
65,37,163451,2,0,P|111:15|157:26,1,90.9999938850405,0|2,0:0|0:2,0:0:0:0:
168,9,163772,1,2,0:2:0:0:
168,9,163879,2,0,P|207:41|216:87,1,90.9999938850405,0|0,0:0|0:2,0:0:0:0:
236,90,164201,1,2,0:2:0:0:
236,90,164308,2,0,P|223:139|185:167,1,90.9999938850405,0|2,0:0|0:2,0:0:0:0:
0,303,164736,6,0,P|59:235|175:261,1,207.999992370606,4|8,0:1|0:0,0:0:0:0:
166,252,165379,1,2,0:0:0:0:
187,377,165594,2,0,B|167:317|225:257|213:291|281:237|241:163,1,207.999992370606,8|8,0:0|0:0,0:0:0:0:
191,52,166236,1,2,0:0:0:0:
191,52,166344,1,2,0:0:0:0:
191,52,166451,6,0,P|160:112|171:152,1,103.999996185303,10|0,0:0|0:0,0:0:0:0:
271,177,166879,2,0,P|302:117|291:77,1,103.999996185303,10|0,0:0|0:0,0:0:0:0:
100,19,167308,2,0,L|341:-4,1,207.999992370606,10|8,0:0|0:0,0:0:0:0:
395,146,167951,1,2,0:0:0:0:
395,146,168059,1,2,0:0:0:0:
395,146,168166,6,0,P|364:86|375:46,1,103.999996185303,10|0,0:0|0:0,0:0:0:0:
475,21,168594,2,0,P|506:81|495:121,1,103.999996185303,10|0,0:0|0:0,0:0:0:0:
304,179,169023,2,0,L|545:202,1,207.999992370606,10|8,0:0|0:0,0:0:0:0:
511,198,169665,1,2,0:0:0:0:
366,267,169879,6,0,P|345:326|361:377,1,103.999996185303,8|2,0:0|0:0,0:0:0:0:
375,379,170201,1,2,0:0:0:0:
375,379,170308,2,0,L|267:365,1,103.999996185303,8|2,0:0|0:0,0:0:0:0:
252,348,170629,1,2,0:0:0:0:
252,348,170736,2,0,L|144:334,1,103.999996185303,8|2,0:0|0:0,0:0:0:0:
129,317,171058,1,2,0:0:0:0:
129,317,171165,2,0,P|106:344|101:374,1,51.9999980926514,8|0,3:2|3:0,0:0:0:0:
6,252,171379,2,0,P|50:247|70:230,1,51.9999980926514,8|0,3:2|3:0,0:0:0:0:
145,178,171594,6,0,L|160:73,2,103.999996185303,8|8|8,0:0|0:0|0:0,0:0:0:0:
255,38,172236,1,8,0:0:0:0:
255,38,172451,2,0,L|240:140,2,103.999996185303,8|8|8,0:0|0:0|0:0,0:0:0:0:
255,38,173094,2,0,P|283:78|313:92,1,51.9999980926514,8|8,0:0|0:0,0:0:0:0:
376,59,173308,6,0,L|500:51,2,116.999992137909,8|8|8,0:0|0:0|0:0,0:0:0:0:
455,145,173951,1,8,0:0:0:0:
455,145,174165,2,0,L|338:152,2,116.999992137909,8|8|8,0:0|0:0|0:0,0:0:0:0:
455,145,174808,2,0,P|437:186|437:219,1,58.4999960689546,8|8,0:0|0:0,0:0:0:0:
476,312,175022,6,0,L|408:302,3,64.9999976158143,8|8|8|8,0:0|0:0|0:0|0:0,0:0:0:0:
380,313,175451,2,0,L|312:303,3,64.9999976158143,8|8|8|8,0:0|0:0|0:0|0:0,0:0:0:0:
284,314,175879,2,0,L|216:304,3,64.9999976158143,8|8|8|8,0:0|0:0|0:0|0:0,0:0:0:0:
188,315,176308,2,0,L|120:305,3,64.9999976158143,8|8|8|8,0:0|0:0|0:0|0:0,0:0:0:0:
92,316,176736,1,0,0:0:0:0:
92,316,177594,6,0,P|116:264|116:234,1,64.9999976158143,2|0,0:0|0:0,0:0:0:0:
49,160,177808,6,0,P|132:216|218:194,1,155.999989517212,0|0,1:0|1:0,0:0:0:0:
183,211,178451,6,0,L|203:28,1,129.999995231629,4|0,1:1|0:0,0:0:0:0:
179,54,178772,1,0,3:0:0:0:
179,54,178879,2,0,P|255:7|329:56,1,129.999995231629,2|2,3:2|3:2,3:0:0:0:
398,164,179308,2,0,P|334:167|287:125,2,129.999995231629,8|0|2,0:0|0:0|3:2,0:0:0:0:
398,164,179951,2,0,P|368:214|371:257,1,64.9999976158143,4|0,1:3|0:0,0:0:0:0:
456,239,180165,6,0,L|452:89,2,129.999995231629,0|2|4,0:0|3:2|1:3,0:0:0:0:
456,239,180808,2,0,P|490:293|491:325,1,64.9999976158143,2|0,3:2|0:0,0:0:0:0:
412,363,181022,2,0,P|346:368|302:286,1,129.999995231629,8|0,0:0|3:0,0:0:0:0:
310,292,181344,1,0,3:0:0:0:
310,292,181451,2,0,L|165:311,1,129.999995231629,2|2,0:0|0:0,0:0:0:0:
0,291,181879,6,0,P|67:291|105:207,1,129.999995231629,4|0,1:0|0:0,0:0:0:0:
110,213,182201,1,0,3:0:0:0:
110,213,182308,2,0,L|102:44,1,129.999995231629,2|2,3:2|3:2,3:0:0:0:
231,2,182736,2,0,L|224:131,2,129.999995231629,8|0|2,0:0|0:0|3:2,0:0:0:0:
231,2,183379,2,0,P|263:42|296:48,1,64.9999976158143,4|2,1:3|3:2,0:0:0:0:
360,12,183594,6,0,P|429:4|485:57,3,129.999995231629,2|2|4|2,3:2|3:2|1:3|3:2,0:0:0:0:
325,110,184451,2,0,P|256:102|200:155,3,129.999995231629,10|2|2|0,3:2|3:2|3:2|3:0,0:0:0:0:
15,249,185308,6,0,L|1:333,4,64.9999976158143,4|0|0|0|0,1:3|3:0|3:0|3:0|3:0,0:0:0:0:
128,237,185951,2,0,L|114:321,4,64.9999976158143,4|0|0|0|0,1:3|3:0|3:0|3:0|3:0,0:0:0:0:
206,371,186594,2,0,P|269:335|270:250,1,129.999995231629,8|8,0:1|0:1,0:0:0:0:
281,283,186915,1,8,0:1:0:0:
281,283,187022,6,0,P|356:310|411:253,1,129.999995231629,4|2,1:3|0:2,0:0:0:0:
412,259,187344,1,0,3:0:0:0:
412,259,187451,2,0,L|398:109,1,129.999995231629,2|4,3:2|1:3,3:0:0:0:
262,58,187879,2,0,L|274:187,2,129.999995231629,2|2|8,3:2|3:2|0:1,3:0:0:0:
262,58,188522,2,0,P|310:98|339:99,1,64.9999976158143,0|0,3:0|3:0,3:0:0:0:
388,185,188736,6,0,L|378:268,4,64.9999976158143,8|0|0|0|0,1:3|3:0|3:0|3:0|3:0,0:0:0:0:
413,76,189379,2,0,L|403:-7,4,64.9999976158143,8|0|0|0|0,1:3|3:0|3:0|3:0|3:0,0:0:0:0:
310,157,190022,2,0,P|297:88|212:44,1,129.999995231629,8|8,0:1|0:1,0:0:0:0:
252,51,190344,1,8,0:1:0:0:
252,51,190451,6,0,P|167:36|105:84,1,129.999995231629,4|8,1:3|0:1,0:0:0:0:
109,80,190772,1,8,0:1:0:0:
109,80,190879,2,0,L|121:225,1,129.999995231629,8|8,0:1|0:1,0:0:0:0:
140,235,191201,1,8,0:1:0:0:
140,235,191308,2,8,L|152:380,1,129.999995231629,8|8,0:1|0:1,0:1:0:0:
151,365,191629,1,8,0:1:0:0:
151,365,191736,2,8,P|210:352|235:316,1,64.9999976158143,8|0,0:2|0:0,0:1:0:0:
264,242,191951,2,8,P|315:253|334:271,1,64.9999976158143,8|0,0:2|0:0,0:1:0:0:
489,368,192165,6,0,P|518:315|416:352,1,259.999990463257,4|0,1:0|3:0,3:0:0:0:
409,340,192808,2,0,P|360:348|330:373,1,64.9999976158143,2|0,3:2|0:0,3:0:0:0:
255,374,193022,2,0,L|276:233,2,129.999995231629,8|0|2,0:0|0:0|3:2,0:0:0:0:
255,374,193665,2,0,P|222:312|196:298,1,64.9999976158143,4|0,1:3|3:0,0:0:0:0:
236,176,193879,6,0,P|309:175|352:243,2,129.999995231629,2|2|4,3:2|3:2|1:3,3:0:0:0:
236,176,194522,2,0,P|266:120|263:95,1,64.9999976158143,2|0,3:2|0:0,0:0:0:0:
190,0,194736,2,0,L|163:155,1,129.999995231629,8|2,0:0|3:2,0:0:0:0:
167,128,195058,1,0,3:0:0:0:
167,128,195165,2,0,P|89:73|33:93,1,129.999995231629,2|2,3:2|3:2,3:2:0:0:
27,282,195594,6,0,P|-3:224|88:273,1,259.999990463257,4|2,1:1|3:2,3:0:0:0:
100,257,196236,2,0,P|142:228|175:227,1,64.9999976158143,2|0,3:2|3:0,3:0:0:0:
116,353,196451,2,0,L|265:341,2,129.999995231629,8|0|2,0:0|0:0|3:2,0:0:0:0:
116,353,197094,2,0,P|163:375|173:392,1,64.9999976158143,4|0,1:3|0:0,0:0:0:0:
329,384,197308,6,0,P|377:335|366:263,1,129.999995231629,0|2,0:0|3:2,0:0:0:0:
374,277,197629,1,0,3:2:0:0:
374,277,197736,2,0,P|430:312|501:280,1,129.999995231629,4|2,1:3|3:2,0:0:0:0:
487,295,198058,1,0,3:0:0:0:
487,295,198165,2,0,L|505:152,1,129.999995231629,8|0,0:0|3:0,0:0:0:0:
503,166,198594,2,0,P|459:130|425:129,2,64.9999976158143,2|0|2,3:2|3:0|3:2,0:0:0:0:
345,9,199022,6,0,L|333:96,4,64.9999976158143,4|0|0|0|0,1:3|3:0|3:0|3:0|3:0,0:0:0:0:
218,87,199665,2,0,L|226:22,4,64.9999976158143,4|0|0|0|0,1:3|3:0|3:0|3:0|3:0,0:0:0:0:
124,49,200308,2,0,P|57:43|4:96,1,129.999995231629,8|8,0:1|0:1,0:0:0:0:
25,109,200629,1,8,0:1:0:0:
25,109,200736,6,0,L|31:264,1,129.999995231629,4|0,1:3|0:0,0:0:0:0:
30,238,201058,1,8,0:1:0:0:
30,238,201165,1,2,3:2:0:0:
158,384,201379,2,0,L|164:229,1,129.999995231629,4|0,1:3|0:0,0:0:0:0:
163,254,201701,1,8,0:1:0:0:
163,254,201808,1,8,0:1:0:0:
116,191,202022,2,0,P|160:173|196:179,1,64.9999976158143,8|0,0:0|0:0,0:0:0:0:
257,238,202236,2,8,P|258:286|244:319,1,64.9999976158143,8|8,0:1|0:1,0:1:0:0:
349,361,202451,6,0,L|433:347,4,64.9999976158143,8|0|0|8|0,1:3|3:0|3:0|3:1|3:0,0:0:0:0:
166,344,203094,2,0,L|82:330,4,64.9999976158143,8|0|0|0|8,1:3|3:0|3:0|3:0|3:1,0:0:0:0:
32,162,203736,2,0,P|103:149|158:218,1,129.999995231629,8|8,0:1|0:1,0:0:0:0:
145,181,204058,1,8,0:1:0:0:
145,181,204165,6,0,L|167:23,1,129.999995231629,0|2,1:0|3:2,0:0:0:0:
153,21,204486,1,0,0:0:0:0:
153,21,204594,2,0,P|254:32|270:99,1,129.999995231629,2|0,0:2|1:0,0:0:0:0:
180,255,205022,2,0,P|158:299|156:342,1,64.9999976158143,8|0,0:0|0:0,0:0:0:0:
180,255,205451,2,0,P|158:299|156:342,1,64.9999976158143,8|8,0:1|0:1,0:0:0:0:
467,358,205879,6,2,P|482:312|398:343,1,155.999989517212,4|0,1:0|0:0,1:2:0:0:
