osu file format v14

[General]
AudioFilename: audio.mp3
AudioLeadIn: 0
PreviewTime: 77309
Countdown: 0
SampleSet: Soft
StackLeniency: 0.8
Mode: 0
LetterboxInBreaks: 0
WidescreenStoryboard: 1

[Editor]
Bookmarks: 51594,65309,77309,79023,87594,151023,164737,173308,176737,178452,205880
DistanceSpacing: 0.5
BeatDivisor: 4
GridSize: 4
TimelineZoom: 1.1

[Metadata]
Title:DDU-DU DDU-DU
TitleUnicode:뚜두뚜두
Artist:BLACKPINK
ArtistUnicode:BLACKPINK
Creator:Emilia
Version:AD-VANCED
Source:
Tags:squareup ygent jennie jisoo lisa rose ataraxia kpop k-pop korean pop black pink
BeatmapID:1723800
BeatmapSetID:798572

[Difficulty]
HPDrainRate:3.7
CircleSize:3.2
OverallDifficulty:4.2
ApproachRate:4.7
SliderMultiplier:1.79999990463257
SliderTickRate:1

[Events]
//Background and Video events
0,0,"bg.jpg",0,0
//Break Periods
2,92508,94286
//Storyboard Layer 0 (Background)
//Storyboard Layer 1 (Fail)
//Storyboard Layer 2 (Pass)
//Storyboard Layer 3 (Foreground)
//Storyboard Layer 4 (Overlay)
//Storyboard Sound Samples

[TimingPoints]
3594,428.571428571429,4,2,1,30,1,0
9808,-100,4,2,1,80,0,0
23736,-100,4,2,1,80,0,0
24165,-100,4,2,1,60,0,0
37236,-100,4,2,1,60,0,0
37879,-100,4,2,1,75,0,0
49879,-100,4,2,1,45,0,0
50308,-100,4,2,1,55,0,0
50736,-100,4,2,1,65,0,0
51165,-100,4,2,1,75,0,0
51594,-100,4,2,2,100,0,0
52451,-100,4,2,1,55,0,0
65308,-100,4,2,1,65,0,0
72165,-100,4,2,1,75,0,0
75701,-100,4,2,1,50,0,0
75808,-100,4,2,1,75,0,0
75915,-100,4,2,1,50,0,0
76022,-100,4,2,1,80,0,0
76129,-100,4,2,1,50,0,0
76236,-100,4,2,1,75,0,0
76344,-100,4,2,1,50,0,0
76451,-100,4,2,1,80,0,0
76879,-100,4,2,1,50,0,0
77094,-100,4,2,1,55,0,0
77307,-100,4,2,1,30,0,0
77308,-100,4,2,0,30,0,0
78165,-100,4,2,1,80,0,0
79022,-100,4,2,1,80,0,1
82022,-100,4,2,1,80,0,0
82451,-100,4,2,1,80,0,1
85022,-100,4,2,1,80,0,0
85879,-100,4,2,1,80,0,1
88879,-100,4,2,1,80,0,0
89308,-100,4,2,1,80,0,1
91022,-100,4,2,1,60,0,0
92308,-100,4,2,1,30,0,0
92736,-100,4,2,0,5,0,0
95522,-100,4,2,1,60,0,0
96165,-100,4,2,1,75,0,0
105593,-100,4,2,0,60,0,0
105594,-100,4,2,1,75,0,0
106451,-100,4,2,1,75,0,0
109022,-100,4,2,1,75,0,0
109879,-100,4,2,2,100,0,0
110093,-100,4,2,1,55,0,0
123594,-100,4,2,1,65,0,0
130451,-100,4,2,1,75,0,0
133879,-100,4,2,1,50,0,0
134736,-100,4,2,1,70,0,0
135164,-100,4,2,1,55,0,0
136451,-100,4,2,1,30,0,0
137308,-100,4,2,1,80,0,1
140308,-100,4,2,1,80,0,0
140736,-100,4,2,1,80,0,1
143308,-100,4,2,1,80,0,0
144165,-100,4,2,1,80,0,1
147165,-100,4,2,1,80,0,0
147594,-100,4,2,1,80,0,1
150165,-100,4,2,0,50,0,0
150594,-100,4,2,1,80,0,0
151022,-100,4,2,1,60,0,0
163236,-100,4,2,1,60,0,0
164736,-100,4,2,3,60,0,0
171593,-100,4,2,0,45,0,0
171594,-100,4,2,3,60,0,0
172451,-100,4,2,3,50,0,0
173308,-100,4,2,3,55,0,0
174165,-100,4,2,3,60,0,0
175022,-100,4,2,3,62,0,0
175236,-100,4,2,0,64,0,0
175451,-100,4,2,3,66,0,0
175665,-100,4,2,0,68,0,0
175879,-100,4,2,3,69,0,0
175986,-100,4,2,0,70,0,0
176093,-100,4,2,0,71,0,0
176201,-100,4,2,0,72,0,0
176308,-100,4,2,3,73,0,0
176415,-100,4,2,0,74,0,0
176522,-100,4,2,0,75,0,0
176629,-100,4,2,0,30,0,0
176736,-100,4,2,3,30,0,0
177593,-100,4,2,0,50,0,0
177594,-100,4,2,1,50,0,0
177808,-100,4,2,1,80,0,0
178451,-100,4,2,10,85,0,0

[Colours]
Combo1 : 203,169,241
Combo2 : 125,101,224

[HitObjects]
256,192,3594,12,0,8736,0:0:0:0:
256,192,9808,6,0,P|275:237|250:304,1,89.9999952316285,2|2,0:0|0:0,0:0:0:0:
268,276,10451,6,0,P|352:205|422:235,1,179.999990463257,4|2,1:2|3:2,0:0:0:0:
434,261,11094,1,2,3:2:0:0:
434,261,11308,1,8,0:0:0:0:
505,146,11951,1,0,3:0:0:0:
505,146,12165,2,0,P|449:109|397:119,1,89.9999952316285,2|2,3:2|3:2,0:0:0:0:
384,119,12594,2,0,L|397:16,2,89.9999952316285,2|0|8,1:2|0:2|0:0,0:0:0:0:
379,163,13236,1,0,3:0:0:0:
379,163,13451,1,0,3:0:0:0:
298,123,13879,6,0,L|109:149,1,179.999990463257,2|2,1:2|3:2,0:0:0:0:
76,135,14522,1,2,3:2:0:0:
76,135,14736,1,10,0:2:0:0:
146,19,15379,1,0,3:0:0:0:
146,19,15594,2,0,P|200:25|244:67,1,89.9999952316285,2|2,3:2|3:2,0:0:0:0:
249,84,16022,2,0,P|295:55|349:61,2,89.9999952316285,2|0|8,3:2|0:0|0:0,0:0:0:0:
238,128,16665,1,2,0:0:0:0:
238,128,16879,1,2,0:0:0:0:
305,187,17308,6,0,P|322:258|256:358,1,179.999990463257,4|2,1:2|3:2,0:0:0:0:
229,362,17951,1,2,3:2:0:0:
229,362,18165,1,10,0:0:0:0:
192,231,18808,1,2,3:2:0:0:
192,231,19022,2,0,L|98:240,1,89.9999952316285,2|2,3:2|3:2,0:0:0:0:
61,257,19451,2,0,P|72:193|51:155,2,89.9999952316285,2|2|8,3:2|0:2|0:0,0:0:0:0:
26,285,20094,1,0,3:0:0:0:
26,285,20308,1,2,0:0:0:0:
82,354,20736,6,0,P|155:365|249:280,1,179.999990463257,0|2,1:0|3:2,0:0:0:0:
258,266,21379,1,2,3:2:0:0:
258,266,21594,1,10,0:0:0:0:
388,301,22236,1,0,3:0:0:0:
388,301,22451,2,0,P|415:247|400:193,1,89.9999952316285,2|2,3:2|3:2,0:0:0:0:
402,175,22879,2,0,L|517:207,2,89.9999952316285,2|2|8,3:2|3:2|0:0,0:0:0:0:
358,163,23522,1,0,0:0:0:0:
358,163,23736,1,0,3:0:0:0:
292,224,24165,5,0,1:0:0:0:
232,156,24594,2,0,P|203:215|215:274,1,89.9999952316285,2|0,3:2|0:0,0:0:0:0:
215,281,25022,2,0,L|18:242,1,179.999990463257,10|2,0:2|0:0,0:0:0:0:
3,274,25665,1,0,3:0:0:0:
3,274,25879,2,0,P|13:345|44:372,1,89.9999952316285,2|0,3:2|0:0,0:0:0:0:
59,383,26308,2,0,P|128:350|164:356,1,89.9999952316285,0|0,1:0|0:0,0:0:0:0:
180,368,26736,1,8,0:0:0:0:
261,329,27165,1,2,3:2:0:0:
342,367,27594,6,0,P|431:378|490:297,1,179.999990463257,0|2,1:0|3:2,3:0:0:0:
494,271,28236,1,0,0:0:0:0:
494,271,28451,1,8,0:0:0:0:
424,214,28879,2,0,P|422:156|433:123,1,89.9999952316285,2|0,0:0|3:0,0:0:0:0:
464,95,29308,2,0,L|262:74,1,179.999990463257,2|2,3:2|3:2,0:0:0:0:
243,94,29951,1,0,0:0:0:0:
243,94,30165,2,0,P|230:31|237:0,2,89.9999952316285,8|0|0,0:0|0:0|3:0,0:0:0:0:
208,177,31022,6,0,P|112:161|29:245,1,179.999990463257,0|2,1:0|3:2,3:0:0:0:
29,246,31665,1,0,0:0:0:0:
29,246,31879,1,8,0:0:0:0:
55,332,32308,2,0,P|92:361|163:344,1,89.9999952316285,2|0,0:0|3:2,0:0:0:0:
165,330,32736,2,0,L|367:303,1,179.999990463257,2|0,3:2|1:0,0:0:0:0:
384,325,33379,1,0,0:0:0:0:
384,325,33594,2,0,P|417:247|403:209,1,89.9999952316285,0|0,0:0|3:0,0:0:0:0:
392,207,34022,1,2,3:2:0:0:
461,149,34451,6,0,P|401:73|289:102,1,179.999990463257,0|2,1:0|3:2,3:0:0:0:
292,106,35094,1,0,0:0:0:0:
292,106,35308,1,8,0:0:0:0:
252,25,35736,2,0,P|198:2|149:15,1,89.9999952316285,2|2,3:2|3:2,0:0:0:0:
130,30,36165,2,0,L|112:224,1,179.999990463257,2|2,3:2|0:0,0:0:0:0:
135,248,36808,1,0,0:0:0:0:
135,248,37022,2,0,P|152:306|136:354,1,89.9999952316285,8|8,0:0|0:0,0:0:0:0:
116,367,37451,1,8,0:0:0:0:
34,329,37879,6,0,L|12:132,1,179.999990463257,0|2,1:0|3:2,0:0:0:0:
1,106,38522,1,0,0:0:0:0:
1,106,38736,2,0,P|96:123|152:35,1,179.999990463257,10|2,0:0|0:0,0:0:0:0:
235,45,39594,2,0,L|213:242,1,179.999990463257,2|0,3:2|1:0,0:0:0:0:
202,268,40237,1,0,0:0:0:0:
202,268,40451,2,0,P|297:251|353:339,1,179.999990463257,8|2,0:0|3:2,0:0:0:0:
429,346,41308,6,0,P|471:255|426:164,1,179.999990463257,0|2,1:0|3:2,0:0:0:0:
415,150,41951,1,0,0:0:0:0:
415,150,42165,2,0,L|183:168,1,179.999990463257,10|2,0:0|0:0,0:0:0:0:
154,203,43022,2,0,P|112:112|157:21,1,179.999990463257,2|2,3:2|3:2,0:0:0:0:
168,13,43665,1,0,0:0:0:0:
168,13,43879,2,0,L|400:31,1,179.999990463257,8|2,0:0|3:2,0:0:0:0:
434,4,44736,6,0,P|455:50|443:110,1,89.9999952316285,0|2,1:0|3:2,0:0:0:0:
430,127,45165,2,0,P|340:154|270:58,1,179.999990463257,2|8,3:2|0:0,0:0:0:0:
271,59,45808,1,2,3:2:0:0:
271,59,46022,2,0,P|186:34|117:109,1,179.999990463257,2|2,0:0|3:2,0:0:0:0:
113,133,46665,1,2,3:2:0:0:
113,133,46879,2,0,L|81:334,1,179.999990463257,0|8,1:0|0:0,0:0:0:0:
99,353,47522,1,0,3:0:0:0:
99,353,47736,1,2,3:2:0:0:
175,305,48165,6,0,P|234:320|258:345,1,89.9999952316285,0|2,1:0|3:2,0:0:0:0:
271,380,48594,2,0,L|258:192,1,179.999990463257,2|8,3:2|0:0,0:0:0:0:
258,155,49236,1,2,0:0:0:0:
258,155,49451,2,0,P|350:137|414:230,1,179.999990463257,2|0,0:0|0:0,0:0:0:0:
256,192,49986,12,8,51594,0:1:0:0:
256,191,52451,6,0,L|237:325,2,89.9999952316285,2|0|2,0:0|0:0|0:0,0:0:0:0:
246,146,53094,1,0,0:0:0:0:
246,146,53308,1,2,0:0:0:0:
163,110,53736,2,0,P|134:165|135:203,1,89.9999952316285
148,234,54165,2,0,L|51:218,2,89.9999952316285,2|0|2,0:0|0:0|3:2,0:0:0:0:
192,243,54808,1,2,0:2:0:0:
192,243,55022,6,0,P|161:316|201:386,2,134.999992847443,2|2|2,0:0|0:0|0:0,0:0:0:0:
264,189,56094,2,0,P|280:234|274:279,2,89.9999952316285,0|2|0,0:0|0:0|0:0,0:0:0:0:
229,160,56736,2,0,L|389:146,2,134.999992847443,2|2|2,0:0|0:0|0:0,0:0:0:0:
183,165,57594,2,0,P|163:106|229:11,1,179.999990463257,2|0,0:0|0:0,0:0:0:0:
266,25,58236,1,2,3:2:0:0:
266,25,58451,5,0,0:0:0:0:
412,129,59308,2,0,L|313:139,2,89.9999952316285,2|0|2,0:0|0:0|0:0,0:0:0:0:
453,145,59951,1,2,0:0:0:0:
453,145,60165,1,2,0:0:0:0:
407,222,60594,2,0,P|386:291|394:327,1,89.9999952316285
392,352,61022,2,0,P|337:318|291:324,1,89.9999952316285,2|0,0:0|0:0,0:0:0:0:
269,327,61451,1,2,3:2:0:0:
269,327,61665,1,0,3:0:0:0:
269,327,61879,6,0,L|101:305,2,134.999992847443,2|2|2,0:0|0:0|0:0,0:0:0:0:
341,272,62951,2,0,P|292:238|249:239,2,89.9999952316285,0|2|2,0:0|0:0|0:0,0:0:0:0:
362,311,63594,2,0,L|377:163,2,134.999992847443,2|2|2,0:0|0:0|0:0,0:0:0:0:
381,351,64451,2,0,P|464:371|508:278,1,179.999990463257,0|0,0:0|3:0,0:0:0:0:
467,223,65308,6,0,P|460:171|474:134,1,89.9999952316285,8|0,1:2|0:0,0:0:0:0:
510,112,65736,2,0,P|517:60|503:23,1,89.9999952316285,2|0,0:2|0:0,0:0:0:0:
463,7,66165,2,0,L|270:26,1,179.999990463257,0|0,1:0|0:0,0:0:0:0:
238,26,66808,1,2,0:0:0:0:
238,26,67022,2,0,P|215:105|269:189,1,179.999990463257,0|0,1:0|0:0,0:0:0:0:
303,203,67665,1,2,0:0:0:0:
303,203,67879,1,0,1:0:0:0:
294,293,68308,2,0,P|299:345|279:389,1,89.9999952316285,0|2,0:0|0:0,0:0:0:0:
242,368,68736,6,0,L|51:348,1,179.999990463257,0|0,1:0|0:0,0:0:0:0:
19,361,69379,1,2,0:0:0:0:
19,361,69594,2,0,P|2:284|85:200,1,179.999990463257,0|0,1:0|0:0,0:0:0:0:
102,194,70236,1,10,0:0:0:0:
102,194,70451,2,0,P|133:140|123:84,1,89.9999952316285,0|2,1:0|0:0,0:0:0:0:
106,77,70879,2,0,L|208:50,1,89.9999952316285,10|2,0:0|0:0,0:0:0:0:
235,70,71308,1,0,1:0:0:0:
312,24,71736,1,2,3:2:0:0:
398,49,72165,6,0,P|426:103|412:156,1,89.9999952316285,4|2,1:1|0:0,0:0:0:0:
398,168,72594,2,0,L|303:148,1,89.9999952316285,8|2,0:0|0:0,0:0:0:0:
269,168,73022,2,0,P|249:266|302:344,1,179.999990463257,0|0,1:2|0:0,0:0:0:0:
327,350,73665,1,2,1:2:0:0:
327,350,73879,1,0,1:0:0:0:
388,284,74308,2,0,P|446:290|482:317,1,89.9999952316285,0|2,0:0|1:2,0:0:0:0:
492,346,74736,2,0,L|476:159,1,179.999990463257,0|0,1:0|3:0,0:0:0:0:
493,124,75379,1,0,3:0:0:0:
493,124,75594,6,0,P|396:135|346:68,2,179.999990463257,0|0|0,1:2|1:2|1:2,0:0:0:0:
508,212,76879,2,0,P|519:290|435:371,1,179.999990463257,0|0,1:0|0:0,1:0:0:0:
285,312,78165,2,0,L|92:332,1,179.999990463257,2|2,0:0|0:0,0:0:0:0:
36,273,79022,6,0,P|18:212|82:115,1,179.999990463257,0|2,1:0|3:2,0:0:0:0:
118,105,79665,1,2,3:2:0:0:
118,105,79879,1,10,0:0:0:0:
218,195,80522,1,0,3:0:0:0:
218,195,80736,2,0,P|227:254|201:305,1,89.9999952316285,2|2,3:2|3:2,0:0:0:0:
198,322,81165,2,0,L|303:342,2,89.9999952316285,0|2|8,1:0|0:0|0:0,0:0:0:0:
155,337,81808,1,0,3:0:0:0:
155,337,82022,2,0,P|98:359|49:345,1,89.9999952316285,2|0,0:0|0:0,0:0:0:0:
32,331,82451,6,0,L|54:140,1,179.999990463257,0|2,1:0|3:2,0:0:0:0:
58,107,83094,1,2,3:2:0:0:
58,107,83308,1,8,0:0:0:0:
181,161,83951,1,0,3:0:0:0:
181,161,84165,2,0,P|213:90|203:54,1,89.9999952316285,2|2,3:2|1:2,0:0:0:0:
196,38,84594,2,0,L|319:60,1,89.9999952316285,0|0,3:2|0:0,0:0:0:0:
315,86,85022,2,0,P|378:28|475:49,1,179.999990463257,2|2,0:0|0:0,0:0:0:0:
495,124,85879,6,0,L|473:318,1,179.999990463257,0|2,1:0|3:2,0:0:0:0:
485,348,86522,1,2,3:2:0:0:
485,348,86736,1,10,0:0:0:0:
377,266,87379,1,0,3:0:0:0:
377,266,87594,2,0,P|315:251|259:278,1,89.9999952316285,2|2,3:2|3:2,0:0:0:0:
249,273,88022,2,0,L|266:151,2,89.9999952316285,0|2|8,1:0|0:0|0:0,0:0:0:0:
243,317,88665,1,0,3:0:0:0:
243,317,88879,1,2,0:0:0:0:
320,362,89308,6,0,P|385:377|466:294,1,179.999990463257,0|2,1:0|3:2,0:0:0:0:
468,261,89951,1,2,3:2:0:0:
468,261,90165,1,8,0:0:0:0:
363,175,90808,1,0,3:0:0:0:
363,175,91022,2,0,P|296:176|262:212,1,89.9999952316285,0|2,3:0|0:0,0:0:0:0:
246,218,91451,2,0,P|207:237|163:230,2,89.9999952316285,0|2|2,3:2|0:0|3:2,0:0:0:0:
192,154,92308,1,2,0:0:0:0:
399,189,95522,6,0,P|423:232|403:297,1,89.9999952316285,2|2,0:0|0:0,0:0:0:0:
419,271,96165,6,0,L|456:75,1,179.999990463257,0|2,1:0|0:0,0:0:0:0:
435,52,96808,1,2,0:0:0:0:
435,52,97022,2,0,P|352:42|293:135,1,179.999990463257,8|2,3:2|1:2,0:0:0:0:
209,140,97879,2,0,P|199:87|163:53,2,89.9999952316285,0|2|0,3:2|1:2|0:0,0:0:0:0:
190,181,98522,1,2,3:2:0:0:
190,181,98736,2,0,L|6:164,1,179.999990463257,8|0,0:0|3:0,0:0:0:0:
21,254,99594,6,0,P|1:312|10:359,1,89.9999952316285,0|2,1:0|0:0,0:0:0:0:
41,364,100022,2,0,L|241:338,1,179.999990463257,2|2,0:0|3:2,0:0:0:0:
261,357,100665,1,2,3:2:0:0:
261,357,100879,2,0,P|328:351|364:323,1,89.9999952316285,2|2,1:2|3:2,0:0:0:0:
374,305,101308,2,0,P|360:228|252:215,1,179.999990463257,2|2,3:2|0:0,0:0:0:0:
233,229,101951,1,0,0:0:0:0:
233,229,102165,1,8,0:2:0:0:
147,201,102594,1,0,3:2:0:0:
75,255,103022,6,0,P|58:198|77:147,2,89.9999952316285,2|2|2,1:2|0:0|0:0,0:0:0:0:
53,294,103665,1,2,0:0:0:0:
53,294,103879,2,0,L|169:303,1,89.9999952316285,10|2,3:2|1:2,0:0:0:0:
164,340,104308,2,0,P|225:348|276:306,1,89.9999952316285,2|2,1:2|3:2,0:0:0:0:
280,304,104736,2,0,P|343:288|430:388,1,179.999990463257,2|0,3:2|3:0,0:0:0:0:
501,306,105594,1,8,0:0:0:0:
460,225,106022,1,8,0:0:0:0:
495,142,106451,6,0,P|514:94|496:38,2,89.9999952316285,0|2|2,1:0|0:0|3:2,0:0:0:0:
451,128,107094,1,2,3:2:0:0:
451,128,107308,2,0,L|316:143,1,89.9999952316285,8|2,3:2|3:2,0:0:0:0:
319,122,107736,2,0,P|324:166|306:206,1,89.9999952316285,2|2,1:2|3:2,0:0:0:0:
270,234,108165,2,0,P|174:235|133:147,1,179.999990463257,0|0,3:0|3:0,3:0:0:0:
50,206,109022,1,2,0:0:0:0:
136,48,109879,6,0,L|233:59,2,89.9999952316285,8|0|0,0:1|0:0|0:0,0:0:0:0:
94,66,110522,1,0,0:0:0:0:
94,66,110736,2,0,P|56:132|74:192,1,89.9999952316285,2|0,0:0|0:0,0:0:0:0:
70,185,111165,2,0,P|116:216|176:203,1,89.9999952316285,2|0,0:0|0:0,0:0:0:0:
191,201,111594,1,2,0:0:0:0:
274,234,112022,2,0,P|290:273|272:334,1,89.9999952316285
256,356,112451,2,0,L|361:368,2,89.9999952316285,2|0|2,0:0|0:0|3:2,0:0:0:0:
212,369,113094,1,2,0:2:0:0:
212,369,113308,6,0,L|40:353,2,134.999992847443,2|2|2,0:0|0:0|0:0,0:0:0:0:
185,282,114379,2,0,L|95:271,2,89.9999952316285,0|2|0,0:0|0:0|0:0,0:0:0:0:
229,286,115022,2,0,P|211:201|240:142,2,134.999992847443,2|2|2,0:0|0:0|0:0,0:0:0:0:
269,306,115879,2,0,P|347:283|428:350,1,179.999990463257,2|0,0:0|0:0,0:0:0:0:
439,378,116522,1,2,3:2:0:0:
439,378,116736,5,0,0:0:0:0:
496,207,117594,2,0,P|488:142|452:109,1,89.9999952316285,2|0,0:0|0:0,0:0:0:0:
430,112,118022,1,2,0:0:0:0:
430,112,118236,2,0,L|228:128,1,179.999990463257,2|0,0:0|0:0,0:0:0:0:
205,126,118879,2,0,P|213:61|249:28,1,89.9999952316285
253,6,119308,2,0,L|137:-2,2,89.9999952316285,2|0|2,0:0|0:0|3:2,0:0:0:0:
297,11,119951,1,0,3:0:0:0:
297,11,120165,6,0,P|371:29|452:5,2,134.999992847443,2|2|2,0:0|0:0|0:0,0:0:0:0:
228,69,121236,2,0,P|165:71|121:100,2,89.9999952316285,0|2|2,0:0|0:0|0:0,0:0:0:0:
257,102,121879,2,0,L|235:261,2,134.999992847443,2|2|2,0:0|0:0|0:0,0:0:0:0:
300,91,122736,2,0,P|374:99|420:199,1,179.999990463257,0|0,0:0|3:0,0:0:0:0:
358,249,123594,6,0,P|336:304|344:343,1,89.9999952316285,8|0,1:2|0:0,0:0:0:0:
358,374,124022,2,0,L|248:360,1,89.9999952316285,2|0,0:2|0:0,0:0:0:0:
225,348,124451,2,0,L|44:358,1,179.999990463257,0|0,1:0|0:0,0:0:0:0:
3,340,125094,1,2,0:0:0:0:
3,340,125308,2,0,P|-9:253|71:186,1,179.999990463257,0|0,1:0|0:0,0:0:0:0:
95,184,125951,1,2,0:0:0:0:
95,184,126165,1,0,1:0:0:0:
161,123,126594,2,0,P|156:63|135:34,1,89.9999952316285,0|2,0:0|0:0,0:0:0:0:
101,16,127022,6,0,L|291:33,1,179.999990463257,0|0,1:0|0:0,0:0:0:0:
324,21,127665,1,2,0:0:0:0:
324,21,127879,2,0,P|340:90|255:172,1,179.999990463257,0|0,1:0|0:0,0:0:0:0:
235,191,128522,1,10,0:0:0:0:
235,191,128736,2,0,P|194:256|197:291,1,89.9999952316285,0|2,1:0|0:0,0:0:0:0:
215,305,129165,2,0,L|329:295,1,89.9999952316285,10|2,0:0|0:0,0:0:0:0:
347,281,129594,2,0,P|406:343|505:340,1,179.999990463257,0|2,1:0|3:2,0:0:0:0:
474,256,130451,6,0,L|490:68,1,179.999990463257,4|8,1:1|0:0,0:0:0:0:
471,35,131094,1,2,0:0:0:0:
471,35,131308,2,0,P|379:28|318:106,1,179.999990463257,0|0,1:2|0:0,0:0:0:0:
317,132,131951,1,2,1:2:0:0:
317,132,132165,1,0,1:0:0:0:
230,106,132594,2,0,P|174:82|128:84,1,89.9999952316285,0|2,0:0|1:2,0:0:0:0:
106,102,133022,2,0,L|80:307,1,179.999990463257,0|0,1:0|3:0,0:0:0:0:
111,316,133665,1,0,3:0:0:0:
111,316,133879,5,0,1:0:0:0:
181,259,134308,1,0,1:0:0:0:
256,307,134736,2,0,P|326:362|421:332,2,179.999990463257,0|0|0,1:0|1:0|0:0,0:0:0:0:
107,205,136451,2,0,L|95:396,1,179.999990463257,2|2,0:0|0:0,0:0:0:0:
10,354,137308,6,0,L|-1:174,1,179.999990463257,0|2,1:0|3:2,0:0:0:0:
26,138,137951,1,2,3:2:0:0:
26,138,138165,1,10,0:0:0:0:
117,38,138808,1,0,3:0:0:0:
117,38,139022,2,0,P|182:43|219:80,1,89.9999952316285,2|2,3:2|3:2,0:0:0:0:
231,89,139451,2,0,L|249:-8,2,89.9999952316285,0|2|8,1:0|0:0|0:0,0:0:0:0:
250,129,140094,1,0,3:0:0:0:
250,129,140308,2,0,P|306:147|357:133,1,89.9999952316285,2|0,0:0|0:0,0:0:0:0:
375,120,140736,6,0,L|394:316,1,179.999990463257,0|2,1:0|3:2,0:0:0:0:
400,343,141379,1,2,3:2:0:0:
400,343,141594,1,8,0:0:0:0:
266,365,142236,1,0,3:0:0:0:
266,365,142450,2,0,P|208:314|172:314,1,89.9999952316285,2|2,3:2|1:2,0:0:0:0:
153,318,142879,2,0,L|168:209,1,89.9999952316285,0|0,3:2|0:0,0:0:0:0:
175,184,143308,2,0,P|84:200|28:113,1,179.999990463257,2|2,0:0|0:0,0:0:0:0:
83,67,144165,6,0,L|283:56,1,179.999990463257,0|2,1:0|3:2,0:0:0:0:
303,77,144808,1,2,3:2:0:0:
303,77,145022,1,10,0:0:0:0:
427,25,145665,1,0,3:0:0:0:
427,25,145879,2,0,P|460:77|437:139,1,89.9999952316285,2|2,3:2|3:2,0:0:0:0:
463,147,146308,2,0,L|349:115,2,89.9999952316285,0|2|8,1:0|0:0|0:0,0:0:0:0:
505,161,146951,1,0,3:0:0:0:
505,161,147165,1,2,0:0:0:0:
501,251,147594,6,0,P|432:311|339:273,1,179.999990463257,0|2,1:0|3:2,0:0:0:0:
324,255,148236,1,2,3:2:0:0:
324,255,148451,1,8,0:0:0:0:
223,345,149094,1,0,3:0:0:0:
223,345,149308,2,0,P|147:310|115:318,1,89.9999952316285,2|0,3:2|1:2,0:0:0:0:
100,298,149736,2,0,P|49:332|31:378,2,89.9999952316285,2|0|8,3:2|3:0|0:0,0:0:0:0:
155,226,150594,1,0,3:0:0:0:
109,148,151022,6,0,L|118:51,1,89.9999952316285,4|0,1:1|0:0,0:0:0:0:
102,15,151451,2,0,P|197:8|249:80,1,179.999990463257,2|0,0:2|0:0,0:0:0:0:
265,156,152308,2,0,P|315:186|363:180,1,89.9999952316285,2|0,1:2|0:0,0:0:0:0:
381,212,152736,2,0,L|399:54,2,134.999992847443,0|2|2,1:1|0:0|1:2,0:0:0:0:
378,257,153594,2,0,P|438:255|503:317,2,134.999992847443,2|2|0,0:0|0:0|1:2,0:0:0:0:
336,274,154451,6,0,B|290:310|298:367|298:367|240:264|135:313,2,269.999985694885,2|0|0,1:2|1:0|1:0,0:0:0:0:
266,217,156165,2,0,B|312:181|304:124|304:124|362:227|467:178,2,269.999985694885,0|0|0,1:0|1:0|1:0,0:0:0:0:
188,170,157879,6,0,L|80:151,1,89.9999952316285,2|0,1:2|0:0,0:0:0:0:
56,168,158308,2,0,P|32:97|96:18,1,179.999990463257,2|0,0:2|0:0,0:0:0:0:
171,60,159165,2,0,P|225:81|250:119,1,89.9999952316285,2|0,1:2|0:0,0:0:0:0:
263,145,159594,2,0,L|279:-8,2,134.999992847443,2|2|2,1:2|0:0|1:2,0:0:0:0:
248,187,160451,2,0,P|326:184|385:257,2,134.999992847443,2|2|2,0:0|0:0|1:2,0:0:0:0:
215,218,161308,6,0,P|193:302|345:361,2,269.999985694885,2|0|2,1:2|1:0|1:2,0:0:0:0:
248,187,162808,2,0,P|267:135|256:86,1,89.9999952316285,2|0,0:2|1:0,0:0:0:0:
236,65,163236,1,2,0:2:0:0:
236,65,163451,2,0,L|426:51,2,179.999990463257
153,30,164736,6,0,P|64:34|32:118,1,179.999990463257,4|8,0:1|0:0,0:0:0:0:
56,145,165379,1,2,0:0:0:0:
56,145,165594,2,0,L|28:351,1,179.999990463257,8|8,0:0|0:0,0:0:0:0:
114,359,166451,6,0,P|182:376|256:298,2,179.999990463257,10|10|10,0:0|0:0|0:0,0:0:0:0:
169,288,167736,1,8,0:0:0:0:
132,205,168165,2,0,L|153:21,2,179.999990463257,10|10|10,0:0|0:0|0:0,0:0:0:0:
169,288,169451,1,8,0:0:0:0:
253,256,169879,6,0,P|318:249|394:328,1,179.999990463257,8|8,0:0|0:0,0:0:0:0:
395,370,170522,1,2,0:0:0:0:
395,370,170736,2,0,L|427:181,1,179.999990463257,8|8,0:0|3:2,0:0:0:0:
457,161,171379,1,8,3:2:0:0:
457,161,171594,6,0,P|444:103|404:76,1,89.9999952316285,8|8,0:0|0:0,0:0:0:0:
395,48,172022,2,0,P|330:48|287:81,1,89.9999952316285,8|8,0:0|0:0,0:0:0:0:
274,87,172451,2,0,L|261:-14,2,89.9999952316285,8|8|8,0:0|0:0|0:0,0:0:0:0:
328,158,173308,2,0,P|315:216|275:243,1,89.9999952316285,8|8,0:0|0:0,0:0:0:0:
266,271,173736,2,0,P|201:271|158:238,1,89.9999952316285,8|8,0:0|0:0,0:0:0:0:
145,232,174165,2,0,L|132:333,2,89.9999952316285,8|8|8,0:0|0:0|0:0,0:0:0:0:
100,153,175022,5,8,0:0:0:0:
85,64,175451,1,8,0:0:0:0:
174,49,175879,1,8,0:0:0:0:
189,138,176308,1,8,0:0:0:0:
100,153,176736,1,0,0:0:0:0:
201,4,177594,2,0,P|256:21|281:62,2,89.9999952316285,2|0|0,0:0|1:0|1:0,0:0:0:0:
130,60,178451,6,0,L|102:271,1,179.999990463257,4|2,1:1|3:2,0:0:0:0:
84,278,179094,1,2,3:2:0:0:
84,278,179308,2,0,P|154:294|236:217,1,179.999990463257,8|2,0:0|3:2,0:0:0:0:
234,184,179951,2,0,P|310:183|358:285,1,179.999990463257,4|2,1:3|3:2,0:0:0:0:
350,308,180594,1,4,1:3:0:0:
427,356,181022,2,0,P|449:298|480:275,1,89.9999952316285,8|0,0:0|3:0,0:0:0:0:
511,263,181451,2,0,L|494:155,1,89.9999952316285,2|2,0:0|0:0,0:0:0:0:
504,129,181879,6,0,P|436:78|340:108,1,179.999990463257,4|2,1:0|3:2,0:0:0:0:
327,138,182522,1,2,3:2:0:0:
327,138,182736,2,0,L|122:114,1,179.999990463257,8|2,0:0|3:2,0:0:0:0:
106,100,183379,1,4,1:3:0:0:
106,100,183594,2,0,P|47:156|64:263,1,179.999990463257,2|4,3:2|1:3,0:0:0:0:
67,337,184451,2,0,P|145:319|228:383,1,179.999990463257,10|2,3:2|3:2,0:0:0:0:
294,318,185308,6,0,L|309:132,1,179.999990463257,4|0,1:3|3:0,0:0:0:0:
290,97,185951,2,0,P|366:117|446:37,1,179.999990463257,4|0,1:3|3:0,0:0:0:0:
449,13,186594,1,8,0:1:0:0:
359,3,187022,2,0,L|159:19,1,179.999990463257,4|2,1:3|3:2,0:0:0:0:
134,11,187665,1,4,1:3:0:0:
134,11,187879,2,0,P|103:81|116:126,1,89.9999952316285,2|2,3:2|3:2,3:0:0:0:
125,131,188308,1,8,0:1:0:0:
72,204,188736,6,0,P|108:257|76:373,1,179.999990463257,8|0,1:3|3:0,0:0:0:0:
42,380,189379,2,0,L|234:365,1,179.999990463257,8|0,1:3|3:0,0:0:0:0:
264,379,190022,1,8,0:1:0:0:
327,314,190451,2,0,P|275:285|220:303,2,89.9999952316285,4|8|8,1:3|0:1|0:1,0:0:0:0:
348,353,191094,1,8,0:1:0:0:
348,353,191308,2,8,L|361:241,1,89.9999952316285,8|8,0:1|0:1,0:1:0:0:
396,240,191736,2,8,L|383:128,1,89.9999952316285,8|8,0:2|0:2,0:1:0:0:
363,111,192165,6,0,P|449:121|511:44,1,179.999990463257,4|0,1:0|3:0,3:0:0:0:
487,17,192808,1,2,3:2:0:0:
487,17,193022,2,0,L|265:29,1,179.999990463257,8|2,0:0|3:2,0:0:0:0:
264,11,193665,2,0,P|222:57|245:177,1,179.999990463257,4|2,1:3|3:2,0:0:0:0:
275,187,194308,1,4,1:3:0:0:
281,276,194736,2,0,P|336:283|372:308,2,89.9999952316285,8|2|2,0:0|3:2|3:2,0:0:0:0:
238,289,195379,1,2,3:2:0:0:
238,289,195594,6,0,L|50:270,1,179.999990463257,4|2,1:1|3:2,3:0:0:0:
17,287,196236,1,2,3:2:0:0:
17,287,196451,2,0,P|-1:200|82:130,1,179.999990463257,8|2,0:0|3:2,0:0:0:0:
100,132,197094,1,4,1:3:0:0:
100,132,197308,2,0,P|128:78|122:31,1,89.9999952316285,0|2,0:0|3:2,0:0:0:0:
93,20,197736,2,0,L|288:27,2,179.999990463257,4|8|2,1:3|0:0|3:2,0:0:0:0:
29,83,199022,6,0,P|-2:199|41:256,1,179.999990463257,4|0,1:3|3:0,0:0:0:0:
20,288,199665,2,0,P|108:270|190:339,1,179.999990463257,4|0,1:3|3:0,0:0:0:0:
187,362,200308,1,8,0:1:0:0:
270,327,200736,2,0,L|460:311,1,179.999990463257,4|2,1:3|3:2,0:0:0:0:
475,348,201379,2,0,L|497:152,1,179.999990463257,4|8,1:3|0:1,0:0:0:0:
479,126,202022,1,8,0:0:0:0:
503,39,202451,6,0,P|422:16|356:94,1,179.999990463257,8|0,1:3|3:0,0:0:0:0:
364,121,203094,2,0,L|157:84,1,179.999990463257,8|8,1:3|3:1,0:0:0:0:
144,104,203736,1,8,0:1:0:0:
83,37,204165,2,0,P|54:92|59:135,1,89.9999952316285,0|2,1:0|3:2,0:0:0:0:
71,160,204594,2,0,P|67:204|42:241,1,89.9999952316285,2|0,0:2|1:0,0:0:0:0:
7,269,205022,2,0,L|210:231,1,179.999990463257,8|8,0:0|0:1,0:0:0:0:
265,196,205879,6,2,P|256:116|196:173,1,179.999990463257,4|0,1:0|0:0,1:2:0:0:
