osu file format v14

[General]
AudioFilename: audio.mp3
AudioLeadIn: 0
PreviewTime: 95393
Countdown: 0
SampleSet: Soft
StackLeniency: 0.2
Mode: 0
LetterboxInBreaks: 0
WidescreenStoryboard: 0

[Editor]
Bookmarks: 15773,23453,38813,54173,73373,81053,96413,111773,117773,119453,134813,150173,169373,177053,192413,207773,223133,238493
DistanceSpacing: 1
BeatDivisor: 8
GridSize: 4
TimelineZoom: 2.4

[Metadata]
Title:BOOMBAYAH
TitleUnicode:붐바야
Artist:BLACKPINK
ArtistUnicode:BLACKPINK
Creator:Natsu
Version:OPPA
Source:
Tags:k-pop kpop 블핑 블랙핑크 SQUARE ONE 지수 JISOO 제니 JENNIE 로제 ROSÉ 리사 LISA YG ENTERTAINMENT nekomata Irreversible Euny Collab
BeatmapID:1065884
BeatmapSetID:500858

[Difficulty]
HPDrainRate:6
CircleSize:4
OverallDifficulty:9.5
ApproachRate:9.8
SliderMultiplier:2.99999990463257
SliderTickRate:1

[Events]
//Background and Video events
0,0,"687474703a2f2f692e696d6775722e636f6d2f7841444656656b2e6a7067.jpg",0,0
Video,-1603,"boomba.flv"
//Break Periods
2,111972,117294
//Storyboard Layer 0 (Background)
//Storyboard Layer 1 (Fail)
//Storyboard Layer 2 (Pass)
//Storyboard Layer 3 (Foreground)
//Storyboard Sound Samples

[TimingPoints]
15773,480,4,2,1,60,1,0
20933,-300,4,2,1,25,0,0
20993,-300,4,2,1,5,0,0
21773,-166.666666666667,4,2,1,25,0,0
22013,-166.666666666667,4,2,1,5,0,0
22253,-166.666666666667,4,2,1,25,0,0
22913,-166.666666666667,4,2,1,5,0,0
22973,-71.4285714285714,4,2,1,100,0,1
23393,-71.4285714285714,4,2,1,10,0,1
23453,-100,4,2,1,60,0,0
30653,-66.6666666666667,4,2,1,100,0,0
30893,-66.6666666666667,4,2,1,10,0,0
31133,-100,4,2,1,50,0,0
37853,-285.714285714286,4,2,1,25,0,0
38093,-285.714285714286,4,2,1,10,0,0
38333,-71.4285714285714,4,2,1,100,0,1
38753,-71.4285714285714,4,2,1,10,0,1
38813,-100,4,2,1,60,0,0
42173,-71.4285714285714,4,2,1,100,0,0
42413,-71.4285714285714,4,2,1,10,0,0
42653,-100,4,2,1,60,0,0
54173,-125,4,2,1,60,0,0
73373,-111.111111111111,4,2,1,70,0,0
77213,-100,4,2,1,70,0,0
78653,-66.6666666666667,4,2,1,100,0,1
79133,-66.6666666666667,4,2,1,5,0,0
80093,-285.714285714286,4,2,1,25,0,0
80273,-285.714285714286,4,2,1,5,0,0
80333,-285.714285714286,4,2,1,25,0,0
80513,-285.714285714286,4,2,1,5,0,0
80573,-66.6666666666667,4,2,1,100,0,1
80993,-66.6666666666667,4,2,1,5,0,1
81053,-100,4,2,1,60,0,0
84413,-66.6666666666667,4,2,1,100,0,1
84593,-66.6666666666667,4,2,1,5,0,1
84653,-66.6666666666667,4,2,1,70,0,1
84833,-66.6666666666667,4,2,1,5,0,1
84893,-66.6666666666667,4,2,1,70,0,1
85133,-100,4,2,1,10,0,0
85373,-100,4,2,1,60,0,0
88253,-66.6666666666667,4,2,1,100,0,1
88433,-66.6666666666667,4,2,1,5,0,1
88493,-66.6666666666667,4,2,1,70,0,1
88673,-66.6666666666667,4,2,1,5,0,1
88733,-66.6666666666667,4,2,1,70,0,1
88973,-100,4,2,1,10,0,0
89213,-100,4,2,1,60,0,0
92093,-66.6666666666667,4,2,1,100,0,1
92333,-100,4,2,1,10,0,0
92573,-100,4,2,1,60,0,0
95693,-285.714285714286,4,2,1,50,0,0
95813,-285.714285714286,4,2,1,5,0,0
95933,-66.6666666666667,4,2,1,100,0,1
96353,-66.6666666666667,4,2,1,5,0,1
96413,-100,4,2,1,70,0,0
103373,-285.714285714286,4,2,1,50,0,0
103493,-285.714285714286,4,2,1,5,0,0
103613,-66.6666666666667,4,2,1,100,0,1
104033,-66.6666666666667,4,2,1,5,0,1
104093,-100,4,2,1,70,0,0
111293,-66.6666666666667,4,2,1,100,0,1
111773,-66.6666666666667,4,2,1,10,0,0
117773,-166.666666666667,4,2,1,25,0,0
118013,-166.666666666667,4,2,1,5,0,0
118253,-166.666666666667,4,2,1,25,0,0
118913,-166.666666666667,4,2,1,5,0,0
118973,-71.4285714285714,4,2,1,100,0,1
119393,-71.4285714285714,4,2,1,5,0,1
119453,-100,4,2,1,60,0,0
128573,-285.714285714286,4,2,1,40,0,0
128813,-285.714285714286,4,2,1,10,0,0
129053,-100,4,2,1,60,0,0
130493,-285.714285714286,4,2,1,40,0,0
130733,-285.714285714286,4,2,1,10,0,0
130973,-100,4,2,1,60,0,0
133853,-66.6666666666667,4,2,1,100,0,0
134093,-66.6666666666667,4,2,1,40,0,0
134333,-285.714285714286,4,2,1,40,0,0
134573,-285.714285714286,4,2,1,10,0,0
134813,-100,4,2,1,60,0,0
138173,-71.4285714285714,4,2,1,100,0,0
138413,-71.4285714285714,4,2,1,10,0,0
138653,-100,4,2,1,60,0,0
146333,-200,4,2,1,50,0,0
146573,-200,4,2,1,5,0,0
146813,-200,4,2,1,50,0,0
147053,-200,4,2,1,5,0,0
147293,-200,4,2,1,50,0,0
147533,-200,4,2,1,5,0,0
147653,-200,4,2,1,50,0,0
147893,-200,4,2,1,5,0,0
148013,-100,4,2,1,50,0,0
150173,-125,4,2,1,60,0,0
169373,-111.111111111111,4,2,1,70,0,0
173213,-99.9999999999999,4,2,1,70,0,0
174653,-66.6666666666667,4,2,1,100,0,1
175133,-66.6666666666667,4,2,1,5,0,0
176093,-285.714285714286,4,2,1,25,0,0
176273,-285.714285714286,4,2,1,5,0,0
176333,-285.714285714286,4,2,1,25,0,0
176513,-285.714285714286,4,2,1,5,0,0
176573,-66.6666666666667,4,2,1,100,0,1
176993,-66.6666666666667,4,2,1,5,0,1
177053,-100,4,2,1,60,0,0
180413,-66.6666666666667,4,2,1,100,0,1
180593,-66.6666666666667,4,2,1,5,0,1
180653,-66.6666666666667,4,2,1,70,0,1
180833,-66.6666666666667,4,2,1,5,0,1
180893,-66.6666666666667,4,2,1,70,0,1
181133,-100,4,2,1,10,0,0
181373,-100,4,2,1,60,0,0
184253,-66.6666666666667,4,2,1,100,0,1
184433,-66.6666666666667,4,2,1,5,0,1
184493,-66.6666666666667,4,2,1,70,0,1
184673,-66.6666666666667,4,2,1,5,0,1
184733,-66.6666666666667,4,2,1,70,0,1
184973,-100,4,2,1,10,0,0
185213,-100,4,2,1,60,0,0
188093,-66.6666666666667,4,2,1,100,0,1
188333,-100,4,2,1,10,0,0
188573,-100,4,2,1,60,0,0
191693,-285.714285714286,4,2,1,50,0,0
191813,-285.714285714286,4,2,1,5,0,0
191933,-66.6666666666667,4,2,1,100,0,1
192353,-66.6666666666667,4,2,1,5,0,1
192413,-100,4,2,1,70,0,0
199373,-285.714285714286,4,2,1,50,0,0
199493,-285.714285714286,4,2,1,5,0,0
199613,-66.6666666666667,4,2,1,100,0,1
200033,-66.6666666666667,4,2,1,5,0,1
200093,-100,4,2,1,70,0,0
206093,-166.666666666667,4,2,1,50,0,0
206573,-166.666666666667,4,2,1,20,0,0
206813,-166.666666666667,4,2,1,50,0,0
207053,-166.666666666667,4,2,1,20,0,0
207293,-66.6666666666667,4,2,1,100,0,1
207713,-66.6666666666667,4,2,1,5,0,1
207773,-100,4,2,1,70,0,0
218813,-55.5555555555556,4,2,1,100,0,1
219173,-55.5555555555556,4,2,1,10,0,1
219293,-58.8235294117647,4,2,1,100,0,1
219653,-58.8235294117647,4,2,1,10,0,1
219773,-100,4,2,1,70,0,0
220733,-55.5555555555556,4,2,1,100,0,1
221093,-55.5555555555556,4,2,1,10,0,1
221213,-58.8235294117647,4,2,1,100,0,1
221573,-58.8235294117647,4,2,1,10,0,1
221693,-100,4,2,1,70,0,0
234173,-55.5555555555556,4,2,1,100,0,1
234533,-55.5555555555556,4,2,1,10,0,1
234653,-58.8235294117647,4,2,1,100,0,1
235013,-58.8235294117647,4,2,1,10,0,1
235133,-100,4,2,1,70,0,0
236093,-55.5555555555556,4,2,1,100,0,1
236453,-55.5555555555556,4,2,1,10,0,1
236573,-58.8235294117647,4,2,1,100,0,1
236933,-58.8235294117647,4,2,1,10,0,1
237053,-100,4,2,1,70,0,0
238493,-100,4,2,1,5,0,0

[Colours]
Combo1 : 251,0,6
Combo2 : 60,157,255
Combo3 : 255,106,255
Combo4 : 168,211,255
Combo5 : 255,185,255
Combo6 : 255,255,255

[HitObjects]
76,49,15773,5,6,0:0:0:0:
174,178,15893,1,0,0:0:0:0:
76,49,16013,2,0,L|0:49,1,74.9999976158143
174,178,16253,2,0,B|285:178|285:178|250:152,1,149.999995231629,2|0,0:0|0:0,0:0:0:0:
76,49,16613,5,0,0:0:0:0:
134,243,16733,1,8,1:0:0:0:
254,155,16853,2,0,L|338:155,1,74.9999976158143
203,91,17093,1,0,0:0:0:0:
372,216,17213,2,0,P|403:151|366:90,1,149.999995231629,2|0,0:0|0:0,0:0:0:0:
76,49,17693,69,2,0:0:0:0:
173,199,17813,1,0,0:0:0:0:
23,147,17933,2,0,L|97:139,1,74.9999976158143
283,174,18173,2,0,B|154:190|154:190|173:199,1,149.999995231629,2|0,0:0|0:0,0:0:0:0:
341,234,18533,5,0,0:0:0:0:
434,92,18653,2,0,P|442:55|429:20,1,74.9999976158143,8|0,1:0|0:0,0:0:0:0:
271,80,18893,1,0,0:0:0:0:
437,196,19013,1,0,0:0:0:0:
271,80,19133,2,0,B|142:96|142:96|160:104,1,149.999995231629,2|0,0:0|0:0,0:0:0:0:
507,206,19613,69,2,0:0:0:0:
455,366,19733,1,0,0:0:0:0:
320,233,19853,1,0,0:0:0:0:
479,286,19973,1,0,0:0:0:0:
256,280,20093,2,0,P|243:209|294:158,1,149.999995231629,2|0,0:0|0:0,0:0:0:0:
507,206,20453,5,0,0:0:0:0:
320,233,20573,2,0,P|337:281|301:350,1,112.499996423721,8|0,1:0|1:0,1:0:0:0:
256,280,20933,38,0,B|141:280|141:280|164:246,1,149.999995231629,2|0,1:0|0:0,0:0:0:0:
320,233,21773,70,0,P|336:271|323:324,1,89.9999943923952,2|0,1:0|0:0,0:0:0:0:
322,321,22253,1,2,1:0:0:0:
318,325,22493,2,0,L|147:325,1,157.499990186692,2|0,1:0|0:0,0:0:0:0:
112,382,22973,22,0,P|36:268|160:325,1,367.499977102281,8|0,3:0|0:0,0:0:0:0:
90,314,23453,6,0,L|90:151,1,149.999995231629,2|2,3:0|1:0,0:0:0:0:
17,74,23813,1,8,1:0:0:0:
200,198,23933,1,2,0:0:0:0:
200,198,24173,5,8,1:0:0:0:
383,74,24293,1,0,0:0:0:0:
333,242,24413,2,0,P|316:208|318:171,1,74.9999976158143,2|0,0:0|0:0,0:0:0:0:
501,47,24653,69,2,1:0:0:0:
390,192,24773,1,8,1:0:0:0:
286,46,24893,2,0,P|359:48|418:93,1,149.999995231629,8|8,0:0|1:0,0:0:0:0:
481,363,25373,5,2,0:0:0:0:
340,318,25493,1,0,0:0:0:0:
429,231,25613,2,0,L|421:305,1,74.9999976158143,2|8,1:0|1:0,0:0:0:0:
351,184,25853,69,8,0:0:0:0:
496,171,25973,1,0,0:0:0:0:
371,96,26093,1,8,1:0:0:0:
429,231,26213,1,0,0:0:0:0:
461,88,26333,2,0,L|468:13,1,74.9999976158143,2|0,0:0|0:0,0:0:0:0:
422,152,26573,5,8,1:0:0:0:
272,163,26693,1,0,0:0:0:0:
341,289,26813,2,0,P|352:253|347:216,1,74.9999976158143,8|0,0:0|0:0,0:0:0:0:
194,138,27053,69,2,1:0:0:0:
344,127,27173,1,0,0:0:0:0:
275,1,27293,2,0,P|263:36|268:73,1,74.9999976158143,2|0,0:0|0:0,0:0:0:0:
441,144,27533,2,0,B|465:127|465:127|344:127,1,149.999995231629,2|8,1:0|0:0,0:0:0:0:
40,125,28013,5,8,1:0:0:0:
40,254,28133,1,0,0:0:0:0:
150,190,28253,2,0,L|233:157,1,74.9999976158143,2|0,0:0|0:0,0:0:0:0:
78,190,28493,69,2,1:0:0:0:
78,319,28613,1,8,1:0:0:0:
188,255,28733,2,0,L|271:222,1,74.9999976158143,8|0,0:0|0:0,0:0:0:0:
387,284,28973,2,0,P|380:320|390:356,1,74.9999976158143,8|0,1:0|0:0,0:0:0:0:
494,185,29213,5,2,0:0:0:0:
349,201,29333,1,0,0:0:0:0:
476,274,29453,1,2,1:0:0:0:
416,140,29573,1,8,1:0:0:0:
387,284,29693,1,8,0:0:0:0:
245,75,29933,69,10,1:0:0:0:
308,267,30053,1,0,0:0:0:0:
494,185,30173,2,0,P|507:131|483:77,1,112.499996423721,2|0,0:0|0:0,0:0:0:0:
421,36,30413,1,2,1:0:0:0:
445,245,30533,1,2,1:0:0:0:
256,192,30653,70,0,B|98:192|98:192|165:153,1,225.000001430512,8|0,3:0|0:0,0:0:0:0:
482,31,31133,6,0,P|492:66|486:103,1,74.9999976158143,2|0,0:0|0:0,0:0:0:0:
369,265,31373,2,0,P|359:229|365:192,1,74.9999976158143,2|8,1:0|1:0,0:0:0:0:
482,31,31613,5,8,0:0:0:0:
456,224,31733,1,0,0:0:0:0:
291,78,31853,1,8,1:0:0:0:
510,133,31973,1,0,0:0:0:0:
232,126,32093,70,0,P|215:80|247:16,1,112.499996423721,2|0,0:0|0:0,0:0:0:0:
291,78,32333,1,2,1:0:0:0:
256,255,32453,1,8,1:0:0:0:
106,157,32573,1,8,0:0:0:0:
484,358,32813,5,8,1:0:0:0:
351,300,32933,1,0,0:0:0:0:
448,191,33053,2,0,P|456:227|447:263,1,74.9999976158143,2|0,0:0|0:0,0:0:0:0:
310,379,33293,69,2,1:0:0:0:
177,321,33413,1,8,1:0:0:0:
274,212,33533,2,0,P|282:248|273:284,1,74.9999976158143,8|0,0:0|0:0,0:0:0:0:
85,351,33773,1,8,1:0:0:0:
207,246,33893,1,0,0:0:0:0:
51,107,34013,6,0,P|35:159|60:213,1,112.499996423721,2|0,0:0|0:0,0:0:0:0:
122,257,34253,1,2,1:0:0:0:
298,155,34373,1,0,0:0:0:0:
457,277,34493,2,0,L|457:365,1,74.9999976158143,2|0,0:0|0:0,0:0:0:0:
500,192,34733,69,2,1:0:0:0:
362,261,34853,1,0,0:0:0:0:
427,122,34973,2,0,B|439:84|439:84|391:105|330:89,1,149.999995231629,2|2,0:0|1:0,0:0:0:0:
192,24,35333,1,8,1:0:0:0:
260,226,35453,5,8,0:0:0:0:
260,226,35693,1,8,1:0:0:0:
192,24,35813,1,0,0:0:0:0:
73,183,35933,70,0,P|110:188|145:175,1,74.9999976158143,2|0,0:0|0:0,0:0:0:0:
292,52,36173,1,2,1:0:0:0:
260,226,36293,1,8,1:0:0:0:
363,43,36413,2,0,P|327:39|292:52,1,74.9999976158143,8|0,0:0|0:0,0:0:0:0:
145,175,36653,1,8,1:0:0:0:
344,187,36773,5,8,1:0:0:0:
344,187,36833,1,8,1:0:0:0:
344,187,36893,2,0,P|349:146|332:109,1,74.9999976158143,2|0,0:0|0:0,0:0:0:0:
260,226,37133,1,2,1:0:0:0:
438,187,37253,1,0,0:0:0:0:
182,243,37373,69,8,0:0:0:0:
305,345,37493,1,0,0:0:0:0:
256,131,37613,1,8,1:0:0:0:
111,279,37733,1,0,0:0:0:0:
353,279,37853,54,0,L|410:278,1,52.4999967288972,2|0,1:0|0:0,0:0:0:0:
405,278,38333,6,0,P|460:286|370:211,1,367.499977102281,8|0,3:0|0:0,0:0:0:0:
442,215,38813,6,0,L|443:53,1,149.999995231629,2|2,3:0|1:0,0:0:0:0:
309,24,39173,1,8,1:0:0:0:
205,117,39293,2,0,P|168:125|131:117,1,74.9999976158143,8|0,0:0|0:0,0:0:0:0:
309,24,39533,2,0,P|345:16|382:24,1,74.9999976158143,8|0,1:0|0:0,0:0:0:0:
346,222,39773,6,0,B|346:99|346:99|358:122,1,149.999995231629,2|2,0:0|1:0,0:0:0:0:
416,250,40133,1,8,1:0:0:0:
268,192,40253,2,0,P|231:183|195:190,1,74.9999976158143,8|0,0:0|0:0,0:0:0:0:
416,250,40493,2,0,P|452:258|488:251,1,74.9999976158143,8|0,1:0|0:0,0:0:0:0:
382,124,40733,70,0,L|353:201,1,74.9999976158143,2|0,0:0|0:0,0:0:0:0:
256,360,40973,1,0,0:0:0:0:
321,258,41093,1,8,1:0:0:0:
194,189,41213,2,0,P|192:226|206:260,1,74.9999976158143,8|0,0:0|0:0,0:0:0:0:
249,130,41453,2,0,P|216:111|179:110,1,74.9999976158143,8|0,1:0|0:0,0:0:0:0:
34,159,41693,2,0,B|9:176|9:176|72:197|124:162,1,149.999995231629,2|8,0:0|1:0,0:0:0:0:
256,38,42053,1,0,0:0:0:0:
312,222,42173,70,0,B|328:348|328:348|363:273,1,209.999986915589,8|0,3:0|0:0,0:0:0:0:
363,273,42653,22,0,P|429:240|501:260,1,149.999995231629,2|0,0:0|0:0,0:0:0:0:
440,348,43013,1,8,1:0:0:0:
371,177,43133,2,0,P|362:142|372:106,1,74.9999976158143,8|0,0:0|0:0,0:0:0:0:
489,15,43373,2,0,P|498:50|488:86,1,74.9999976158143,8|0,1:0|0:0,0:0:0:0:
289,151,43613,70,0,B|172:151|172:151|210:123,1,149.999995231629,2|2,0:0|1:0,0:0:0:0:
372,106,43973,1,8,1:0:0:0:
312,240,44093,2,0,P|304:276|312:312,1,74.9999976158143,8|0,0:0|0:0,0:0:0:0:
445,142,44333,2,0,P|453:105|445:69,1,74.9999976158143,8|0,1:0|0:0,0:0:0:0:
411,215,44573,6,0,P|447:222|483:213,1,74.9999976158143,2|0,0:0|0:0,0:0:0:0:
289,151,44813,2,0,P|252:143|216:152,1,74.9999976158143,2|8,1:0|1:0,0:0:0:0:
258,299,45053,2,0,P|265:262|256:226,1,74.9999976158143,8|0,0:0|0:0,0:0:0:0:
131,118,45293,2,0,P|123:154|132:190,1,74.9999976158143,8|0,1:0|0:0,0:0:0:0:
244,70,45533,69,2,0:0:0:0:
5,145,45653,1,8,1:0:0:0:
247,82,45773,1,8,1:0:0:0:
1,132,45893,1,8,1:0:0:0:
248,91,46013,6,0,P|270:145|254:197,1,112.499996423721,8|0,0:0|0:0,0:0:0:0:
235,273,46253,1,8,1:0:0:0:
279,265,46313,1,8,1:0:0:0:
323,258,46373,1,8,1:0:0:0:
368,251,46433,1,8,1:0:0:0:
412,244,46493,70,0,P|408:292|450:248,1,149.999995231629,2|0,0:0|0:0,0:0:0:0:
376,112,46853,1,8,1:0:0:0:
323,258,46973,2,0,P|323:295|339:329,1,74.9999976158143,8|0,0:0|0:0,0:0:0:0:
357,186,47213,2,0,P|317:177|276:193,1,74.9999976158143,8|0,1:0|0:0,0:0:0:0:
120,282,47453,6,0,P|188:303|244:258,1,149.999995231629,2|0,0:0|0:0,0:0:0:0:
230,98,47813,1,8,1:0:0:0:
101,211,47933,2,0,P|103:248|119:281,1,74.9999976158143,8|0,0:0|0:0,0:0:0:0:
230,98,48173,2,0,P|228:60|211:27,1,74.9999976158143,8|0,1:0|0:0,0:0:0:0:
4,89,48413,70,0,L|153:80,1,149.999995231629,2|0,0:0|0:0,0:0:0:0:
256,192,48773,1,8,1:0:0:0:
371,91,48893,2,0,P|379:55|369:20,1,74.9999976158143,8|0,0:0|0:0,0:0:0:0:
256,192,49133,2,0,P|247:228|257:263,1,74.9999976158143,8|0,1:0|0:0,0:0:0:0:
470,229,49373,6,0,B|397:203|397:259|324:226,1,149.999995231629,2|8,0:0|1:0,0:0:0:0:
433,301,49733,1,0,0:0:0:0:
365,159,49853,1,8,0:0:0:0:
365,159,50093,2,0,L|371:77,1,74.9999976158143,2|0,1:0|0:0,0:0:0:0:
487,192,50333,69,2,1:0:0:0:
249,214,50453,1,2,1:0:0:0:
433,301,50573,1,2,1:0:0:0:
370,84,50693,1,2,1:0:0:0:
293,275,50813,2,0,P|222:285|175:231,1,149.999995231629,10|8,0:0|1:0,0:0:0:0:
72,44,51293,5,2,1:0:0:0:
76,272,51413,1,2,1:0:0:0:
263,214,51533,1,2,1:0:0:0:
76,152,51653,1,2,1:0:0:0:
219,275,51773,2,0,P|290:285|337:231,1,149.999995231629,10|8,1:0|1:0,0:0:0:0:
214,94,52133,69,8,1:0:0:0:
214,94,52193,1,8,1:0:0:0:
214,94,52253,2,0,B|262:214|262:214|279:187,1,149.999995231629,2|8,0:0|1:0,0:0:0:0:
298,82,52613,1,0,0:0:0:0:
182,212,52733,2,0,P|149:230|112:228,1,74.9999976158143,2|0,0:0|0:0,0:0:0:0:
298,82,52973,2,0,P|330:63|367:65,1,74.9999976158143,8|0,1:0|0:0,0:0:0:0:
396,277,53213,6,0,P|352:217|349:143,1,149.999995231629,6|8,0:0|1:0,0:0:0:0:
459,177,53573,1,8,1:0:0:0:
282,259,53693,2,0,P|212:286|140:258,1,149.999995231629,8|8,0:0|1:0,0:0:0:0:
52,133,54053,1,8,1:0:0:0:
145,262,54173,6,0,P|165:317|157:376,1,119.999996185303,10|0,3:0|0:0,0:0:0:0:
367,122,54653,2,0,P|346:66|354:7,1,119.999996185303,2|0,3:0|0:0,0:0:0:0:
507,256,55133,6,0,L|387:256,1,119.999996185303,2|0,3:0|0:0,0:0:0:0:
302,303,55493,1,0,0:0:0:0:
306,209,55613,2,0,L|285:152,1,59.9999980926514,2|0,3:0|0:0,0:0:0:0:
387,256,55853,1,0,0:0:0:0:
89,362,56093,70,0,L|209:362,1,119.999996185303,2|0,3:0|0:0,0:0:0:0:
387,256,56573,2,0,L|399:188,1,59.9999980926514,2|0,3:0|0:0,0:0:0:0:
454,320,56813,1,0,0:0:0:0:
254,191,57053,6,0,L|243:131,1,59.9999980926514,2|0,3:0|0:0,0:0:0:0:
187,255,57293,1,0,0:0:0:0:
278,276,57413,1,0,0:0:0:0:
344,211,57533,2,0,L|333:151,1,59.9999980926514,2|0,3:0|0:0,0:0:0:0:
278,276,57773,1,0,0:0:0:0:
405,77,58013,70,0,L|424:195,1,119.999996185303,2|0,3:0|0:0,0:0:0:0:
107,307,58493,2,0,L|87:188,1,119.999996185303,2|0,3:0|0:0,0:0:0:0:
255,5,58973,6,0,L|274:123,1,119.999996185303,2|0,3:0|0:0,0:0:0:0:
259,218,59333,1,0,0:0:0:0:
348,184,59453,2,0,L|407:173,1,59.9999980926514,2|0,3:0|0:0,0:0:0:0:
259,218,59693,2,0,L|199:228,1,59.9999980926514
105,291,59933,70,0,P|84:235|96:177,1,119.999996185303,2|0,3:0|0:0,0:0:0:0:
407,93,60413,2,0,P|427:148|415:206,1,119.999996185303,2|0,3:0|0:0,0:0:0:0:
256,373,60893,6,0,L|256:246,1,119.999996185303,2|0,3:0|0:0,0:0:0:0:
217,164,61253,1,0,0:0:0:0:
313,179,61373,2,0,L|374:169,1,59.9999980926514,2|0,3:0|0:0,0:0:0:0:
217,164,61613,2,0,L|156:174,1,59.9999980926514
67,148,61853,70,0,P|69:206|107:252,1,119.999996185303,2|0,3:0|0:0,0:0:0:0:
444,235,62333,2,0,P|442:177|404:131,1,119.999996185303,2|0,3:0|0:0,0:0:0:0:
255,12,62813,6,0,L|256:144,1,119.999996185303,2|0,3:0|0:0,0:0:0:0:
214,239,63173,1,0,0:0:0:0:
319,193,63293,2,0,L|386:193,1,59.9999980926514,2|0,3:0|0:0,0:0:0:0:
256,132,63533,1,0,0:0:0:0:
504,271,63773,70,0,L|384:270,1,119.999996185303,2|0,3:0|0:0,0:0:0:0:
256,132,64253,2,0,L|245:55,1,59.9999980926514,2|0,3:0|0:0,0:0:0:0:
319,193,64493,1,0,0:0:0:0:
108,155,64733,6,0,L|119:232,1,59.9999980926514,2|0,3:0|0:0,0:0:0:0:
45,94,64973,1,0,0:0:0:0:
132,73,65093,1,0,0:0:0:0:
45,94,65213,2,0,L|-18:106,1,59.9999980926514,2|0,3:0|0:0,0:0:0:0:
108,155,65453,1,0,0:0:0:0:
348,34,65693,70,0,P|365:90|346:145,1,119.999996185303,2|0,3:0|0:0,0:0:0:0:
164,350,66173,2,0,P|146:293|165:238,1,119.999996185303,2|0,3:0|0:0,0:0:0:0:
345,146,66653,6,0,B|434:146|434:146|408:118,1,119.999996185303,2|0,3:0|0:0,0:0:0:0:
333,54,67013,1,0,0:0:0:0:
264,108,67133,2,0,L|193:109,1,59.9999980926514,2|0,3:0|0:0,0:0:0:0:
141,170,67373,2,0,L|70:171,1,59.9999980926514
204,108,67613,70,0,P|230:167|211:225,1,119.999996185303,2|0,3:0|0:0,0:0:0:0:
47,355,68093,2,0,L|166:343,1,119.999996185303,2|0,3:0|0:0,0:0:0:0:
465,311,68573,6,0,L|346:323,1,119.999996185303,2|0,3:0|0:0,0:0:0:0:
256,274,68933,1,0,0:0:0:0:
309,180,69053,2,0,P|314:150|308:121,1,59.9999980926514,2|0,3:0|0:0,0:0:0:0:
203,121,69293,2,0,P|197:150|203:180,1,59.9999980926514
136,88,69533,70,0,P|120:142|136:209,1,119.999996185303,6|0,3:0|0:0,0:0:0:0:
379,203,70013,2,0,P|392:145|376:88,1,119.999996185303,2|0,3:0|0:0,0:0:0:0:
173,41,70493,6,0,L|135:88,1,59.9999980926514,2|0,3:0|0:0,0:0:0:0:
48,122,70733,2,0,L|86:169,1,59.9999980926514
173,203,70973,2,0,L|135:250,1,59.9999980926514,2|0,3:0|0:0,0:0:0:0:
48,284,71213,2,0,L|86:331,1,59.9999980926514
219,326,71453,70,0,P|271:299|330:307,1,119.999996185303,6|0,3:0|0:0,0:0:0:0:
292,57,71933,2,0,P|240:84|181:76,1,119.999996185303,6|0,3:0|0:0,0:0:0:0:
27,235,72413,6,0,L|83:255,1,59.9999980926514,6|0,3:0|0:0,0:0:0:0:
147,192,72653,2,0,L|203:171,1,59.9999980926514
267,235,72893,2,0,L|323:255,1,59.9999980926514,2|0,3:0|0:0,0:0:0:0:
387,192,73133,2,0,L|443:171,1,59.9999980926514
502,272,73373,37,6,3:0:0:0:
256,43,73613,1,2,0:0:0:0:
371,363,73853,5,2,3:0:0:0:
256,43,74093,1,2,0:0:0:0:
141,363,74333,69,2,3:0:0:0:
256,43,74573,1,2,0:0:0:0:
10,272,74813,5,2,3:0:0:0:
256,43,75053,1,2,0:0:0:0:
255,368,75293,69,2,3:0:0:0:
329,336,75413,1,0,0:0:0:0:
201,306,75533,1,0,0:0:0:0:
322,255,75653,1,0,0:0:0:0:
105,183,75773,5,2,3:0:0:0:
251,217,75893,1,0,0:0:0:0:
112,275,76013,1,0,0:0:0:0:
189,146,76133,1,2,0:0:0:0:
201,306,76253,69,2,3:0:0:0:
7,210,76373,1,2,0:0:0:0:
199,85,76493,1,2,0:0:0:0:
112,275,76613,1,2,0:0:0:0:
127,20,76733,5,2,3:0:0:0:
371,180,76853,1,2,0:0:0:0:
112,275,76973,1,2,0:0:0:0:
275,118,77093,1,2,0:0:0:0:
138,347,77213,70,0,L|88:368,1,37.4999988079071,2|8,3:0|1:0,0:0:0:0:
72,276,77333,2,0,L|24:268,1,37.4999988079071,8|8,1:0|1:0,0:0:0:0:
64,176,77453,2,0,L|32:132,1,37.4999988079071,8|8,1:0|1:0,0:0:0:0:
124,84,77573,2,0,L|124:32,1,37.4999988079071,8|8,1:0|1:0,0:0:0:0:
228,88,77693,5,8,1:0:0:0:
260,106,77753,1,8,1:0:0:0:
296,118,77813,1,8,1:0:0:0:
333,124,77873,1,8,1:0:0:0:
370,124,77933,69,8,1:0:0:0:
406,116,77993,1,8,1:0:0:0:
435,93,78053,1,8,1:0:0:0:
440,55,78113,1,8,1:0:0:0:
421,17,78173,5,8,1:0:0:0:
380,18,78233,1,8,1:0:0:0:
353,47,78293,1,8,1:0:0:0:
343,86,78353,1,8,1:0:0:0:
347,126,78413,69,8,1:0:0:0:
360,166,78473,1,8,1:0:0:0:
377,201,78533,1,8,1:0:0:0:
400,236,78593,1,8,1:0:0:0:
427,266,78653,70,0,P|259:262|387:206,1,450.000002861023,8|0,3:0|0:0,0:0:0:0:
328,250,80093,70,0,L|281:250,1,39.3749975466729,2|0,1:0|0:0,0:0:0:0:
248,309,80333,2,0,L|201:309,1,39.3749975466729,2|0,1:0|0:0,0:0:0:0:
136,333,80573,6,0,P|6:288|154:262,1,393.750002503395,8|0,3:0|0:0,0:0:0:0:
81,281,81053,6,0,L|67:119,1,149.999995231629,4|0,0:0|0:0,0:0:0:0:
308,80,81533,2,0,P|344:88|380:78,1,74.9999976158143,2|0,0:0|0:0,0:0:0:0:
203,80,81773,2,0,P|166:71|130:81,1,74.9999976158143,2|0,1:0|0:0,0:0:0:0:
256,288,82013,6,0,L|256:128,1,149.999995231629,2|0,0:0|0:0,0:0:0:0:
147,301,82493,2,0,P|152:337|175:366,1,74.9999976158143,2|0,0:0|0:0,0:0:0:0:
336,366,82733,2,0,P|359:337|364:301,1,74.9999976158143,2|0,1:0|0:0,0:0:0:0:
256,138,82973,70,0,L|256:225,1,74.9999976158143,2|0,0:0|0:0,0:0:0:0:
256,363,83213,2,0,L|256:283,1,74.9999976158143,2|0,1:0|0:0,0:0:0:0:
170,192,83453,1,2,0:0:0:0:
342,242,83573,1,0,1:0:0:0:
170,192,83693,6,0,P|162:150|174:113,1,74.9999976158143,2|0,1:0|0:0,0:0:0:0:
357,155,83933,2,0,B|235:155|235:155|256:138,1,149.999995231629,2|0,0:0|0:0,0:0:0:0:
480,354,84413,54,0,B|348:353|348:353|320:329,1,168.750001072884,8|0,3:0|0:0,0:0:0:0:
292,258,84653,2,0,P|221:249|246:315,1,168.750001072884,2|0,1:0|0:0,0:0:0:0:
292,258,84893,2,0,B|347:145|244:146|297:44,1,225.000001430512,2|0,0:0|0:0,0:0:0:0:
486,235,85373,22,0,P|496:270|488:307,1,74.9999976158143,2|0,0:0|0:0,0:0:0:0:
387,193,85613,2,0,P|376:157|384:120,1,74.9999976158143,2|0,1:0|0:0,0:0:0:0:
418,268,85853,70,0,B|372:286|337:256|337:256|263:256,1,149.999995231629,2|0,0:0|0:0,0:0:0:0:
13,259,86333,2,0,L|95:259,1,74.9999976158143,2|0,0:0|0:0,0:0:0:0:
187,192,86573,2,0,P|195:155|185:119,1,74.9999976158143,2|0,1:0|0:0,0:0:0:0:
88,259,86813,6,0,P|80:295|90:331,1,74.9999976158143,2|0,0:0|0:0,0:0:0:0:
237,290,87053,2,0,P|200:282|164:292,1,74.9999976158143,2|0,1:0|0:0,0:0:0:0:
300,364,87293,1,2,0:0:0:0:
256,192,87413,1,0,0:0:0:0:
336,290,87533,70,0,P|372:297|408:287,1,74.9999976158143,2|0,1:0|0:0,0:0:0:0:
370,107,87773,2,0,B|345:155|369:219|369:219|338:202,1,149.999995231629,2|0,0:0|0:0,0:0:0:0:
23,23,88253,70,0,B|54:79|26:143|26:143|95:109,1,168.750001072884,8|0,3:0|0:0,0:0:0:0:
137,89,88493,2,0,B|217:128|216:57|299:88,1,168.750001072884,2|0,1:0|0:0,0:0:0:0:
277,156,88733,2,0,P|368:112|323:21,1,225.000001430512,2|0,0:0|0:0,0:0:0:0:
182,251,89213,22,0,P|172:286|182:322,1,74.9999976158143,2|0,0:0|0:0,0:0:0:0:
329,322,89453,2,0,P|339:286|330:251,1,74.9999976158143,2|0,1:0|0:0,0:0:0:0:
256,130,89693,2,0,L|256:296,1,149.999995231629,2|0,0:0|0:0,0:0:0:0:
182,61,90173,70,0,P|172:97|182:133,1,74.9999976158143,2|0,0:0|0:0,0:0:0:0:
330,133,90413,2,0,P|339:97|329:61,1,74.9999976158143,2|0,1:0|0:0,0:0:0:0:
182,133,90653,6,0,P|172:168|182:204,1,74.9999976158143,2|0,0:0|0:0,0:0:0:0:
329,204,90893,2,0,P|339:168|330:133,1,74.9999976158143,2|0,1:0|0:0,0:0:0:0:
182,204,91133,70,0,P|172:239|181:275,1,74.9999976158143,2|0,0:0|0:0,0:0:0:0:
330,276,91373,2,0,P|339:240|329:204,1,74.9999976158143,2|0,1:0|0:0,0:0:0:0:
256,84,91613,6,0,L|256:238,1,149.999995231629,2|0,0:0|0:0,0:0:0:0:
52,355,92093,54,0,B|23:363|23:363|105:269|26:183,1,225.000001430512,8|0,3:0|0:0,0:0:0:0:
242,43,92573,6,0,B|364:43|364:43|344:67,1,149.999995231629,2|0,0:0|0:0,0:0:0:0:
181,192,93053,2,0,L|106:203,1,74.9999976158143,2|0,0:0|0:0,0:0:0:0:
331,192,93293,2,0,L|405:180,1,74.9999976158143,2|0,1:0|0:0,0:0:0:0:
256,192,93533,1,2,0:0:0:0:
352,373,93773,6,0,P|359:336|350:300,1,74.9999976158143,2|0,1:0|0:0,0:0:0:0:
256,192,94013,2,0,P|246:227|254:264,1,74.9999976158143,2|0,0:0|0:0,0:0:0:0:
339,150,94253,1,2,1:0:0:0:
184,137,94373,1,8,1:0:0:0:
184,137,94433,1,8,1:0:0:0:
184,137,94493,1,2,0:0:0:0:
132,358,94733,70,0,P|168:365|204:356,1,74.9999976158143,2|0,1:0|0:0,0:0:0:0:
379,358,94973,2,0,P|342:350|306:359,1,74.9999976158143,2|0,0:0|0:0,0:0:0:0:
255,266,95213,2,0,L|256:181,1,74.9999976158143,2|0,1:0|0:0,0:0:0:0:
338,113,95453,1,2,0:0:0:0:
56,226,95693,54,0,L|22:234,1,26.2499983644486,2|0,1:0|0:0,0:0:0:0:
56,226,95933,6,0,P|89:124|114:267,1,393.750002503395,8|0,3:0|0:0,0:0:0:0:
124,192,96413,6,0,L|284:191,1,149.999995231629,4|0,0:0|0:0,0:0:0:0:
400,130,96773,1,8,1:0:0:0:
338,239,96893,2,0,P|332:275|340:311,1,74.9999976158143,2|0,3:0|0:0,0:0:0:0:
400,130,97133,2,0,P|406:93|398:57,1,74.9999976158143,2|0,1:0|0:0,0:0:0:0:
255,13,97373,1,2,0:0:0:0:
339,239,97613,6,0,P|376:244|421:231,1,74.9999976158143,2|8,1:0|1:0,0:0:0:0:
173,239,97853,2,0,P|136:234|91:247,1,74.9999976158143,2|0,3:0|0:0,0:0:0:0:
256,360,98093,2,0,L|256:284,1,74.9999976158143,2|0,1:0|0:0,0:0:0:0:
256,135,98333,70,0,L|256:284,1,149.999995231629,2|2,0:0|1:0,0:0:0:0:
344,192,98693,1,8,1:0:0:0:
173,239,98813,2,0,P|138:248|99:240,1,74.9999976158143,2|0,3:0|0:0,0:0:0:0:
344,192,99053,2,0,P|378:182|418:191,1,74.9999976158143,2|0,1:0|0:0,0:0:0:0:
441,377,99293,2,0,P|383:334|382:262,1,149.999995231629,2|8,0:0|1:0,0:0:0:0:
461,26,99773,5,8,3:0:0:0:
256,192,99893,1,0,3:0:0:0:
512,192,100013,1,0,3:0:0:0:
272,44,100133,1,0,3:0:0:0:
383,260,100253,70,0,P|428:202|414:130,1,149.999995231629,2|0,0:0|0:0,0:0:0:0:
272,44,100613,1,8,1:0:0:0:
267,183,100733,2,0,P|302:193|338:183,1,74.9999976158143,2|0,3:0|0:0,0:0:0:0:
191,146,100973,2,0,P|180:181|190:217,1,74.9999976158143,8|0,1:0|0:0,0:0:0:0:
256,332,101213,1,2,0:0:0:0:
481,192,101453,6,0,P|492:157|482:121,1,74.9999976158143,2|8,1:0|1:0,0:0:0:0:
334,155,101693,2,0,P|369:166|405:156,1,74.9999976158143,2|0,3:0|0:0,0:0:0:0:
372,10,101933,2,0,P|361:45|371:81,1,74.9999976158143,2|0,1:0|0:0,0:0:0:0:
481,192,102173,70,0,B|481:316|481:316|435:293,1,149.999995231629,2|2,0:0|1:0,0:0:0:0:
337,234,102533,1,8,1:0:0:0:
192,307,102653,2,0,P|155:317|119:308,1,74.9999976158143,2|0,3:0|0:0,0:0:0:0:
337,234,102893,2,0,P|373:224|409:233,1,74.9999976158143,2|0,1:0|0:0,0:0:0:0:
294,345,103133,2,0,L|264:264,1,74.9999976158143,2|0,0:0|0:0,0:0:0:0:
216,163,103373,54,0,L|229:198,1,26.2499983644486,2|0,1:0|0:0,0:0:0:0:
216,163,103613,6,0,P|113:59|254:96,1,393.750002503395,8|0,3:0|0:0,0:0:0:0:
178,98,104093,6,0,L|26:98,1,149.999995231629,4|2,0:0|1:0,0:0:0:0:
79,211,104453,1,8,1:0:0:0:
187,288,104573,2,0,P|195:324|187:360,1,74.9999976158143,2|0,3:0|0:0,0:0:0:0:
79,283,104813,2,0,P|70:246|78:210,1,74.9999976158143,2|0,1:0|0:0,0:0:0:0:
198,156,105053,1,2,0:0:0:0:
386,346,105293,6,0,L|460:340,1,74.9999976158143,2|8,1:0|1:0,0:0:0:0:
319,260,105533,2,0,L|393:254,1,74.9999976158143,2|0,3:0|0:0,0:0:0:0:
259,163,105773,2,0,L|333:157,1,74.9999976158143,2|0,1:0|0:0,0:0:0:0:
196,223,106013,70,0,P|170:155|206:92,1,149.999995231629,2|2,0:0|1:0,0:0:0:0:
333,157,106373,1,8,1:0:0:0:
196,223,106493,2,0,L|110:238,1,74.9999976158143,2|0,3:0|0:0,0:0:0:0:
36,334,106733,2,0,L|109:321,1,74.9999976158143,2|0,1:0|0:0,0:0:0:0:
256,287,106973,2,0,P|285:220|243:146,1,149.999995231629,2|2,0:0|1:0,0:0:0:0:
20,27,107453,5,8,3:0:0:0:
205,90,107573,1,0,3:0:0:0:
20,214,107693,1,0,3:0:0:0:
205,277,107813,1,0,3:0:0:0:
103,85,107933,70,0,L|123:233,1,149.999995231629,6|2,0:0|1:0,0:0:0:0:
256,346,108293,1,8,1:0:0:0:
96,309,108413,2,0,P|59:310|27:328,1,74.9999976158143,2|0,3:0|0:0,0:0:0:0:
186,364,108653,2,0,P|223:364|256:346,1,74.9999976158143,2|0,1:0|0:0,0:0:0:0:
340,241,108893,1,2,0:0:0:0:
205,56,109133,6,0,L|121:64,1,74.9999976158143,2|8,1:0|1:0,0:0:0:0:
307,56,109373,2,0,L|381:48,1,74.9999976158143,2|0,3:0|0:0,0:0:0:0:
172,96,109613,70,0,L|88:104,1,74.9999976158143,2|0,1:0|0:0,0:0:0:0:
340,96,109853,2,0,L|424:88,1,74.9999976158143,2|0,0:0|0:0,0:0:0:0:
106,175,110093,6,0,P|93:139|97:102,1,74.9999976158143,2|8,1:0|1:0,0:0:0:0:
414,102,110333,2,0,P|418:139|406:175,1,74.9999976158143,2|0,3:0|1:0,0:0:0:0:
256,276,110573,2,0,L|256:201,1,74.9999976158143,2|0,1:0|0:0,0:0:0:0:
172,36,110813,70,0,P|163:72|172:108,1,74.9999976158143,2|0,0:0|0:0,0:0:0:0:
339,108,111053,2,0,P|348:72|340:36,1,74.9999976158143,2|8,1:0|1:0,0:0:0:0:
217,176,111293,70,0,P|256:334|293:175,1,450.000002861023,8|2,3:0|1:0,0:0:0:0:
28,368,117773,70,0,P|12:330|25:277,1,89.9999943923952,2|0,1:0|0:0,0:0:0:0:
26,280,118253,1,2,1:0:0:0:
30,276,118493,2,0,L|201:276,1,157.499990186692,2|0,1:0|0:0,0:0:0:0:
236,219,118973,6,0,P|312:333|188:276,1,367.499977102281,8|0,3:0|0:0,0:0:0:0:
162,202,119453,6,0,P|153:167|161:131,1,74.9999976158143,2|0,0:0|0:0,0:0:0:0:
277,30,119693,2,0,P|286:65|278:101,1,74.9999976158143,2|8,1:0|1:0,0:0:0:0:
161,131,119933,2,0,L|75:138,1,74.9999976158143,8|0,0:0|0:0,0:0:0:0:
277,102,120173,2,0,L|363:95,1,74.9999976158143,8|0,1:0|0:0,0:0:0:0:
203,60,120413,5,2,0:0:0:0:
235,176,120533,2,0,L|250:249,1,74.9999976158143,0|2,0:0|1:0,0:0:0:0:
161,131,120773,1,8,1:0:0:0:
278,101,120893,2,0,B|387:91|387:91|334:71,1,149.999995231629,8|8,0:0|1:0,0:0:0:0:
26,25,121373,70,0,P|17:61|24:97,1,74.9999976158143,2|0,0:0|0:0,0:0:0:0:
158,203,121613,2,0,P|167:167|161:131,1,74.9999976158143,2|8,1:0|1:0,0:0:0:0:
125,280,121853,2,0,P|160:289|196:277,1,74.9999976158143,8|0,0:0|0:0,0:0:0:0:
387,280,122093,2,0,P|351:270|315:282,1,74.9999976158143,8|0,1:0|0:0,0:0:0:0:
169,367,122333,5,2,0:0:0:0:
252,162,122453,2,0,L|259:238,1,74.9999976158143,0|2,0:0|1:0,0:0:0:0:
168,132,122693,1,0,0:0:0:0:
232,309,122813,2,0,P|303:297|331:231,1,149.999995231629,8|2,0:0|1:0,0:0:0:0:
44,36,123293,69,2,0:0:0:0:
196,143,123413,1,0,0:0:0:0:
4,123,123533,1,2,1:0:0:0:
226,58,123653,1,8,1:0:0:0:
89,181,123773,2,0,L|132:37,1,149.999995231629,8|8,0:0|1:0,0:0:0:0:
405,192,124253,6,0,L|382:263,1,74.9999976158143,2|0,0:0|0:0,0:0:0:0:
324,178,124493,1,2,1:0:0:0:
489,155,124613,1,8,1:0:0:0:
338,41,124733,2,0,P|305:107|324:178,1,149.999995231629,8|8,0:0|1:0,0:0:0:0:
500,366,125213,70,0,L|423:366,1,74.9999976158143,2|0,0:0|0:0,0:0:0:0:
297,305,125453,2,0,L|372:305,1,74.9999976158143,2|8,1:0|1:0,0:0:0:0:
215,367,125693,2,0,L|140:367,1,74.9999976158143,8|0,0:0|0:0,0:0:0:0:
12,306,125933,2,0,L|87:306,1,74.9999976158143,8|0,1:0|0:0,0:0:0:0:
297,305,126173,6,0,P|313:253|291:197,1,112.499996423721,2|0,0:0|0:0,0:0:0:0:
226,160,126413,1,8,1:0:0:0:
394,217,126533,1,0,0:0:0:0:
222,254,126653,2,0,B|100:254|100:254|123:239,1,149.999995231629,8|0,0:0|0:0,0:0:0:0:
464,188,127133,70,0,P|464:243|428:284,1,112.499996423721,2|0,0:0|0:0,0:0:0:0:
344,290,127373,1,2,1:0:0:0:
499,362,127493,1,8,1:0:0:0:
224,341,127613,6,0,P|211:305|241:239,1,112.499996423721,8|0,0:0|0:0,0:0:0:0:
314,204,127853,1,10,1:0:0:0:
139,242,127973,1,0,0:0:0:0:
277,92,128093,70,0,P|328:72|381:87,1,112.499996423721,2|0,0:0|0:0,0:0:0:0:
440,135,128333,1,10,1:0:0:0:
368,4,128453,1,8,1:0:0:0:
332,158,128573,54,0,L|332:217,1,52.4999967288972,2|0,1:0|0:0,0:0:0:0:
86,384,129053,38,0,P|74:326|98:277,1,112.499996423721,2|0,0:0|0:0,0:0:0:0:
175,250,129293,1,2,1:0:0:0:
3,301,129413,1,8,1:0:0:0:
244,297,129533,70,0,P|255:239|232:190,1,112.499996423721,8|0,0:0|0:0,0:0:0:0:
155,163,129773,1,10,1:0:0:0:
327,214,129893,1,0,0:0:0:0:
89,209,130013,6,0,P|77:151|101:102,1,112.499996423721,2|0,0:0|0:0,0:0:0:0:
178,75,130253,1,2,1:0:0:0:
6,126,130373,1,0,0:0:0:0:
155,163,130493,38,0,L|219:163,1,52.4999967288972,2|0,1:0|0:0,0:0:0:0:
509,163,130973,22,0,L|379:163,1,112.499996423721,2|0,0:0|0:0,0:0:0:0:
331,116,131213,1,2,1:0:0:0:
256,280,131333,1,8,1:0:0:0:
3,163,131453,6,0,L|133:163,1,112.499996423721,8|0,0:0|0:0,0:0:0:0:
181,116,131693,1,10,1:0:0:0:
256,280,131813,1,0,0:0:0:0:
396,163,131933,70,0,P|410:106|382:54,1,112.499996423721,2|0,0:0|0:0,0:0:0:0:
315,21,132173,1,2,1:0:0:0:
480,47,132293,1,8,1:0:0:0:
331,116,132413,2,0,L|208:117,1,112.499996423721,8|0,0:0|0:0,0:0:0:0:
146,169,132653,1,8,1:0:0:0:
165,206,132713,1,8,1:0:0:0:
168,247,132773,1,8,1:0:0:0:
155,286,132833,1,8,1:0:0:0:
127,316,132893,5,2,0:0:0:0:
299,364,133013,1,0,0:0:0:0:
264,214,133133,2,0,P|244:246|241:283,1,74.9999976158143,2|0,1:0|0:0,0:0:0:0:
342,194,133373,2,0,P|313:148|260:132,1,112.499996423721,2|0,0:0|0:0,0:0:0:0:
192,174,133613,2,0,L|113:174,1,74.9999976158143,2|0,1:0|0:0,0:0:0:0:
20,356,133853,54,2,B|36:348|36:348|48:360|48:360|60:348|60:348|72:360|72:360|84:348|84:348|96:360|96:360|108:348|108:348|120:360|120:360|132:348|132:348|144:360|144:360|156:348|156:348|168:360|168:360|184:348|184:348|196:360,1,225.000001430512,2|0,1:0|1:0,1:0:0:0:
424,192,134333,70,0,L|424:136,1,52.4999967288972,2|0,1:0|0:0,0:0:0:0:
442,215,134813,22,0,L|443:53,1,149.999995231629,2|0,0:0|0:0,0:0:0:0:
309,24,135173,1,8,1:0:0:0:
192,144,135293,2,0,P|183:179|192:215,1,74.9999976158143,8|0,0:0|0:0,0:0:0:0:
309,95,135533,2,0,P|318:59|309:24,1,74.9999976158143,8|0,1:0|0:0,0:0:0:0:
265,181,135773,6,0,P|338:190|394:143,1,149.999995231629,2|2,0:0|1:0,0:0:0:0:
460,17,136133,1,8,1:0:0:0:
503,143,136253,2,0,L|503:217,1,74.9999976158143,8|0,0:0|0:0,0:0:0:0:
397,357,136493,2,0,L|397:283,1,74.9999976158143,8|0,1:0|0:0,0:0:0:0:
394,68,136733,70,0,L|394:142,1,74.9999976158143,2|0,0:0|0:0,0:0:0:0:
323,242,136973,1,2,1:0:0:0:
479,203,137093,1,8,1:0:0:0:
282,118,137213,2,0,P|245:110|209:119,1,74.9999976158143,8|0,0:0|0:0,0:0:0:0:
323,242,137453,2,0,P|359:249|395:240,1,74.9999976158143,2|0,1:0|0:0,0:0:0:0:
246,189,137693,2,0,P|232:257|279:324,1,149.999995231629,2|2,0:0|1:0,0:0:0:0:
395,355,138053,1,0,0:0:0:0:
182,368,138173,70,0,B|49:369|49:369|85:352|105:317,1,209.999986915589,8|0,3:0|0:0,0:0:0:0:
362,154,138653,22,0,B|434:183|433:122|506:151,1,149.999995231629,2|2,0:0|1:0,0:0:0:0:
398,84,139013,1,8,1:0:0:0:
471,220,139133,2,0,P|480:255|470:291,1,74.9999976158143,8|0,0:0|0:0,0:0:0:0:
398,84,139373,2,0,P|389:49|399:13,1,74.9999976158143,8|0,1:0|0:0,0:0:0:0:
430,157,139613,70,0,B|274:157,1,149.999995231629,2|2,0:0|1:0,0:0:0:0:
129,67,139973,1,8,1:0:0:0:
116,193,140093,2,0,P|108:229|116:265,1,74.9999976158143,8|0,0:0|0:0,0:0:0:0:
201,103,140333,2,0,P|209:67|201:31,1,74.9999976158143,8|0,1:0|0:0,0:0:0:0:
57,70,140573,6,0,P|93:77|129:68,1,74.9999976158143,2|0,0:0|0:0,0:0:0:0:
359,40,140813,2,0,P|323:33|287:42,1,74.9999976158143,2|8,1:0|1:0,0:0:0:0:
193,194,141053,2,0,L|200:268,1,74.9999976158143,8|0,0:0|0:0,0:0:0:0:
336,192,141293,2,0,L|328:117,1,74.9999976158143,8|0,1:0|0:0,0:0:0:0:
421,298,141533,69,2,0:0:0:0:
193,194,141653,1,8,1:0:0:0:
425,287,141773,1,8,1:0:0:0:
188,206,141893,1,8,1:0:0:0:
428,275,142013,6,0,P|439:217|413:169,1,112.499996423721,10|0,0:0|0:0,0:0:0:0:
322,186,142253,1,8,1:0:0:0:
277,191,142313,1,8,1:0:0:0:
233,198,142373,1,8,1:0:0:0:
188,206,142433,1,8,1:0:0:0:
144,213,142493,70,0,P|162:257|109:228,1,149.999995231629,2|0,0:0|0:0,0:0:0:0:
104,61,142853,1,8,1:0:0:0:
221,185,142973,2,0,P|236:218|237:256,1,74.9999976158143,8|0,0:0|0:0,0:0:0:0:
48,298,143213,2,0,P|33:265|33:228,1,74.9999976158143,8|0,1:0|0:0,0:0:0:0:
104,61,143453,6,0,L|131:211,1,149.999995231629,2|2,0:0|1:0,0:0:0:0:
121,341,143813,1,8,1:0:0:0:
237,256,143933,2,0,P|270:241|310:245,1,74.9999976158143,8|0,0:0|0:0,0:0:0:0:
121,341,144173,2,0,P|88:356|48:352,1,74.9999976158143,8|0,1:0|0:0,0:0:0:0:
60,192,144413,70,0,L|74:279,1,74.9999976158143,2|0,0:0|0:0,0:0:0:0:
220,326,144653,2,0,L|208:251,1,74.9999976158143,2|0,1:0|0:0,0:0:0:0:
292,58,144893,2,0,L|303:132,1,74.9999976158143,8|0,0:0|0:0,0:0:0:0:
452,192,145133,2,0,L|438:105,1,74.9999976158143,8|0,1:0|0:0,0:0:0:0:
222,115,145373,6,0,B|149:141|149:85|76:118,1,149.999995231629,2|8,0:0|1:0,0:0:0:0:
185,42,145733,1,0,0:0:0:0:
117,185,145853,1,8,0:0:0:0:
117,185,146093,2,0,L|114:265,1,74.9999976158143,2|0,1:0|0:0,0:0:0:0:
349,269,146333,38,0,L|428:273,1,74.9999976158143,2|0,0:0|0:0,0:0:0:0:
319,252,146813,2,0,L|398:256,1,74.9999976158143,2|0,0:0|0:0,0:0:0:0:
292,223,147293,2,0,L|371:227,1,74.9999976158143,2|0,0:0|0:0,0:0:0:0:
431,165,147653,2,0,L|510:169,1,74.9999976158143,2|0,0:0|0:0,0:0:0:0:
367,227,148013,21,8,1:0:0:0:
343,193,148073,1,8,1:0:0:0:
338,153,148133,1,8,1:0:0:0:
352,114,148193,1,8,1:0:0:0:
382,87,148253,2,0,B|250:88|250:88|273:107,1,149.999995231629,4|0,0:0|0:0,0:0:0:0:
431,165,148613,1,10,1:0:0:0:
492,27,148733,2,0,P|503:63|495:100,1,74.9999976158143,2|0,0:0|0:0,0:0:0:0:
433,237,148973,2,0,P|423:201|431:165,1,74.9999976158143,10|0,1:0|0:0,0:0:0:0:
502,295,149213,6,0,P|435:329|365:296,1,149.999995231629,8|2,0:0|1:0,0:0:0:0:
293,150,149573,1,8,1:0:0:0:
207,294,149693,2,0,B|179:327|179:327|167:218,1,149.999995231629,8|0,0:0|0:0,0:0:0:0:
146,76,150053,1,2,1:0:0:0:
330,239,150173,6,0,P|388:247|444:227,1,119.999996185303,2|0,3:0|0:0,0:0:0:0:
182,145,150653,2,0,P|123:136|67:156,1,119.999996185303,2|0,3:0|0:0,0:0:0:0:
215,323,151133,6,0,L|252:206,1,119.999996185303,2|0,3:0|0:0,0:0:0:0:
296,129,151493,1,0,0:0:0:0:
348,203,151613,2,0,L|412:211,1,59.9999980926514,2|0,3:0|0:0,0:0:0:0:
296,129,151853,2,0,L|232:121,1,59.9999980926514
117,104,152093,70,0,L|235:121,1,119.999996185303,2|0,3:0|0:0,0:0:0:0:
420,142,152573,2,0,P|415:112|422:83,1,59.9999980926514,2|0,3:0|0:0,0:0:0:0:
490,13,152813,1,0,0:0:0:0:
508,191,153053,6,0,P|513:221|506:250,1,59.9999980926514,2|0,3:0|0:0,0:0:0:0:
439,321,153294,1,0,0:0:0:0:
371,253,153413,1,0,0:0:0:0:
303,323,153534,2,0,P|295:351|300:381,1,59.9999980926514,2|0,3:0|0:0,0:0:0:0:
375,354,153773,1,0,0:0:0:0:
205,149,154013,70,0,P|149:133|93:151,1,119.999996185303,2|0,3:0|0:0,0:0:0:0:
306,234,154493,2,0,P|362:250|418:232,1,119.999996185303,2|0,3:0|0:0,0:0:0:0:
342,44,154973,6,0,L|287:150,1,119.999996185303,2|0,3:0|0:0,0:0:0:0:
213,233,155333,1,0,0:0:0:0:
140,167,155453,2,0,L|65:161,1,59.9999980926514,2|0,3:0|0:0,0:0:0:0:
213,233,155693,2,0,L|288:239,1,59.9999980926514
127,279,155933,70,0,P|116:221|140:167,1,119.999996185303,2|0,3:0|0:0,0:0:0:0:
384,104,156413,2,0,P|395:162|372:217,1,119.999996185303,2|0,3:0|0:0,0:0:0:0:
256,373,156893,6,0,L|256:246,1,119.999996185303,2|0,3:0|0:0,0:0:0:0:
313,179,157253,1,0,0:0:0:0:
217,164,157373,2,0,L|156:174,1,59.9999980926514,2|0,3:0|0:0,0:0:0:0:
313,179,157613,2,0,L|374:169,1,59.9999980926514
432,252,157853,70,0,L|313:271,1,119.999996185303,2|0,3:0|0:0,0:0:0:0:
80,132,158333,2,0,L|198:112,1,119.999996185303,2|0,3:0|0:0,0:0:0:0:
374,172,158813,6,0,L|256:192,1,119.999996185303,2|0,3:0|0:0,0:0:0:0:
181,252,159173,1,0,0:0:0:0:
272,287,159293,2,0,L|308:339,1,59.9999980926514,2|0,3:0|0:0,0:0:0:0:
256,192,159533,1,0,0:0:0:0:
156,347,159773,70,0,B|64:347|64:347|85:325,1,119.999996185303,2|0,3:0|0:0,0:0:0:0:
256,192,160253,2,0,L|316:192,1,59.9999980926514,2|0,3:0|0:0,0:0:0:0:
213,270,160493,1,0,0:0:0:0:
138,94,160733,6,0,L|129:34,1,59.9999980926514,2|0,3:0|0:0,0:0:0:0:
94,171,160973,1,0,0:0:0:0:
183,171,161093,1,0,0:0:0:0:
137,249,161213,2,0,L|145:308,1,59.9999980926514,2|0,3:0|0:0,0:0:0:0:
94,171,161453,1,0,0:0:0:0:
308,270,161693,70,0,P|363:289|419:270,1,119.999996185303,2|0,3:0|0:0,0:0:0:0:
204,114,162173,2,0,P|148:94|93:114,1,119.999996185303,2|0,3:0|0:0,0:0:0:0:
161,265,162653,6,0,B|256:192,1,119.999996185303,2|0,3:0|0:0,0:0:0:0:
348,159,163013,1,0,0:0:0:0:
279,95,163133,2,0,P|271:66|276:36,1,59.9999980926514,2|0,3:0|0:0,0:0:0:0:
348,159,163373,2,0,P|355:187|350:217,1,59.9999980926514
323,305,163613,70,0,B|426:304|426:304|414:291,1,119.999996185303,2|0,3:0|0:0,0:0:0:0:
256,191,164093,2,0,B|153:192|153:192|164:204,1,119.999996185303,2|0,3:0|0:0,0:0:0:0:
350,217,164573,6,0,P|348:157|310:108,1,119.999996185303,2|0,3:0|0:0,0:0:0:0:
224,74,164933,1,0,0:0:0:0:
300,18,165053,2,0,L|358:7,1,59.9999980926514,2|0,3:0|0:0,0:0:0:0:
224,74,165293,2,0,L|166:85,1,59.9999980926514
113,175,165533,70,0,P|97:229|113:296,1,119.999996185303,6|0,3:0|0:0,0:0:0:0:
399,209,166013,2,0,P|415:155|399:88,1,119.999996185303,6|0,3:0|0:0,0:0:0:0:
163,122,166493,6,0,L|215:152,1,59.9999980926514,2|0,3:0|0:0,0:0:0:0:
163,262,166733,2,0,L|215:232,1,59.9999980926514
349,262,166973,2,0,L|297:232,1,59.9999980926514,2|0,3:0|0:0,0:0:0:0:
349,122,167213,2,0,L|297:152,1,59.9999980926514
163,262,167453,70,0,B|141:313|167:357|167:357|195:329,1,119.999996185303,6|0,3:0|0:0,0:0:0:0:
349,122,167933,2,0,B|371:71|345:27|345:27|317:55,1,119.999996185303,6|0,3:0|0:0,0:0:0:0:
256,262,168413,6,0,L|291:310,1,59.9999980926514,6|0,3:0|0:0,0:0:0:0:
326,192,168653,2,0,L|374:156,1,59.9999980926514
256,122,168893,2,0,L|220:74,1,59.9999980926514,2|0,3:0|0:0,0:0:0:0:
186,192,169133,2,0,L|138:228,1,59.9999980926514
16,376,169373,37,2,3:0:0:0:
495,192,169613,1,2,0:0:0:0:
16,8,169853,5,2,3:0:0:0:
495,192,170093,1,2,0:0:0:0:
59,144,170333,69,2,3:0:0:0:
495,192,170573,1,2,0:0:0:0:
59,240,170813,5,2,3:0:0:0:
495,192,171053,1,2,0:0:0:0:
5,192,171293,69,2,3:0:0:0:
88,137,171413,1,2,0:0:0:0:
149,262,171533,1,2,0:0:0:0:
207,108,171653,1,2,0:0:0:0:
391,277,171773,5,2,3:0:0:0:
296,214,171893,1,2,0:0:0:0:
227,356,172013,1,2,0:0:0:0:
161,181,172133,1,2,0:0:0:0:
43,326,172253,69,2,3:0:0:0:
227,356,172373,1,2,0:0:0:0:
161,181,172493,1,2,0:0:0:0:
132,370,172613,1,2,0:0:0:0:
370,310,172733,5,2,3:0:0:0:
172,108,172853,1,2,0:0:0:0:
132,370,172973,1,2,0:0:0:0:
322,229,173093,1,2,0:0:0:0:
72,241,173213,70,0,L|22:241,1,37.4999988079071,2|8,3:0|1:0,0:0:0:0:
50,147,173333,2,0,L|15:116,1,37.4999988079071,8|8,1:0|1:0,0:0:0:0:
97,63,173453,2,0,L|112:11,1,37.4999988079071,8|8,1:0|1:0,0:0:0:0:
210,61,173573,2,0,L|255:44,1,37.4999988079071,8|8,1:0|1:0,0:0:0:0:
339,127,173693,5,8,1:0:0:0:
313,151,173753,1,8,1:0:0:0:
292,183,173813,1,8,1:0:0:0:
278,218,173873,1,8,1:0:0:0:
270,254,173933,69,8,1:0:0:0:
269,291,173993,1,8,1:0:0:0:
283,324,174053,1,8,1:0:0:0:
318,336,174113,1,8,1:0:0:0:
359,327,174173,5,8,1:0:0:0:
368,287,174233,1,8,1:0:0:0:
346,254,174293,1,8,1:0:0:0:
312,235,174353,1,8,1:0:0:0:
272,229,174413,69,8,1:0:0:0:
229,232,174473,1,8,1:0:0:0:
191,240,174533,1,8,1:0:0:0:
152,254,174593,1,8,1:0:0:0:
117,273,174653,70,0,P|59:133|188:244,1,450.000002861023,8|0,3:0|0:0,0:0:0:0:
156,191,176093,70,0,L|203:191,1,39.3749975466729,2|0,1:0|0:0,0:0:0:0:
236,250,176333,2,0,L|283:250,1,39.3749975466729,2|0,1:0|0:0,0:0:0:0:
348,274,176573,6,0,P|478:229|330:203,1,393.750002503395,8|0,3:0|0:0,0:0:0:0:
404,222,177053,6,0,L|390:60,1,149.999995231629,4|0,0:0|0:0,0:0:0:0:
108,162,177533,2,0,L|115:251,1,74.9999976158143,2|0,0:0|0:0,0:0:0:0:
256,326,177773,2,0,L|249:237,1,74.9999976158143,2|0,1:0|0:0,0:0:0:0:
232,92,178013,6,0,P|290:118|266:64,1,149.999995231629,2|0,0:0|0:0,0:0:0:0:
27,28,178493,2,0,P|20:64|30:99,1,74.9999976158143,2|0,0:0|0:0,0:0:0:0:
113,236,178733,2,0,P|120:199|110:164,1,74.9999976158143,2|0,1:0|0:0,0:0:0:0:
94,322,178973,70,0,P|131:322|164:307,1,74.9999976158143,2|0,0:0|0:0,0:0:0:0:
303,183,179213,2,0,P|265:182|232:197,1,74.9999976158143,2|0,1:0|0:0,0:0:0:0:
371,271,179453,1,2,0:0:0:0:
308,85,179573,1,0,0:0:0:0:
300,285,179693,6,0,P|337:286|371:271,1,74.9999976158143,2|0,1:0|0:0,0:0:0:0:
473,108,179933,2,0,B|498:76|498:76|491:185,1,149.999995231629,2|0,0:0|0:0,0:0:0:0:
264,354,180413,54,0,P|221:287|263:219,1,168.750001072884,8|0,3:0|0:0,0:0:0:0:
300,285,180653,2,0,L|126:285,1,168.750001072884,2|0,1:0|0:0,0:0:0:0:
46,293,180893,2,0,B|86:273|132:285|132:285|89:220|121:153,1,225.000001430512,2|0,0:0|0:0,0:0:0:0:
407,31,181373,6,0,P|442:21|479:29,1,74.9999976158143,2|0,0:0|0:0,0:0:0:0:
365,130,181613,2,0,P|329:141|292:133,1,74.9999976158143,2|0,1:0|0:0,0:0:0:0:
446,103,181853,6,0,B|464:149|434:184|434:184|434:258,1,149.999995231629,2|0,0:0|0:0,0:0:0:0:
197,350,182333,2,0,L|121:360,1,74.9999976158143,2|0,0:0|0:0,0:0:0:0:
315,350,182573,2,0,L|391:340,1,74.9999976158143,2|0,1:0|0:0,0:0:0:0:
384,192,182813,70,0,L|308:202,1,74.9999976158143,2|0,0:0|0:0,0:0:0:0:
128,192,183053,2,0,L|204:182,1,74.9999976158143,2|0,1:0|0:0,0:0:0:0:
349,107,183293,1,2,0:0:0:0:
256,261,183413,1,0,0:0:0:0:
163,107,183533,6,0,P|154:69|166:33,1,74.9999976158143,2|0,1:0|0:0,0:0:0:0:
349,107,183773,2,0,B|275:138|239:78|239:78|268:78,1,149.999995231629,2|0,0:0|0:0,0:0:0:0:
484,358,184253,54,0,B|311:358,1,168.750001072884,8|0,3:0|0:0,0:0:0:0:
235,375,184493,2,0,P|282:323|214:306,1,168.750001072884,2|0,1:0|0:0,0:0:0:0:
155,362,184733,2,0,B|100:383|100:383|150:311|105:225,1,225.000001430512,2|0,0:0|0:0,0:0:0:0:
13,26,185213,6,0,P|3:61|13:97,1,74.9999976158143,2|0,0:0|0:0,0:0:0:0:
106,226,185453,2,0,P|116:190|107:155,1,74.9999976158143,2|0,1:0|0:0,0:0:0:0:
41,287,185693,2,0,P|108:316|173:283,1,149.999995231629,2|0,0:0|0:0,0:0:0:0:
367,78,186173,6,0,L|380:151,1,74.9999976158143,2|0,0:0|0:0,0:0:0:0:
412,306,186413,2,0,L|398:232,1,74.9999976158143,2|0,1:0|0:0,0:0:0:0:
256,78,186653,70,0,L|269:151,1,74.9999976158143,2|0,0:0|0:0,0:0:0:0:
301,306,186893,2,0,L|287:232,1,74.9999976158143,2|0,1:0|0:0,0:0:0:0:
145,78,187133,6,0,L|158:151,1,74.9999976158143,2|0,0:0|0:0,0:0:0:0:
190,306,187373,2,0,L|176:232,1,74.9999976158143,2|0,1:0|0:0,0:0:0:0:
39,78,187613,70,0,L|67:229,1,149.999995231629,2|0,0:0|0:0,0:0:0:0:
473,306,188093,70,0,B|445:158|445:158|439:194|412:229,1,225.000001430512,8|0,3:0|0:0,0:0:0:0:
208,334,188573,22,0,P|136:352|74:314,1,149.999995231629,2|0,0:0|0:0,0:0:0:0:
133,106,189053,2,0,L|208:95,1,74.9999976158143,2|0,0:0|0:0,0:0:0:0:
379,70,189293,2,0,L|304:81,1,74.9999976158143,2|0,1:0|0:0,0:0:0:0:
187,192,189533,1,2,0:0:0:0:
325,364,189773,70,0,P|333:327|326:291,1,74.9999976158143,2|0,1:0|0:0,0:0:0:0:
187,192,190013,2,0,P|178:228|185:264,1,74.9999976158143,2|0,0:0|0:0,0:0:0:0:
301,160,190253,1,2,1:0:0:0:
108,127,190373,1,8,1:0:0:0:
108,127,190433,1,8,1:0:0:0:
108,127,190493,1,2,0:0:0:0:
385,195,190733,6,0,P|392:159|383:123,1,74.9999976158143,2|0,1:0|0:0,0:0:0:0:
256,16,190973,2,0,L|256:99,1,74.9999976158143,2|0,0:0|0:0,0:0:0:0:
127,195,191213,2,0,P|120:159|129:123,1,74.9999976158143,2|0,1:0|0:0,0:0:0:0:
256,16,191453,1,8,1:0:0:0:
257,302,191693,38,0,L|257:328,1,26.2499983644486,10|8,1:0|1:0,0:0:0:0:
294,238,191933,6,0,P|253:98|217:239,1,393.750002503395,8|0,3:0|0:0,0:0:0:0:
255,174,192413,6,0,L|407:175,1,149.999995231629,4|2,0:0|1:0,0:0:0:0:
331,301,192773,1,8,1:0:0:0:
255,174,192893,2,0,P|246:137|252:100,1,74.9999976158143,2|0,3:0|0:0,0:0:0:0:
405,175,193133,2,0,P|413:211|407:248,1,74.9999976158143,8|0,1:0|0:0,0:0:0:0:
256,364,193373,1,2,0:0:0:0:
348,103,193613,6,0,P|382:87|429:88,1,74.9999976158143,2|8,1:0|1:0,0:0:0:0:
254,229,193853,2,0,P|245:194|254:158,1,74.9999976158143,2|0,3:0|0:0,0:0:0:0:
419,297,194093,2,0,P|382:295|348:281,1,74.9999976158143,8|0,1:0|0:0,0:0:0:0:
173,138,194333,70,0,B|67:138|67:138|125:173,1,149.999995231629,2|2,0:0|1:0,0:0:0:0:
322,195,194693,1,8,1:0:0:0:
257,64,194813,2,0,P|248:99|256:138,1,74.9999976158143,2|0,3:0|0:0,0:0:0:0:
320,267,195053,2,0,P|329:232|321:193,1,74.9999976158143,8|0,1:0|0:0,0:0:0:0:
263,334,195293,2,0,P|299:354|395:313,1,149.999995231629,2|8,0:0|1:0,0:0:0:0:
305,16,195773,5,8,3:0:0:0:
106,149,195893,1,0,3:0:0:0:
328,195,196013,1,0,3:0:0:0:
129,62,196133,1,0,3:0:0:0:
359,269,196253,70,0,P|404:211|380:135,1,149.999995231629,4|2,0:0|1:0,0:0:0:0:
267,22,196613,1,8,1:0:0:0:
386,141,196733,2,0,P|425:146|475:130,1,74.9999976158143,2|0,3:0|0:0,0:0:0:0:
267,22,196973,2,0,P|228:17|178:33,1,74.9999976158143,8|0,1:0|0:0,0:0:0:0:
91,132,197213,1,2,0:0:0:0:
300,305,197453,6,0,P|311:270|301:235,1,74.9999976158143,2|8,1:0|1:0,0:0:0:0:
211,78,197693,2,0,P|200:113|210:148,1,74.9999976158143,2|0,3:0|0:0,0:0:0:0:
367,157,197933,2,0,L|447:157,1,74.9999976158143,8|0,1:0|0:0,0:0:0:0:
222,268,198173,70,0,B|98:268|98:268|134:242,1,149.999995231629,2|2,0:0|1:0,0:0:0:0:
275,195,198533,1,8,1:0:0:0:
350,291,198653,2,0,P|359:326|351:362,1,74.9999976158143,2|0,3:0|0:0,0:0:0:0:
275,195,198893,2,0,P|265:159|273:123,1,74.9999976158143,8|0,1:0|0:0,0:0:0:0:
418,16,199133,2,0,P|427:51|419:87,1,74.9999976158143,2|0,0:0|0:0,0:0:0:0:
257,279,199373,54,0,L|230:284,1,26.2499983644486,2|0,1:0|0:0,0:0:0:0:
257,279,199613,6,0,P|360:175|219:212,1,393.750002503395,8|0,3:0|0:0,0:0:0:0:
295,213,200093,6,0,L|294:50,1,149.999995231629,4|2,0:0|1:0,0:0:0:0:
173,14,200453,1,8,1:0:0:0:
294,63,200573,2,0,P|330:71|366:63,1,74.9999976158143,2|0,3:0|0:0,0:0:0:0:
173,14,200813,2,0,P|137:6|101:14,1,74.9999976158143,8|0,1:0|0:0,0:0:0:0:
22,148,201053,1,2,0:0:0:0:
255,314,201293,6,0,P|265:277|256:241,1,74.9999976158143,2|8,1:0|1:0,0:0:0:0:
256,69,201533,2,0,P|246:106|255:142,1,74.9999976158143,2|0,3:0|0:0,0:0:0:0:
395,215,201773,2,0,P|419:192|392:173,1,74.9999976158143,8|0,1:0|0:0,0:0:0:0:
146,192,202013,70,0,B|27:192|27:192|60:161,1,149.999995231629,2|2,0:0|1:0,0:0:0:0:
205,143,202373,1,8,1:0:0:0:
307,241,202493,2,0,P|318:276|310:312,1,74.9999976158143,2|0,3:0|0:0,0:0:0:0:
205,143,202733,2,0,P|194:108|202:72,1,74.9999976158143,8|0,1:0|0:0,0:0:0:0:
413,81,202973,2,0,L|288:163,1,149.999995231629,10|8,1:0|1:0,0:0:0:0:
16,378,203453,5,8,3:0:0:0:
256,292,203573,1,0,3:0:0:0:
0,357,203693,1,0,3:0:0:0:
244,273,203813,1,0,3:0:0:0:
64,105,203933,70,0,P|52:177|90:239,1,149.999995231629,4|2,0:0|1:0,0:0:0:0:
256,292,204293,1,8,1:0:0:0:
90,239,204413,2,0,L|10:254,1,74.9999976158143,2|0,3:0|0:0,0:0:0:0:
182,305,204653,2,0,L|262:290,1,74.9999976158143,8|0,1:0|0:0,0:0:0:0:
362,360,204893,1,2,0:0:0:0:
253,125,205133,6,0,L|230:54,1,74.9999976158143,2|8,1:0|1:0,0:0:0:0:
117,216,205373,2,0,L|189:193,1,74.9999976158143,2|0,3:0|0:0,0:0:0:0:
394,167,205613,2,0,L|323:191,1,74.9999976158143,8|0,1:0|0:0,0:0:0:0:
202,326,205853,1,2,1:0:0:0:
202,326,206093,38,0,L|245:312,1,44.9999971961976,10|8,1:0|1:0,0:0:0:0:
327,276,206333,2,0,P|337:232|322:190,1,89.9999943923952,2|0,1:0|0:0,0:0:0:0:
283,93,206813,2,0,L|388:73,1,89.9999943923952,2|0,1:0|0:0,0:0:0:0:
220,140,207293,6,0,P|80:155|204:89,1,393.750002503395,8|0,3:0|0:0,0:0:0:0:
148,134,207773,6,0,L|149:302,1,149.999995231629,4|2,0:0|1:0,0:0:0:0:
26,371,208133,1,8,1:0:0:0:
149,284,208253,2,0,L|226:270,1,74.9999976158143,2|0,3:0|0:0,0:0:0:0:
364,101,208493,2,0,L|287:115,1,74.9999976158143,8|0,1:0|0:0,0:0:0:0:
439,147,208733,6,0,P|451:76|404:21,1,149.999995231629,2|2,0:0|1:0,0:0:0:0:
332,194,209093,1,8,1:0:0:0:
435,270,209213,2,0,L|509:278,1,74.9999976158143,2|0,3:0|0:0,0:0:0:0:
332,194,209453,2,0,L|257:185,1,74.9999976158143,8|0,1:0|0:0,0:0:0:0:
49,146,209693,70,0,B|25:157|25:157|155:173,1,149.999995231629,2|2,0:0|1:0,0:0:0:0:
284,103,210053,1,8,1:0:0:0:
209,253,210173,2,0,P|200:289|209:325,1,74.9999976158143,2|0,3:0|0:0,0:0:0:0:
284,175,210413,2,0,P|293:138|284:103,1,74.9999976158143,8|0,1:0|0:0,0:0:0:0:
79,45,210653,2,0,L|229:45,1,149.999995231629,2|8,0:0|1:0,0:0:0:0:
476,194,211133,5,8,3:0:0:0:
256,259,211253,1,0,0:0:0:0:
444,81,211373,1,0,0:0:0:0:
509,301,211493,1,0,0:0:0:0:
222,328,211613,70,0,P|178:270|203:202,1,149.999995231629,4|2,0:0|1:0,0:0:0:0:
342,136,211973,1,8,1:0:0:0:
202,203,212093,2,0,L|116:218,1,74.9999976158143,2|0,3:0|0:0,0:0:0:0:
342,136,212333,2,0,L|428:121,1,74.9999976158143,8|0,1:0|0:0,0:0:0:0:
301,209,212573,6,0,P|259:149|280:80,1,149.999995231629,2|2,0:0|1:0,0:0:0:0:
387,211,212933,1,8,1:0:0:0:
255,283,213053,2,0,L|169:298,1,74.9999976158143,2|0,3:0|0:0,0:0:0:0:
7,281,213293,2,0,P|1:317|14:352,1,74.9999976158143,8|0,1:0|0:0,0:0:0:0:
137,192,213533,70,0,P|143:155|130:120,1,74.9999976158143,2|0,0:0|0:0,0:0:0:0:
32,28,213773,1,2,1:0:0:0:
226,62,213893,1,8,1:0:0:0:
64,163,214013,2,0,L|-16:164,1,74.9999976158143,2|0,3:0|0:0,0:0:0:0:
128,279,214253,2,0,L|208:278,1,74.9999976158143,8|0,1:0|0:0,0:0:0:0:
381,321,214493,2,0,B|406:325|421:345|421:345|396:229,1,149.999995231629,2|8,0:0|1:0,0:0:0:0:
215,28,214973,5,8,3:0:0:0:
36,216,215093,1,0,3:0:0:0:
324,282,215213,1,0,3:0:0:0:
132,120,215333,1,0,3:0:0:0:
331,361,215453,70,0,P|391:319|395:246,1,149.999995231629,4|2,0:0|1:0,0:0:0:0:
256,122,215813,1,8,1:0:0:0:
172,247,215933,2,0,P|141:252|150:221,1,74.9999976158143,2|0,3:0|0:0,0:0:0:0:
361,162,216173,2,0,P|370:131|339:136,1,74.9999976158143,8|0,1:0|0:0,0:0:0:0:
287,296,216413,6,0,L|305:382,1,74.9999976158143,2|0,0:0|0:0,0:0:0:0:
362,247,216653,1,2,1:0:0:0:
203,318,216773,1,8,1:0:0:0:
362,247,216893,2,0,P|397:231|437:235,1,74.9999976158143,2|0,3:0|0:0,0:0:0:0:
203,318,217133,2,0,P|168:334|128:330,1,74.9999976158143,8|0,1:0|0:0,0:0:0:0:
126,126,217373,70,0,B|156:253|156:253|173:218,1,149.999995231629,2|2,0:0|1:0,0:0:0:0:
216,105,217733,1,8,1:0:0:0:
60,207,217853,2,0,B|24:208|24:208|48:177,1,74.9999976158143,2|0,3:0|0:0,0:0:0:0:
216,105,218093,2,0,B|252:104|252:104|227:134,1,74.9999976158143,8|0,1:0|0:0,0:0:0:0:
268,30,218333,2,0,P|324:75|314:146,1,149.999995231629,2|8,0:0|1:0,0:0:0:0:
113,286,218813,70,0,B|174:271|174:271|181:348|134:374|90:375|51:357|28:328|23:281|28:240|72:208|121:215,1,404.999974765779,8|0,3:0|0:0,0:0:0:0:
298,201,219293,2,0,P|336:327|275:211,1,382.499995136261,8|0,3:0|0:0,0:0:0:0:
261,52,219773,21,2,3:0:0:0:
263,59,220013,2,0,P|301:65|345:53,1,74.9999976158143,2|0,1:0|0:0,0:0:0:0:
157,25,220253,2,0,B|41:25|41:25|70:42,1,149.999995231629,2|2,0:0|1:0,0:0:0:0:
213,136,220613,1,8,1:0:0:0:
105,307,220733,54,0,B|166:292|166:292|173:369|126:395|82:396|43:378|20:349|15:302|20:261|64:229|113:236,1,404.999974765779,8|0,3:0|0:0,0:0:0:0:
290,222,221213,2,0,P|328:348|267:232,1,382.499995136261,8|0,3:0|0:0,0:0:0:0:
407,148,221693,5,2,3:0:0:0:
399,150,221933,2,0,P|406:110|388:72,1,74.9999976158143,2|0,1:0|0:0,0:0:0:0:
207,178,222173,2,0,P|275:181|322:110,1,149.999995231629,2|8,0:0|1:0,0:0:0:0:
256,13,222533,1,8,1:0:0:0:
113,234,222653,5,8,3:0:0:0:
399,150,222773,1,0,3:0:0:0:
113,150,222893,1,0,3:0:0:0:
399,234,223013,1,0,3:0:0:0:
256,13,223133,70,0,B|224:85|286:85|256:157,1,149.999995231629,4|2,0:0|1:0,0:0:0:0:
323,49,223493,1,8,1:0:0:0:
186,122,223613,2,0,P|149:130|113:121,1,74.9999976158143,2|0,3:0|0:0,0:0:0:0:
323,49,223853,2,0,P|359:41|395:50,1,74.9999976158143,8|0,1:0|0:0,0:0:0:0:
395,232,224093,6,0,B|362:118|362:118|395:150,1,149.999995231629,2|2,0:0|1:0,0:0:0:0:
476,249,224453,1,8,1:0:0:0:
298,191,224573,2,0,P|261:183|225:193,1,74.9999976158143,2|0,3:0|0:0,0:0:0:0:
109,281,224813,2,0,P|145:288|181:278,1,74.9999976158143,8|0,1:0|0:0,0:0:0:0:
362,239,225053,70,0,P|379:196|325:114,1,149.999995231629,2|2,0:0|1:0,0:0:0:0:
286,287,225413,1,8,1:0:0:0:
422,301,225533,2,0,L|502:305,1,74.9999976158143,2|0,3:0|0:0,0:0:0:0:
286,287,225773,2,0,L|206:283,1,74.9999976158143,8|0,1:0|0:0,0:0:0:0:
62,191,226013,2,0,B|92:140|54:89|54:89|90:71,1,149.999995231629,2|8,0:0|1:0,0:0:0:0:
388,37,226493,5,8,3:0:0:0:
259,234,226613,1,0,3:0:0:0:
512,160,226733,1,0,3:0:0:0:
195,176,226853,1,0,3:0:0:0:
371,303,226973,70,0,P|415:245|390:177,1,149.999995231629,4|2,0:0|1:0,0:0:0:0:
256,80,227333,1,8,1:0:0:0:
259,234,227453,2,0,L|337:234,1,74.9999976158143,2|0,3:0|0:0,0:0:0:0:
188,284,227693,2,0,P|173:251|174:214,1,74.9999976158143,8|0,1:0|0:0,0:0:0:0:
288,82,227933,6,0,B|397:81|397:81|365:53,1,149.999995231629,2|2,0:0|1:0,0:0:0:0:
209,21,228293,1,8,1:0:0:0:
327,164,228413,2,0,P|336:200|328:236,1,74.9999976158143,2|0,3:0|0:0,0:0:0:0:
185,341,228653,2,0,P|175:304|183:268,1,74.9999976158143,8|0,1:0|0:0,0:0:0:0:
327,164,228893,70,0,L|412:143,1,74.9999976158143,2|0,0:0|0:0,0:0:0:0:
256,199,229133,1,2,1:0:0:0:
366,54,229253,1,8,1:0:0:0:
452,216,229373,2,0,P|463:251|454:287,1,74.9999976158143,2|0,3:0|0:0,0:0:0:0:
322,356,229613,2,0,L|243:355,1,74.9999976158143,8|0,1:0|0:0,0:0:0:0:
57,346,229853,2,0,B|33:322|33:322|95:340|147:306,1,149.999995231629,2|8,0:0|1:0,0:0:0:0:
406,216,230333,5,8,3:0:0:0:
106,168,230453,1,0,3:0:0:0:
393,256,230573,1,0,3:0:0:0:
118,127,230693,1,0,3:0:0:0:
374,288,230813,70,0,P|304:301|248:246,1,149.999995231629,4|2,0:0|1:0,0:0:0:0:
295,86,231173,1,8,1:0:0:0:
249,251,231293,2,0,P|212:259|175:249,1,74.9999976158143,2|0,3:0|0:0,0:0:0:0:
295,86,231533,2,0,P|331:77|369:88,1,74.9999976158143,8|0,1:0|0:0,0:0:0:0:
421,251,231773,6,0,L|405:177,1,74.9999976158143,2|0,0:0|0:0,0:0:0:0:
359,320,232013,1,2,1:0:0:0:
512,224,232133,1,8,1:0:0:0:
309,174,232253,2,0,P|273:166|238:175,1,74.9999976158143,2|0,3:0|0:0,0:0:0:0:
287,320,232493,2,0,P|323:329|359:320,1,74.9999976158143,8|0,1:0|0:0,0:0:0:0:
458,169,232733,70,0,B|439:122|469:71|469:71|421:77,1,149.999995231629,2|2,0:0|1:0,0:0:0:0:
256,122,233093,1,8,1:0:0:0:
352,247,233213,2,0,P|363:283|358:320,1,74.9999976158143,2|0,3:0|0:0,0:0:0:0:
154,320,233453,2,0,P|148:283|159:247,1,74.9999976158143,8|0,1:0|0:0,0:0:0:0:
313,170,233693,2,0,P|328:101|267:47,1,149.999995231629,2|8,0:0|1:0,0:0:0:0:
96,292,234173,70,0,B|157:277|157:277|164:354|117:380|73:381|34:363|11:334|6:287|11:246|55:214|104:221,1,404.999974765779,8|0,3:0|0:0,0:0:0:0:
282,204,234653,2,0,P|320:330|259:214,1,382.499995136261,8|0,3:0|0:0,0:0:0:0:
367,117,235133,21,2,3:0:0:0:
367,117,235373,2,0,P|399:131|423:177,1,74.9999976158143,2|0,1:0|0:0,0:0:0:0:
390,347,235613,2,0,B|379:372|379:372|314:362|304:287,1,149.999995231629,2|2,0:0|1:0,0:0:0:0:
215,152,235973,1,8,1:0:0:0:
105,307,236093,54,0,B|166:292|166:292|173:369|126:395|82:396|43:378|20:349|15:302|20:261|64:229|113:236,1,404.999974765779,8|0,3:0|0:0,0:0:0:0:
290,222,236573,2,0,P|328:348|267:232,1,382.499995136261,8|0,3:0|0:0,0:0:0:0:
352,111,237053,5,2,3:0:0:0:
352,111,237293,2,0,L|352:27,1,74.9999976158143,2|0,1:0|0:0,0:0:0:0:
470,192,237533,2,0,B|469:299|469:299|426:264,1,149.999995231629,2|8,0:0|1:0,0:0:0:0:
320,192,237893,1,8,1:0:0:0:
149,353,238013,5,8,3:0:0:0:
85,115,238133,1,0,3:0:0:0:
320,192,238253,1,0,3:0:0:0:
62,309,238373,2,0,P|26:317|-11:308,1,74.9999976158143,8|0,3:0|0:0,0:0:0:0:
